Поиск

(Funk/Jazz/Soul) [CD] Maceo Parker - It's All About Love - 2018, FLAC (image+.cue), lossless

(Funk/Jazz/Soul) [CD] Maceo Parker - It's All About Love - 2018, FLAC (image+.cue), lossless
Треклист:
Maceo Parker / It's All About Love
Жанр: Funk/Jazz/Soul
Носитель: CD
Страна-производитель диска (релиза): Russia
Год издания: 2018
Издатель (лейбл): Time Blues
Страна исполнителя (группы): USA
Аудиокодек: FLAC (*.flac)
Тип рипа: image+.cue
Битрейт аудио: lossless
Продолжительность: 45'48''
Источник (релизер): RedHotBlues
Наличие сканов в содержимом раздачи: да
Треклист:
CD: Maceo Parker - It's All About Love
01. Who's Making Love [0:05:52.28]
02. I'm In Love [0:06:33.56]
03. Gonna Put Your Lovin' In The Lay Away [0:11:23.39]
04. Love The One You're With [0:06:18.44]
05. Love Won't Let Me Wait [0:04:15.26]
06. Isn't She Lovely [0:05:34.41]
07. I Love You A Bushel And A Peak [0:05:48.11]
 
Лог создания рипа
Exact Audio Copy V1.3 from 2. September 2016
Отчёт EAC об извлечении, выполненном 29. марта 2018, 22:39
Maceo Parker / It's All About Love
Дисковод: _NEC DVD_RW ND-4570A Adapter: 1 ID: 2
Режим чтения : Достоверность
Использование точного потока : Да
Отключение кэша аудио : Да
Использование указателей C2 : Нет
Коррекция смещения при чтении : 48
Способность читать области Lead-in и Lead-out : Нет
Заполнение пропущенных сэмплов тишиной : Да
Удаление блоков с тишиной в начале и конце : Нет
При вычислениях CRC использовались нулевые сэмплы : Да
Интерфейс : Встроенный Win32-интерфейс для Win NT/2000
Выходной формат : Пользовательский кодировщик
Выбранный битрейт : 768 kBit/s
Качество : Высокий
Добавление ID3-тега : Нет
Утилита сжатия : C:\Program Files\Exact Audio Copy\FLAC\FLAC.EXE
Дополнительные параметры : -6 -V -T "ARTIST=%artist%" -T "TITLE=%title%" -T "ALBUM=%albumtitle%" -T "DATE=%year%" -T "TRACKNUMBER=%tracknr%" -T "GENRE=%genre%" -T "COMMENT=%comment%" -T "BAND=%albuminterpret%" -T "ALBUMARTIST=%albuminterpret%" -T "COMPOSER=%composer%" %haslyrics%--tag-from-file=LYRICS="%lyricsfile%"%haslyrics% -T "DISCNUMBER=%cdnumber%" -T "TOTALDISCS=%totalcds%" -T "TOTALTRACKS=%numtracks%" %hascover%--picture="%coverfile%"%hascover% %source% -o %dest%
TOC извлечённого CD
Трек | Старт | Длительность | Начальный сектор | Конечный сектор
---------------------------------------------------------------------
1 | 0:00.00 | 5:52.28 | 0 | 26427
2 | 5:52.28 | 6:33.56 | 26428 | 55958
3 | 12:26.09 | 11:23.39 | 55959 | 107222
4 | 23:49.48 | 6:18.44 | 107223 | 135616
5 | 30:08.17 | 4:15.26 | 135617 | 154767
6 | 34:23.43 | 5:34.41 | 154768 | 179858
7 | 39:58.09 | 5:48.11 | 179859 | 205969
Характеристики диапазона извлечения и сообщения об ошибках
Выбранный диапазон
Имя файла C:\Users\Titanium\Desktop\Maceo Parker - It's All About Love 2018 45'48''\Maceo Parker - It's All About Love.wav
Пиковый уровень 96.2 %
Скорость извлечения 7.0 X
Качество диапазона 100.0 %
CRC теста CFD13A45
CRC копии CFD13A45
Копирование... OK
Ошибок не произошло
Конец отчёта
---- CUETools DB Plugin V2.1.6
[CTDB TOCID: iAEQvujm7LO8Xnjeo7WQXyzRrQc-] found
Submit result: iAEQvujm7LO8Xnjeo7WQXyzRrQc- has been confirmed
Track | CTDB Status
1 | (7/7) Accurately ripped
2 | (7/7) Accurately ripped
3 | (7/7) Accurately ripped
4 | (7/7) Accurately ripped
5 | (7/7) Accurately ripped
6 | (7/7) Accurately ripped
7 | (7/7) Accurately ripped
==== Контрольная сумма отчёта 4AA6341558D8EC99E1F895969D33D4D3C709B1657FC5540CCD5FF603C315C965 ====
 
Содержание индексной карты (.CUE)
REM GENRE Jazz
REM DATE 2018
REM DISCID 470ABA07
REM COMMENT "ExactAudioCopy v1.3"
PERFORMER "Maceo Parker"
TITLE "It's All About Love"
REM COMPOSER ""
FILE "Maceo Parker - It's All About Love.flac" WAVE
TRACK 01 AUDIO
TITLE "Who's Making Love"
PERFORMER "Maceo Parker"
REM COMPOSER ""
INDEX 01 00:00:00
TRACK 02 AUDIO
TITLE "I'm In Love"
PERFORMER "Maceo Parker"
REM COMPOSER ""
INDEX 00 05:51:58
INDEX 01 05:52:28
TRACK 03 AUDIO
TITLE "Gonna Put Your Lovin' In The Lay Away"
PERFORMER "Maceo Parker"
REM COMPOSER ""
INDEX 00 12:24:54
INDEX 01 12:26:09
TRACK 04 AUDIO
TITLE "Love The One You're With"
PERFORMER "Maceo Parker"
REM COMPOSER ""
INDEX 01 23:49:48
TRACK 05 AUDIO
TITLE "Love Won't Let Me Wait"
PERFORMER "Maceo Parker"
REM COMPOSER ""
INDEX 00 30:05:16
INDEX 01 30:08:17
TRACK 06 AUDIO
TITLE "Isn't She Lovely"
PERFORMER "Maceo Parker"
REM COMPOSER ""
INDEX 00 34:22:31
INDEX 01 34:23:43
TRACK 07 AUDIO
TITLE "I Love You A Bushel And A Peak"
PERFORMER "Maceo Parker"
REM COMPOSER ""
INDEX 00 39:56:13
INDEX 01 39:58:09
 
Лог проверки качества
-----------------------
DON'T MODIFY THIS FILE
-----------------------
PERFORMER: auCDtect Task Manager, ver. 1.6.0 RC1 build 1.6.0.1
Copyright (c) 2008-2010 y-soft. All rights reserved
http://y-soft.org
ANALYZER: auCDtect: CD records authenticity detector, version 0.8.2
Copyright (c) 2004 Oleg Berngardt. All rights reserved.
Copyright (c) 2004 Alexander Djourik. All rights reserved.
FILE: Maceo Parker - It's All About Love.flac
Size: 333363196 Hash: 24AC631EB4C389A4315D95B472F24159 Accuracy: -m0
Conclusion: CDDA 100%
Signature: A518B80C0D85A38F9DADA14F30AD378BDFB34AB8
Приватный:
Нет (DHT включён)
Размер:
387.06 Мб (405,865,757 байт) » файлов: 11
Участники:
0 раздают, 0 качают (0 участников всего)
Внешние участники:
7 раздают, 2 качают (9 участников всего) [ Обновить ]
Есть вопросы - пишите личное сообщение пользователю M0p94ok.
15:46
62
Нет комментариев. Ваш будет первым!