Поиск

(Soul, Blues, Pop) [CD] Adele - 19 [2018, Remastered Edition] - 2008, FLAC (tracks+.cue), lossless

(Soul, Blues, Pop) [CD] Adele - 19 [2018, Remastered Edition] - 2008, FLAC (tracks+.cue), lossless
Треклист:
Adele / 19 [2018 Remastered Edition]
Жанр: Soul, Blues, Pop
Носитель: CD
Страна-производитель диска (релиза): Germany
Год издания: 2008
Издатель (лейбл): XL Recordings / KronStudioLab
Номер по каталогу: 42124 LE
Страна исполнителя (группы): UK
Аудиокодек: FLAC (*.flac)
Тип рипа: tracks+.cue
Битрейт аудио: lossless
Продолжительность: 43:40
Источник (релизер): Torvaldsen
Наличие сканов в содержимом раздачи: да
Треклист:
01 - Daydreamer (3:40)
02 - Best For Last (4:20)
03 - Chasing Pavements (3:31)
04 - Cold Shoulder (3:13)
05 - Crazy For You (3:29)
06 - Melt My Heart To Stone (3:24)
07 - First Love (3:11)
08 - Right As Rain (3:17)
09 - Make You Feel My Love (3:33)
10 - My Same (3:17)
11 - Tired (4:17)
12 - Hometown Glory (4:28)
 
Лог создания рипа
Exact Audio Copy V0.99 prebeta 5 from 4. May 2009
EAC extraction logfile from 7. May 2018, 19:38
Adele / 19 [2018 Remastered Edition]
Used drive : ASUS DRW-24B5ST Adapter: 1 ID: 0
Read mode : Secure
Utilize accurate stream : Yes
Defeat audio cache : Yes
Make use of C2 pointers : No
Read offset correction : 6
Overread into Lead-In and Lead-Out : No
Fill up missing offset samples with silence : Yes
Delete leading and trailing silent blocks : No
Null samples used in CRC calculations : Yes
Used interface : Native Win32 interface for Win NT & 2000
Gap handling : Appended to previous track
Used output format : Internal WAV Routines
Sample format : 44.100 Hz; 16 Bit; Stereo
TOC of the extracted CD
Track | Start | Length | Start sector | End sector
---------------------------------------------------------
1 | 0:00.00 | 3:40.37 | 0 | 16536
2 | 3:40.37 | 4:20.00 | 16537 | 36036
3 | 8:00.37 | 3:31.00 | 36037 | 51861
4 | 11:31.37 | 3:12.38 | 51862 | 66299
5 | 14:44.00 | 3:29.00 | 66300 | 81974
6 | 18:13.00 | 3:24.03 | 81975 | 97277
7 | 21:37.03 | 3:11.00 | 97278 | 111602
8 | 24:48.03 | 3:17.38 | 111603 | 126415
9 | 28:05.41 | 3:33.00 | 126416 | 142390
10 | 31:38.41 | 3:17.00 | 142391 | 157165
11 | 34:55.41 | 4:17.00 | 157166 | 176440
12 | 39:12.41 | 4:28.00 | 176441 | 196540
Track 1
Filename E:\EAC-CD-NEW\01 - Daydreamer.wav
Pre-gap length 0:00:02.00
Peak level 81.9 %
Track quality 100.0 %
Test CRC 444CA75D
Copy CRC 444CA75D
Copy OK
Track 2
Filename E:\EAC-CD-NEW\02 - Best For Last.wav
Peak level 95.7 %
Track quality 100.0 %
Test CRC 598246B3
Copy CRC 598246B3
Copy OK
Track 3
Filename E:\EAC-CD-NEW\03 - Chasing Pavements.wav
Peak level 96.6 %
Track quality 100.0 %
Test CRC F3CA4EE5
Copy CRC F3CA4EE5
Copy OK
Track 4
Filename E:\EAC-CD-NEW\04 - Cold Shoulder.wav
Peak level 95.4 %
Track quality 100.0 %
Test CRC 218E4888
Copy CRC 218E4888
Copy OK
Track 5
Filename E:\EAC-CD-NEW\05 - Crazy For You.wav
Peak level 93.9 %
Track quality 100.0 %
Test CRC 59D72969
Copy CRC 59D72969
Copy OK
Track 6
Filename E:\EAC-CD-NEW\06 - Melt My Heart To Stone.wav
Peak level 96.4 %
Track quality 100.0 %
Test CRC 64C242F5
Copy CRC 64C242F5
Copy OK
Track 7
Filename E:\EAC-CD-NEW\07 - First Love.wav
Peak level 96.2 %
Track quality 100.0 %
Test CRC 7BFE4E31
Copy CRC 7BFE4E31
Copy OK
Track 8
Filename E:\EAC-CD-NEW\08 - Right As Rain.wav
Peak level 95.5 %
Track quality 100.0 %
Test CRC 8E659584
Copy CRC 8E659584
Copy OK
Track 9
Filename E:\EAC-CD-NEW\09 - Make You Feel My Love.wav
Peak level 86.5 %
Track quality 100.0 %
Test CRC EDCFA1B3
Copy CRC EDCFA1B3
Copy OK
Track 10
Filename E:\EAC-CD-NEW\10 - My Same.wav
Peak level 95.7 %
Track quality 100.0 %
Test CRC C51521A0
Copy CRC C51521A0
Copy OK
Track 11
Filename E:\EAC-CD-NEW\11 - Tired.wav
Peak level 96.2 %
Track quality 100.0 %
Test CRC C5C28DA6
Copy CRC C5C28DA6
Copy OK
Track 12
Filename E:\EAC-CD-NEW\12 - Hometown Glory.wav
Peak level 87.8 %
Track quality 100.0 %
Test CRC C13C3BE3
Copy CRC C13C3BE3
Copy OK
No errors occurred
End of status report
 
Содержание индексной карты (.CUE)
REM GENRE Soul
REM DATE 2008
REM DISCID B00A3C0C
REM COMMENT "ExactAudioCopy v0.99pb5"
PERFORMER "Adele"
TITLE "19 [2018 Remastered Edition]"
FILE "01 - Daydreamer.wav" WAVE
TRACK 01 AUDIO
TITLE "Daydreamer"
PERFORMER "Adele"
INDEX 01 00:00:00
FILE "02 - Best For Last.wav" WAVE
TRACK 02 AUDIO
TITLE "Best For Last"
PERFORMER "Adele"
INDEX 01 00:00:00
FILE "03 - Chasing Pavements.wav" WAVE
TRACK 03 AUDIO
TITLE "Chasing Pavements"
PERFORMER "Adele"
INDEX 01 00:00:00
FILE "04 - Cold Shoulder.wav" WAVE
TRACK 04 AUDIO
TITLE "Cold Shoulder"
PERFORMER "Adele"
INDEX 01 00:00:00
FILE "05 - Crazy For You.wav" WAVE
TRACK 05 AUDIO
TITLE "Crazy For You"
PERFORMER "Adele"
INDEX 01 00:00:00
FILE "06 - Melt My Heart To Stone.wav" WAVE
TRACK 06 AUDIO
TITLE "Melt My Heart To Stone"
PERFORMER "Adele"
INDEX 01 00:00:00
FILE "07 - First Love.wav" WAVE
TRACK 07 AUDIO
TITLE "First Love"
PERFORMER "Adele"
INDEX 01 00:00:00
FILE "08 - Right As Rain.wav" WAVE
TRACK 08 AUDIO
TITLE "Right As Rain"
PERFORMER "Adele"
INDEX 01 00:00:00
FILE "09 - Make You Feel My Love.wav" WAVE
TRACK 09 AUDIO
TITLE "Make You Feel My Love"
PERFORMER "Adele"
INDEX 01 00:00:00
FILE "10 - My Same.wav" WAVE
TRACK 10 AUDIO
TITLE "My Same"
PERFORMER "Adele"
INDEX 01 00:00:00
FILE "11 - Tired.wav" WAVE
TRACK 11 AUDIO
TITLE "Tired"
PERFORMER "Adele"
INDEX 01 00:00:00
FILE "12 - Hometown Glory.wav" WAVE
TRACK 12 AUDIO
TITLE "Hometown Glory"
PERFORMER "Adele"
INDEX 01 00:00:00
 
Лог проверки качества
-----------------------
DON'T MODIFY THIS FILE
-----------------------
PERFORMER: auCDtect Task Manager, ver. 1.5.1RC6 build 1.5.1.7
Copyright (c) 2008-2010 y-soft. All rights reserved
http://y-soft.org
ANALYZER: auCDtect: CD records authenticity detector, version 0.8.2
Copyright (c) 2004 Oleg Berngardt. All rights reserved.
Copyright (c) 2004 Alexander Djourik. All rights reserved.
FILE: 01 - Daydreamer.wav
Size: 38895308 Hash: 2D2824EEE39AA133CA40D9A59C4135D0 Accuracy: -m0
Conclusion: CDDA 100%
Signature: 769632870E1457D916FAEE81ED659CD27495CDC7
FILE: 02 - Best For Last.wav
Size: 45864284 Hash: 501A19C4CFE40106E88DA49FF78A4E54 Accuracy: -m0
Conclusion: CDDA 100%
Signature: ABB516E0D2B4F6860929E29B051D0DBB0223D85A
FILE: 03 - Chasing Pavements.wav
Size: 37220684 Hash: DFE8E68803D1C5EA580DDB281D4F65DC Accuracy: -m0
Conclusion: CDDA 100%
Signature: 52EA665E0FB0AE6CA91BDD7EBF3140CCA5C3F0AB
FILE: 04 - Cold Shoulder.wav
Size: 33958460 Hash: 8778553173F026EB968541156A036344 Accuracy: -m0
Conclusion: CDDA 100%
Signature: 4A866EAB01ADD3426B5D0B3D5BF24C9FDE80A613
FILE: 05 - Crazy For You.wav
Size: 36867884 Hash: 98BEC60E97892EE87E32766C214D6F4C Accuracy: -m0
Conclusion: CDDA 100%
Signature: 687AE1CFB82FD0822D263BABBA98A65C85837614
FILE: 06 - Melt My Heart To Stone.wav
Size: 35992940 Hash: AABC4FF4D02E4793D7945407750208C9 Accuracy: -m0
Conclusion: CDDA 100%
Signature: BEE069F5C665A649FE4C0717DC48B92B2E6739D5
FILE: 07 - First Love.wav
Size: 33692684 Hash: 3FD5889FC22B45CD5C34FEDE28D13D67 Accuracy: -m0
Conclusion: CDDA 100%
Signature: 791FD26D7A15F9586065D2EA89D78736F7CF5424
FILE: 08 - Right As Rain.wav
Size: 34840460 Hash: C3FEAE77145979BA4FF470B1B1FF2B00 Accuracy: -m0
Conclusion: CDDA 100%
Signature: BC0367F1FBF78B951C9948CBB029FFB1BDC0BA21
FILE: 09 - Make You Feel My Love.wav
Size: 37573484 Hash: C8D2F361082171EC64D37BF4FC3D6A0E Accuracy: -m0
Conclusion: CDDA 100%
Signature: 3AD0895857EAAE3F9EEE404E2610678DED8F1563
FILE: 10 - My Same.wav
Size: 34751084 Hash: 9D49DDDA4C0D92E43AF086DCB9642DB1 Accuracy: -m0
Conclusion: CDDA 99%
Signature: 34DBDF379B98A58C6F2F44CB86241C889597A0D1
FILE: 11 - Tired.wav
Size: 45335084 Hash: 9570162FEF89F2205D5247477AB29AC8 Accuracy: -m0
Conclusion: CDDA 100%
Signature: 1FFC59B7D0CB958CC13FAA328B504B5CE13FE317
FILE: 12 - Hometown Glory.wav
Size: 47275484 Hash: 03F36EFF45627F00D31266020BE65F8D Accuracy: -m0
Conclusion: CDDA 100%
Signature: 5B567AF9589AC938DF848AD2F5DEBFF97F7D1765
 
Dynamic Range Meter
foobar2000 1.1.10 / Dynamic Range Meter 1.1.1
log date: 2018-05-10 12:46:09
--------------------------------------------------------------------------------
Analyzed: Adele / 19 [2018 Remastered Edition]
--------------------------------------------------------------------------------
DR Peak RMS Duration Track
--------------------------------------------------------------------------------
DR11 -1.73 dB -15.15 dB 3:40 01-Daydreamer
DR11 -0.37 dB -13.37 dB 4:20 02-Best For Last
DR11 -0.30 dB -13.90 dB 3:31 03-Chasing Pavements
DR11 -0.40 dB -13.24 dB 3:13 04-Cold Shoulder
DR10 -0.54 dB -13.47 dB 3:29 05-Crazy For You
DR12 -0.32 dB -14.95 dB 3:24 06-Melt My Heart To Stone
DR11 -0.33 dB -14.73 dB 3:11 07-First Love
DR11 -0.40 dB -13.08 dB 3:18 08-Right As Rain
DR12 -1.25 dB -17.61 dB 3:33 09-Make You Feel My Love
DR12 -0.38 dB -13.92 dB 3:17 10-My Same
DR12 -0.33 dB -15.06 dB 4:17 11-Tired
DR9 -1.12 dB -14.10 dB 4:28 12-Hometown Glory
--------------------------------------------------------------------------------
Number of tracks: 12
Official DR value: DR11
Samplerate: 44100 Hz
Channels: 2
Bits per sample: 16
Bitrate: 749 kbps
Codec: FLAC
 
Скриншот спектра частот
Доп. информация: (( unofficial release ))
Приватный:
Нет (DHT включён)
Размер:
268.35 Мб (281,382,069 байт) » файлов: 19
Участники:
0 раздают, 0 качают (0 участников всего)
Внешние участники:
23 раздают, 8 качают (31 участников всего) [ Обновить ]
Есть вопросы - пишите личное сообщение пользователю M0p94ok.
15:47
106
Нет комментариев. Ваш будет первым!