Поиск

(Funk, Soul, Disco) [CD] Narada Michael Walden - Awakening - 1979 (2016 Japan Edition), FLAC (image+.cue), lossless

(Funk, Soul, Disco) [CD] Narada Michael Walden - Awakening - 1979 (2016 Japan Edition), FLAC (image+.cue), lossless
Треклист:
Narada Michael Walden - Awakening
Жанр: Funk, Soul, Disco
Носитель: CD
Страна-производитель диска (релиза): Япония
Год издания: 1979 (2016)
Издатель (лейбл): Atlantic/Warner/WEA
Номер по каталогу: WPCR-17411
Страна исполнителя (группы): США
Аудиокодек: FLAC (*.flac)
Тип рипа: image+.cue
Битрейт аудио: lossless
Продолжительность: 39:59
Источник (релизер): kvapar (Спасибо Егору из PTZ)
Наличие сканов в содержимом раздачи: да
Треклист:
01. Love Me Only (Walden) - 5:57
02. I Don't Want Nobody Else (To Dance with You) (Walden) - 4:21
03. Give Your Love a Chance (Walden) - 4:16
04. They Want the Feeling (Walden) - 4:08
05. Awakening Suite Part 1 (Childhood - The Opening of the Heart) (Walden) - 3:26
06. The Awakening (Walden) - 4:30
07. Listen to Me (Walden) - 4:53
08. Full & Satisfied (Walden) - 3:33
09. Will You Ever Know (Walden) - 4:56
 
Лог создания рипа
Exact Audio Copy V1.3 from 2. September 2016
Отчёт EAC об извлечении, выполненном 16. мая 2018, 20:12
Narada Michael Walden / Awakening
Дисковод: Optiarc DVD RW AD-7203S Adapter: 1 ID: 0
Режим чтения : Достоверность
Использование точного потока : Да
Отключение кэша аудио : Да
Использование указателей C2 : Нет
Коррекция смещения при чтении : 48
Способность читать области Lead-in и Lead-out : Нет
Заполнение пропущенных сэмплов тишиной : Да
Удаление блоков с тишиной в начале и конце : Нет
При вычислениях CRC использовались нулевые сэмплы : Да
Интерфейс : Встроенный Win32-интерфейс для Win NT/2000
Выходной формат : Пользовательский кодировщик
Выбранный битрейт : 128 kBit/s
Качество : Высокий
Добавление ID3-тега : Нет
Утилита сжатия : C:\Program Files (x86)\Exact Audio Copy\Flac\flac.exe
Дополнительные параметры : -V -8 %source%
TOC извлечённого CD
Трек | Старт | Длительность | Начальный сектор | Конечный сектор
---------------------------------------------------------------------
1 | 0:00.00 | 5:57.15 | 0 | 26789
2 | 5:57.15 | 4:20.45 | 26790 | 46334
3 | 10:17.60 | 4:16.12 | 46335 | 65546
4 | 14:33.72 | 4:08.10 | 65547 | 84156
5 | 18:42.07 | 3:25.55 | 84157 | 99586
6 | 22:07.62 | 4:29.60 | 99587 | 119821
7 | 26:37.47 | 4:52.45 | 119822 | 141766
8 | 31:30.17 | 3:32.50 | 141767 | 157716
9 | 35:02.67 | 4:55.58 | 157717 | 179899
Характеристики диапазона извлечения и сообщения об ошибках
Выбранный диапазон
Имя файла C:\Users\Администратор\Music\_NEW\Narada Michael Walden - Awakening (1979)\Narada Michael Walden - Awakening.wav
Пиковый уровень 100.0 %
Скорость извлечения 3.5 X
Качество диапазона 99.9 %
CRC теста 93796A54
CRC копии 93796A54
Копирование... OK
Ошибок не произошло
AccurateRip: сводка
Трек 1 : извлечено точно (доверие 2) [0E929DBA] (AR v2)
Трек 2 : извлечено точно (доверие 2) [B22BFAC9] (AR v2)
Трек 3 : извлечено точно (доверие 2) [70884065] (AR v2)
Трек 4 : извлечено точно (доверие 2) [1232DCDA] (AR v2)
Трек 5 : извлечено точно (доверие 2) [E6FC45F1] (AR v2)
Трек 6 : извлечено точно (доверие 2) [3818AA62] (AR v2)
Трек 7 : извлечено точно (доверие 2) [24192964] (AR v2)
Трек 8 : извлечено точно (доверие 2) [C0306789] (AR v2)
Трек 9 : извлечено точно (доверие 2) [BBE37C8C] (AR v2)
Все треки извлечены точно
Конец отчёта
==== Контрольная сумма отчёта 6FB6583BD05A30EF8EB9356BD427A74BD68A9B3CEF7314BC357D97099C1D919C ====
 
Содержание индексной карты (.CUE)
REM GENRE Disco
REM DATE 1979
REM DISCID 81095E09
REM COMMENT "ExactAudioCopy v1.3"
PERFORMER "Narada Michael Walden"
TITLE "Awakening"
FILE "Narada Michael Walden - Awakening.wav" WAVE
TRACK 01 AUDIO
TITLE "Love Me Only"
PERFORMER "Narada Michael Walden"
INDEX 01 00:00:00
TRACK 02 AUDIO
TITLE "I Don't Want Nobody Else (To Dance with You)"
PERFORMER "Narada Michael Walden"
INDEX 00 05:56:32
INDEX 01 05:57:15
TRACK 03 AUDIO
TITLE "Give Your Love a Chance"
PERFORMER "Narada Michael Walden"
INDEX 00 10:16:12
INDEX 01 10:17:60
TRACK 04 AUDIO
TITLE "They Want the Feeling"
PERFORMER "Narada Michael Walden"
INDEX 00 14:30:15
INDEX 01 14:33:72
TRACK 05 AUDIO
TITLE "Awakening Suite Part 1 (Childhood - The Opening of the Heart)"
PERFORMER "Narada Michael Walden"
INDEX 00 18:39:70
INDEX 01 18:42:07
TRACK 06 AUDIO
TITLE "The Awakening"
PERFORMER "Narada Michael Walden"
INDEX 01 22:07:62
TRACK 07 AUDIO
TITLE "Listen to Me"
PERFORMER "Narada Michael Walden"
INDEX 00 26:36:02
INDEX 01 26:37:47
TRACK 08 AUDIO
TITLE "Full & Satisfied"
PERFORMER "Narada Michael Walden"
INDEX 00 31:29:55
INDEX 01 31:30:17
TRACK 09 AUDIO
TITLE "Will You Ever Know"
PERFORMER "Narada Michael Walden"
INDEX 00 35:02:25
INDEX 01 35:02:67
 
Отчет CUETools
[CUETools log; Date: 19.05.2018 12:29:09; Version: 2.1.5]
[CTDB TOCID: G6p3IBdZfJHfLsrqYScZyX58SII-] found.
Track | CTDB Status
1 | (2/3) Accurately ripped
2 | (2/3) Accurately ripped
3 | (2/3) Accurately ripped
4 | (2/3) Accurately ripped
5 | (2/3) Accurately ripped
6 | (2/3) Accurately ripped
7 | (2/3) Accurately ripped
8 | (2/3) Accurately ripped
9 | (2/3) Accurately ripped
[AccurateRip ID: 000e1016-0065b0e8-81095e09] found.
Track [ CRC | V2 ] Status
01 [35a408de|0e929dba] (0+2/5) Accurately ripped
02 [17aef113|b22bfac9] (0+2/5) Accurately ripped
03 [4d8a3d49|70884065] (0+2/5) Accurately ripped
04 [138203d3|1232dcda] (0+2/5) Accurately ripped
05 [06103c23|e6fc45f1] (0+2/5) Accurately ripped
06 [7948e366|3818aa62] (0+2/5) Accurately ripped
07 [9e0f08c5|24192964] (0+2/5) Accurately ripped
08 [02b47457|c0306789] (0+2/5) Accurately ripped
09 [86dab9bb|bbe37c8c] (0+2/5) Accurately ripped
Track Peak [ CRC32 ] [W/O NULL] [ LOG ]
-- 100,0 [93796A54] [999E4BBA] CRC32
01 100,0 [4559ECF5] [DD830F85]
02 100,0 [D94C6B4D] [26D87921]
03 100,0 [2508113A] [481C07E9]
04 100,0 [A86BFFC7] [B0493BB4]
05 100,0 [6B5AECE0] [A37B8BB3]
06 100,0 [CDFAAB43] [1CC5D4BE]
07 100,0 [5D61B9DA] [37B17A80]
08 100,0 [5A8F965A] [D66BC731]
09 100,0 [289E75EE] [FD20A83C]
 
AllMusic Review by Ed Hogan
On Awakening, Narada Michael Walden placed aside the jazz fusion leanings of his early albums in favor of a more radio-friendly sound. The strategy worked, with Walden having his first Top Ten R&B single, "I Don't Want Nobody Else (To Dance With You)," which also charted number 47 on the pop charts in early 1979 and Awakening breaking into the R&B Top 15. The follow-up single, the mid-tempo groover "Give Your Love a Chance" featured grand arrangements by Patrick Adams. Walden displays his hyperkinetic drumming skills on "They Want the Feeling." Other standouts are "Love Me Only," the beautiful radio-aired album track "Listen to Me," and the tender "Will You Ever Know."
 
Состав
Narada Michael Walden - drums, percussion, acoustic piano, organ, dream bass
Kenny Mazur, Hiram Bullock, Jay Graydon, Ray Gomez, Pat Thrall, Carlos Santana, Steve Beckmeier - guitars
Cliff Carter - Moog, Fender Rhodes, clavinet, synthesized bass
Greg Phillinganes - keyboards, electric piano
Sonny Burke - acoustic piano, synthesizers
Bobby Lyle - keyboards
Michael Boddicker, Pat Adams - synthesizers
Norbert Sloley, Keni Burke, Nate Phillips - bass
Victor Feldman - percussion
Don Menza, Pete Christlieb - flute
Randy Brecker - trumpet
George Young - alto saxophone
Michael Brecker - tenor saxophone
David Duke, James Decker - French horn
#1-4 recorded at The Power Station, New York; #5-9 recorded at Crystal Sound, Los Angeles, CA.
Приватный:
Нет (DHT включён)
Размер:
303.49 Мб (318,231,244 байт) » файлов: 15
Участники:
0 раздают, 0 качают (0 участников всего)
Внешние участники:
5 раздают, 1 качают (6 участников всего) [ Обновить ]
Есть вопросы - пишите личное сообщение пользователю M0p94ok.
15:47
58
Нет комментариев. Ваш будет первым!