Поиск

(Electro, Soul, Funk) [CD] Dazz Band - Keep It Live - 2010 (1982), FLAC (tracks+.cue), lossless

(Electro, Soul, Funk) [CD] Dazz Band - Keep It Live - 2010 (1982), FLAC (tracks+.cue), lossless
Треклист:
Dazz Band / Keep It Live
Жанр: Electro, Soul, Funk
Носитель: CD
Страна-производитель диска (релиза): Netherlands
Год издания: 2010 (1982)
Издатель (лейбл): PTG Records
Номер по каталогу: PTG 34059
Страна исполнителя (группы): US
Аудиокодек: FLAC (*.flac)
Тип рипа: tracks+.cue
Битрейт аудио: lossless
Продолжительность: 00:44:05
Источник (релизер): DC hub
Наличие сканов в содержимом раздачи: да
Треклист:
1 Let It Whip
2 Gamble With My Love
3 I'll Keep On Lovin' You
4 Just Can't Wait 'Till The Night
5 Shake What You Got
6 Keep It Live (On The K.I.L.)
7 Just Believe In Love
8 Can We Dance
9 Let Me Love You Until
Bonus
10 Let It Whip (12 Inch Version)
 
Лог создания рипа
Exact Audio Copy V0.99 prebeta 5 from 4. May 2009
EAC extraction logfile from 14. October 2010, 16:01
Dazz Band / Keep It Live
Used drive : Optiarc DVD RW AD-7590S Adapter: 2 ID: 0
Read mode : Secure
Utilize accurate stream : Yes
Defeat audio cache : Yes
Make use of C2 pointers : No
Read offset correction : 48
Overread into Lead-In and Lead-Out : No
Fill up missing offset samples with silence : Yes
Delete leading and trailing silent blocks : No
Null samples used in CRC calculations : Yes
Used interface : Native Win32 interface for Win NT & 2000
Gap handling : Appended to previous track
Used output format : User Defined Encoder
Selected bitrate : 768 kBit/s
Quality : High
Add ID3 tag : No
Command line compressor : C:\Program Files\Exact Audio Copy\Flac\flac.exe
Additional command line options : -8 -V -T "ARTIST=%a" -T "TITLE=%t" -T "ALBUM=%g" -T "DATE=%y" -T "TRACKNUMBER=%n" -T "TOTALTRACKS=%x" -T "GENRE=%m" -T "ALBUMARTIST=%v" -T "ALBUM ARTIST=%v" -T "COMMENT=EAC Secure Mode, Test & Copy, AccurateRip, FLAC -8" %s
TOC of the extracted CD
Track | Start | Length | Start sector | End sector
---------------------------------------------------------
1 | 0:00.00 | 4:41.21 | 0 | 21095
2 | 4:41.21 | 3:59.29 | 21096 | 39049
3 | 8:40.50 | 3:36.58 | 39050 | 55307
4 | 12:17.33 | 3:37.50 | 55308 | 71632
5 | 15:55.08 | 3:39.10 | 71633 | 88067
6 | 19:34.18 | 4:56.29 | 88068 | 110296
7 | 24:30.47 | 4:55.62 | 110297 | 132483
8 | 29:26.34 | 4:38.69 | 132484 | 153402
9 | 34:05.28 | 3:55.27 | 153403 | 171054
10 | 38:00.55 | 6:09.62 | 171055 | 198791
Track 1
Filename C:\Addis Gugsa why killing HDD\01 - Let It Whip.wav
Pre-gap length 0:00:02.00
Peak level 98.8 %
Track quality 100.0 %
Test CRC A91EB376
Copy CRC A91EB376
Accurately ripped (confidence 3) [260811EF]
Copy OK
Track 2
Filename C:\Addis Gugsa why killing HDD\02 - Gamble With My Love.wav
Peak level 98.8 %
Track quality 99.9 %
Test CRC 606DCE6E
Copy CRC 606DCE6E
Accurately ripped (confidence 3) [A66343E6]
Copy OK
Track 3
Filename C:\Addis Gugsa why killing HDD\03 - I'll Keep On Lovin' You.wav
Peak level 98.8 %
Track quality 100.0 %
Test CRC 22FF0663
Copy CRC 22FF0663
Accurately ripped (confidence 3) [0479AE92]
Copy OK
Track 4
Filename C:\Addis Gugsa why killing HDD\04 - Just Can't Wait' Till The Night.wav
Peak level 98.8 %
Track quality 100.0 %
Test CRC 24CB1779
Copy CRC 24CB1779
Accurately ripped (confidence 3) [3CD36C5D]
Copy OK
Track 5
Filename C:\Addis Gugsa why killing HDD\05 - Shake What You Got.wav
Peak level 98.8 %
Track quality 99.9 %
Test CRC E0DD3DBE
Copy CRC E0DD3DBE
Accurately ripped (confidence 3) [6F04599D]
Copy OK
Track 6
Filename C:\Addis Gugsa why killing HDD\06 - Keep It Live (On The K.I.L.).wav
Peak level 98.8 %
Track quality 100.0 %
Test CRC 8B3A6B96
Copy CRC 8B3A6B96
Accurately ripped (confidence 3) [035119A9]
Copy OK
Track 7
Filename C:\Addis Gugsa why killing HDD\07 - Just Believe In Love.wav
Peak level 98.8 %
Track quality 99.9 %
Test CRC 40EB932C
Copy CRC 40EB932C
Accurately ripped (confidence 3) [C983B8A4]
Copy OK
Track 8
Filename C:\Addis Gugsa why killing HDD\08 - Can We Dance.wav
Peak level 98.8 %
Track quality 99.9 %
Test CRC D9B81EDC
Copy CRC D9B81EDC
Accurately ripped (confidence 3) [DEF308DF]
Copy OK
Track 9
Filename C:\Addis Gugsa why killing HDD\09 - Let Me Love You Until.wav
Peak level 98.8 %
Track quality 99.9 %
Test CRC AA29FEDA
Copy CRC AA29FEDA
Accurately ripped (confidence 3) [EED7187B]
Copy OK
Track 10
Filename C:\Addis Gugsa why killing HDD\10 - Let It Whip (12' Version) (Bonus Track).wav
Peak level 98.8 %
Track quality 100.0 %
Test CRC E540A856
Copy CRC E540A856
Accurately ripped (confidence 3) [C167D8DC]
Copy OK
All tracks accurately ripped
No errors occurred
End of status report
 
Содержание индексной карты (.CUE)
REM GENRE Funk
REM DATE 1981
REM DISCID 8E0A5A0A
REM COMMENT "ExactAudioCopy v0.99pb5"
PERFORMER "Dazz Band"
TITLE "Keep It Live"
FILE "01 - Let It Whip.wav" WAVE
TRACK 01 AUDIO
TITLE "Let It Whip"
PERFORMER "Dazz Band"
INDEX 01 00:00:00
FILE "02 - Gamble with My Love.wav" WAVE
TRACK 02 AUDIO
TITLE "Gamble with My Love"
PERFORMER "Dazz Band"
INDEX 01 00:00:00
FILE "03 - I'll Keep On Lovin' You.wav" WAVE
TRACK 03 AUDIO
TITLE "I'll Keep On Lovin' You"
PERFORMER "Dazz Band"
INDEX 01 00:00:00
FILE "04 - Just Can't Wait 'till the Night.wav" WAVE
TRACK 04 AUDIO
TITLE "Just Can't Wait 'till the Night"
PERFORMER "Dazz Band"
INDEX 01 00:00:00
FILE "05 - Shake What You Got.wav" WAVE
TRACK 05 AUDIO
TITLE "Shake What You Got"
PERFORMER "Dazz Band"
INDEX 01 00:00:00
FILE "06 - Keep It Live (On the K.I.L.).wav" WAVE
TRACK 06 AUDIO
TITLE "Keep It Live (On the K.I.L.)"
PERFORMER "Dazz Band"
INDEX 01 00:00:00
FILE "07 - Just Believe in Love.wav" WAVE
TRACK 07 AUDIO
TITLE "Just Believe in Love"
PERFORMER "Dazz Band"
INDEX 01 00:00:00
FILE "08 - Can We Dance.wav" WAVE
TRACK 08 AUDIO
TITLE "Can We Dance"
PERFORMER "Dazz Band"
INDEX 01 00:00:00
FILE "09 - Let Me Love You Until.wav" WAVE
TRACK 09 AUDIO
TITLE "Let Me Love You Until"
PERFORMER "Dazz Band"
INDEX 01 00:00:00
FILE "10 - Let It Whip (12 Inch Version).wav" WAVE
TRACK 10 AUDIO
TITLE "Let It Whip (12 Inch Version)"
PERFORMER "Dazz Band"
INDEX 01 00:00:00
 
Лог проверки качества
AUDIOCHECKER v2.0 beta (build 457) - by Dester - opdester@freemail.hu
~~~~~~~~~~~~~~~~~~~~~~~~~~~~~~~~~~
-=== DO NOT EDIT THIS FILE! ===-
Path: ...\[1982] Keep It Live
01 -=- 01 - Let It Whip.flac -=- CDDA (100%)
02 -=- 02 - Gamble with My Love.flac -=- CDDA (100%)
03 -=- 03 - I'll Keep On Lovin' You.flac -=- CDDA (100%)
04 -=- 04 - Just Can't Wait 'till the Night.flac -=- CDDA (100%)
05 -=- 05 - Shake What You Got.flac -=- CDDA (100%)
06 -=- 06 - Keep It Live (On the K.I.L.).flac -=- CDDA (100%)
07 -=- 07 - Just Believe in Love.flac -=- CDDA (100%)
08 -=- 08 - Can We Dance.flac -=- CDDA (100%)
09 -=- 09 - Let Me Love You Until.flac -=- CDDA (100%)
10 -=- 10 - Let It Whip (12 Inch Version).flac -=- CDDA (100%)
Summary 100,00% CDDA
239905316
Доп. информация: ASIN: B001U3MZCW
Barcode: 8 717438 196596
Приватный:
Нет (DHT включён)
Размер:
325.76 Мб (341,584,801 байт) » файлов: 19
Участники:
0 раздают, 0 качают (0 участников всего)
Внешние участники:
2 раздают, 1 качают (3 участников всего) [ Обновить ]
Есть вопросы - пишите личное сообщение пользователю M0p94ok.
15:44
66
Нет комментариев. Ваш будет первым!