Поиск

(Soul, Funk, Disco) VA - Rare Groove Mastercuts 3 (CUTSCD 43) - 2000, FLAC (tracks+.cue), lossless

Треклист:
Various Artists - Rare Groove Mastercuts 3
Жанр: Soul, Funk, Disco
Год выпуска диска: 2000
Производитель диска: UK \ Mastercuts
Аудио кодек: FLAC
Тип рипа: tracks+.cue
Битрейт аудио: lossless
Продолжительность: 55:07

01 Minnie Riperton - Here we go (original version) [04:06]
02 Dells - Ain't it a shame (original version) [04:54]
03 Norman Connors - Stella (original version) [03:20]
04 Melba Moore - You stepped into my life (original version) [07:49]
05 Webster Lewis - Barbara Ann (original version) [06:03]
06 Gene Harris - Losalamitos - latinfunklovesong (original version) [03:07]
07 Flora Purim - Overture (original version) [02:56]
08 Archie Bell & Drells - It's hard not to like you (original version) [04:01]
09 Marlena Shaw - Look at me, look at you (original version) [04:02]
10 Heatwave - Ain't no half steppin (original version) [05:12]
11 Coke Escovedo - I wouldn't change a thing (original version) [03:19]
12 Loleatta Holloway - All about the papers (original version) [06:14]

from what.cd
 
Log XLD
X Lossless Decoder version 20100302 (116.6)
XLD extraction logfile from 2010-03-06 09:12:02 +0000
Various Artists / Rare Groove Mastercuts Vol. 3
Used drive : PIONEER DVD-RW DVRTS08 (revision Q81F)
Use cdparanoia mode : YES (CDParanoia III 10.2 engine)
Disable audio cache : OK for the drive with cache less than 2750KB
Make use of C2 pointers : NO
Read offset correction : 48
Max retry count : 100
TOC of the extracted CD
Track | Start | Length | Start sector | End sector
---------------------------------------------------------
1 | 00:00:00 | 04:06:05 | 0 | 18454
2 | 04:06:05 | 04:54:41 | 18455 | 40545
3 | 09:00:46 | 03:20:20 | 40546 | 55565
4 | 12:20:66 | 07:49:44 | 55566 | 90784
5 | 20:10:35 | 06:03:06 | 90785 | 118015
6 | 26:13:41 | 03:07:51 | 118016 | 132091
7 | 29:21:17 | 02:56:36 | 132092 | 145327
8 | 32:17:53 | 04:01:21 | 145328 | 163423
9 | 36:18:74 | 04:02:64 | 163424 | 181637
10 | 40:21:63 | 05:12:03 | 181638 | 205040
11 | 45:33:66 | 03:19:38 | 205041 | 220003
12 | 48:53:29 | 06:14:09 | 220004 | 248062
All Tracks
Album gain : -5.10 dB
Peak : 1.000000
Track 01
Filename : /Volumes/Drobo/Music/XLD Rips/Rare Groove Mastercuts Vol 3 [FLAC}/01 - Here we go (original version).m4a
/Volumes/Drobo/Music/XLD Rips/Rare Groove Mastercuts Vol 3 [FLAC}/01 - Here we go (original version).flac
/Volumes/Drobo/Music/XLD Rips/Rare Groove Mastercuts Vol 3 [FLAC}/01 - Here we go (original version).mp3
Pre-gap length : 00:02:00
Track gain : -5.28 dB
Peak : 0.999969
CRC32 hash (test run) : 84B1E463
CRC32 hash : 84B1E463
CRC32 hash (skip zero) : A78222F8
AccurateRip signature : F7864C11
->Accurately ripped! (confidence 5)
Statistics
Read error : 0
Skipped (treated as error) : 0
Edge jitter error (maybe fixed) : 0
Atom jitter error (maybe fixed) : 0
Drift error (maybe fixed) : 0
Dropped bytes error (maybe fixed) : 0
Duplicated bytes error (maybe fixed) : 0
Inconsistency in error sectors : 0
Track 02
Filename : /Volumes/Drobo/Music/XLD Rips/Rare Groove Mastercuts Vol 3 [FLAC}/02 - Ain't it a shame (original version).m4a
/Volumes/Drobo/Music/XLD Rips/Rare Groove Mastercuts Vol 3 [FLAC}/02 - Ain't it a shame (original version).flac
/Volumes/Drobo/Music/XLD Rips/Rare Groove Mastercuts Vol 3 [FLAC}/02 - Ain't it a shame (original version).mp3
Pre-gap length : 00:02:48
Track gain : -4.10 dB
Peak : 1.000000
CRC32 hash (test run) : BA20DECF
CRC32 hash : BA20DECF
CRC32 hash (skip zero) : 33850D9F
AccurateRip signature : F88C3D43
->Accurately ripped! (confidence 5)
Statistics
Read error : 0
Skipped (treated as error) : 0
Edge jitter error (maybe fixed) : 0
Atom jitter error (maybe fixed) : 0
Drift error (maybe fixed) : 0
Dropped bytes error (maybe fixed) : 0
Duplicated bytes error (maybe fixed) : 0
Inconsistency in error sectors : 0
Track 03
Filename : /Volumes/Drobo/Music/XLD Rips/Rare Groove Mastercuts Vol 3 [FLAC}/03 - Stella (original version).m4a
/Volumes/Drobo/Music/XLD Rips/Rare Groove Mastercuts Vol 3 [FLAC}/03 - Stella (original version).flac
/Volumes/Drobo/Music/XLD Rips/Rare Groove Mastercuts Vol 3 [FLAC}/03 - Stella (original version).mp3
Pre-gap length : 00:02:64
Track gain : -4.79 dB
Peak : 0.856873
CRC32 hash (test run) : 0CD94BCC
CRC32 hash : 0CD94BCC
CRC32 hash (skip zero) : F663C7D5
AccurateRip signature : 79681F34
->Accurately ripped! (confidence 5)
Statistics
Read error : 0
Skipped (treated as error) : 0
Edge jitter error (maybe fixed) : 0
Atom jitter error (maybe fixed) : 0
Drift error (maybe fixed) : 0
Dropped bytes error (maybe fixed) : 0
Duplicated bytes error (maybe fixed) : 0
Inconsistency in error sectors : 0
Track 04
Filename : /Volumes/Drobo/Music/XLD Rips/Rare Groove Mastercuts Vol 3 [FLAC}/04 - You stepped into my life (original version).m4a
/Volumes/Drobo/Music/XLD Rips/Rare Groove Mastercuts Vol 3 [FLAC}/04 - You stepped into my life (original version).flac
/Volumes/Drobo/Music/XLD Rips/Rare Groove Mastercuts Vol 3 [FLAC}/04 - You stepped into my life (original version).mp3
Pre-gap length : 00:02:64
Track gain : -4.31 dB
Peak : 1.000000
CRC32 hash (test run) : D3041AF2
CRC32 hash : D3041AF2
CRC32 hash (skip zero) : A81C9A68
AccurateRip signature : 2AC656DB
->Accurately ripped! (confidence 5)
Statistics
Read error : 0
Skipped (treated as error) : 0
Edge jitter error (maybe fixed) : 0
Atom jitter error (maybe fixed) : 0
Drift error (maybe fixed) : 0
Dropped bytes error (maybe fixed) : 0
Duplicated bytes error (maybe fixed) : 0
Inconsistency in error sectors : 0
Track 05
Filename : /Volumes/Drobo/Music/XLD Rips/Rare Groove Mastercuts Vol 3 [FLAC}/05 - Barbara Ann (original version).m4a
/Volumes/Drobo/Music/XLD Rips/Rare Groove Mastercuts Vol 3 [FLAC}/05 - Barbara Ann (original version).flac
/Volumes/Drobo/Music/XLD Rips/Rare Groove Mastercuts Vol 3 [FLAC}/05 - Barbara Ann (original version).mp3
Pre-gap length : 00:02:65
Track gain : -4.16 dB
Peak : 1.000000
CRC32 hash (test run) : 523CD030
CRC32 hash : 523CD030
CRC32 hash (skip zero) : F1E5FA6D
AccurateRip signature : 726D20D1
->Accurately ripped! (confidence 5)
Statistics
Read error : 0
Skipped (treated as error) : 0
Edge jitter error (maybe fixed) : 0
Atom jitter error (maybe fixed) : 0
Drift error (maybe fixed) : 0
Dropped bytes error (maybe fixed) : 0
Duplicated bytes error (maybe fixed) : 0
Inconsistency in error sectors : 0
Track 06
Filename : /Volumes/Drobo/Music/XLD Rips/Rare Groove Mastercuts Vol 3 [FLAC}/06 - Losalamitos - latinfunklovesong (original version).m4a
/Volumes/Drobo/Music/XLD Rips/Rare Groove Mastercuts Vol 3 [FLAC}/06 - Losalamitos - latinfunklovesong (original version).flac
/Volumes/Drobo/Music/XLD Rips/Rare Groove Mastercuts Vol 3 [FLAC}/06 - Losalamitos - latinfunklovesong (original version).mp3
Pre-gap length : 00:02:64
Track gain : -2.80 dB
Peak : 0.933868
CRC32 hash (test run) : 80E90E30
CRC32 hash : 80E90E30
CRC32 hash (skip zero) : 32050BE1
AccurateRip signature : 55AA2597
->Accurately ripped! (confidence 5)
Statistics
Read error : 0
Skipped (treated as error) : 0
Edge jitter error (maybe fixed) : 0
Atom jitter error (maybe fixed) : 0
Drift error (maybe fixed) : 0
Dropped bytes error (maybe fixed) : 0
Duplicated bytes error (maybe fixed) : 0
Inconsistency in error sectors : 0
Track 07
Filename : /Volumes/Drobo/Music/XLD Rips/Rare Groove Mastercuts Vol 3 [FLAC}/07 - Overture (original version).m4a
/Volumes/Drobo/Music/XLD Rips/Rare Groove Mastercuts Vol 3 [FLAC}/07 - Overture (original version).flac
/Volumes/Drobo/Music/XLD Rips/Rare Groove Mastercuts Vol 3 [FLAC}/07 - Overture (original version).mp3
Pre-gap length : 00:02:64
Track gain : -5.66 dB
Peak : 1.000000
CRC32 hash (test run) : 9950C652
CRC32 hash : 9950C652
CRC32 hash (skip zero) : 50275928
AccurateRip signature : 5B1DA957
->Accurately ripped! (confidence 5)
Statistics
Read error : 0
Skipped (treated as error) : 0
Edge jitter error (maybe fixed) : 0
Atom jitter error (maybe fixed) : 0
Drift error (maybe fixed) : 0
Dropped bytes error (maybe fixed) : 0
Duplicated bytes error (maybe fixed) : 0
Inconsistency in error sectors : 0
Track 08
Filename : /Volumes/Drobo/Music/XLD Rips/Rare Groove Mastercuts Vol 3 [FLAC}/08 - It's hard not to like you (original version).m4a
/Volumes/Drobo/Music/XLD Rips/Rare Groove Mastercuts Vol 3 [FLAC}/08 - It's hard not to like you (original version).flac
/Volumes/Drobo/Music/XLD Rips/Rare Groove Mastercuts Vol 3 [FLAC}/08 - It's hard not to like you (original version).mp3
Pre-gap length : 00:02:64
Track gain : -5.97 dB
Peak : 1.000000
CRC32 hash (test run) : E02C7684
CRC32 hash : E02C7684
CRC32 hash (skip zero) : 5323311B
AccurateRip signature : 912601FD
->Accurately ripped! (confidence 5)
Statistics
Read error : 0
Skipped (treated as error) : 0
Edge jitter error (maybe fixed) : 0
Atom jitter error (maybe fixed) : 0
Drift error (maybe fixed) : 0
Dropped bytes error (maybe fixed) : 0
Duplicated bytes error (maybe fixed) : 0
Inconsistency in error sectors : 0
Track 09
Filename : /Volumes/Drobo/Music/XLD Rips/Rare Groove Mastercuts Vol 3 [FLAC}/09 - Look at me, look at you (original version).m4a
/Volumes/Drobo/Music/XLD Rips/Rare Groove Mastercuts Vol 3 [FLAC}/09 - Look at me, look at you (original version).flac
/Volumes/Drobo/Music/XLD Rips/Rare Groove Mastercuts Vol 3 [FLAC}/09 - Look at me, look at you (original version).mp3
Pre-gap length : 00:02:64
Track gain : -4.85 dB
Peak : 0.953857
CRC32 hash (test run) : CE2423D9
CRC32 hash : CE2423D9
CRC32 hash (skip zero) : 17273E3D
AccurateRip signature : 044AD488
->Accurately ripped! (confidence 5)
Statistics
Read error : 0
Skipped (treated as error) : 0
Edge jitter error (maybe fixed) : 0
Atom jitter error (maybe fixed) : 0
Drift error (maybe fixed) : 0
Dropped bytes error (maybe fixed) : 0
Duplicated bytes error (maybe fixed) : 0
Inconsistency in error sectors : 0
Track 10
Filename : /Volumes/Drobo/Music/XLD Rips/Rare Groove Mastercuts Vol 3 [FLAC}/10 - Ain't no half steppin (original version).m4a
/Volumes/Drobo/Music/XLD Rips/Rare Groove Mastercuts Vol 3 [FLAC}/10 - Ain't no half steppin (original version).flac
/Volumes/Drobo/Music/XLD Rips/Rare Groove Mastercuts Vol 3 [FLAC}/10 - Ain't no half steppin (original version).mp3
Pre-gap length : 00:02:64
Track gain : -5.73 dB
Peak : 1.000000
CRC32 hash (test run) : 77D0D523
CRC32 hash : 77D0D523
CRC32 hash (skip zero) : 44FAA85C
AccurateRip signature : BCB4D642
->Accurately ripped! (confidence 5)
Statistics
Read error : 0
Skipped (treated as error) : 0
Edge jitter error (maybe fixed) : 0
Atom jitter error (maybe fixed) : 0
Drift error (maybe fixed) : 0
Dropped bytes error (maybe fixed) : 0
Duplicated bytes error (maybe fixed) : 0
Inconsistency in error sectors : 0
Track 11
Filename : /Volumes/Drobo/Music/XLD Rips/Rare Groove Mastercuts Vol 3 [FLAC}/11 - I wouldn't change a thing (original version).m4a
/Volumes/Drobo/Music/XLD Rips/Rare Groove Mastercuts Vol 3 [FLAC}/11 - I wouldn't change a thing (original version).flac
/Volumes/Drobo/Music/XLD Rips/Rare Groove Mastercuts Vol 3 [FLAC}/11 - I wouldn't change a thing (original version).mp3
Pre-gap length : 00:02:64
Track gain : -6.23 dB
Peak : 1.000000
CRC32 hash (test run) : EF409728
CRC32 hash : EF409728
CRC32 hash (skip zero) : 09673770
AccurateRip signature : F2BD0D36
->Accurately ripped! (confidence 5)
Statistics
Read error : 0
Skipped (treated as error) : 0
Edge jitter error (maybe fixed) : 0
Atom jitter error (maybe fixed) : 0
Drift error (maybe fixed) : 0
Dropped bytes error (maybe fixed) : 0
Duplicated bytes error (maybe fixed) : 0
Inconsistency in error sectors : 0
Track 12
Filename : /Volumes/Drobo/Music/XLD Rips/Rare Groove Mastercuts Vol 3 [FLAC}/12 - All about the papers (original version).m4a
/Volumes/Drobo/Music/XLD Rips/Rare Groove Mastercuts Vol 3 [FLAC}/12 - All about the papers (original version).flac
/Volumes/Drobo/Music/XLD Rips/Rare Groove Mastercuts Vol 3 [FLAC}/12 - All about the papers (original version).mp3
Pre-gap length : 00:02:64
Track gain : -5.46 dB
Peak : 1.000000
CRC32 hash (test run) : B0A0D4B6
CRC32 hash : B0A0D4B6
CRC32 hash (skip zero) : 5E88936A
AccurateRip signature : CA0A0A72
->Accurately ripped! (confidence 5)
Statistics
Read error : 0
Skipped (treated as error) : 0
Edge jitter error (maybe fixed) : 0
Atom jitter error (maybe fixed) : 0
Drift error (maybe fixed) : 0
Dropped bytes error (maybe fixed) : 0
Duplicated bytes error (maybe fixed) : 0
Inconsistency in error sectors : 0
No errors occurred
End of status report
 
CUE
TITLE "Rare Groove Mastercuts Vol. 3"
REM GENRE "Other"
REM DATE 2000
FILE "01 - Here we go (original version).wav" WAVE
TRACK 01 AUDIO
TITLE "Here we go (original version)"
PERFORMER "Minnie Riperton"
INDEX 01 00:00:00
TRACK 02 AUDIO
TITLE "Ain't it a shame (original version)"
PERFORMER "Dells"
INDEX 00 04:03:32
FILE "02 - Ain't it a shame (original version).wav" WAVE
INDEX 01 00:00:00
TRACK 03 AUDIO
TITLE "Stella (original version)"
PERFORMER "Norman Connors"
INDEX 00 04:51:52
FILE "03 - Stella (original version).wav" WAVE
INDEX 01 00:00:00
TRACK 04 AUDIO
TITLE "You stepped into my life (original version)"
PERFORMER "Melba Moore"
INDEX 00 03:17:31
FILE "04 - You stepped into my life (original version).wav" WAVE
INDEX 01 00:00:00
TRACK 05 AUDIO
TITLE "Barbara Ann (original version)"
PERFORMER "Webster Lewis"
INDEX 00 07:46:54
FILE "05 - Barbara Ann (original version).wav" WAVE
INDEX 01 00:00:00
TRACK 06 AUDIO
TITLE "Losalamitos - latinfunklovesong (original version)"
PERFORMER "Gene Harris"
INDEX 00 06:00:17
FILE "06 - Losalamitos - latinfunklovesong (original version).wav" WAVE
INDEX 01 00:00:00
TRACK 07 AUDIO
TITLE "Overture (original version)"
PERFORMER "Flora Purim"
INDEX 00 03:04:62
FILE "07 - Overture (original version).wav" WAVE
INDEX 01 00:00:00
TRACK 08 AUDIO
TITLE "It's hard not to like you (original version)"
PERFORMER "Archie Bell & Drells"
INDEX 00 02:53:47
FILE "08 - It's hard not to like you (original version).wav" WAVE
INDEX 01 00:00:00
TRACK 09 AUDIO
TITLE "Look at me, look at you (original version)"
PERFORMER "Marlena Shaw"
INDEX 00 03:58:32
FILE "09 - Look at me, look at you (original version).wav" WAVE
INDEX 01 00:00:00
TRACK 10 AUDIO
TITLE "Ain't no half steppin (original version)"
PERFORMER "Heatwave"
INDEX 00 04:00:00
FILE "10 - Ain't no half steppin (original version).wav" WAVE
INDEX 01 00:00:00
TRACK 11 AUDIO
TITLE "I wouldn't change a thing (original version)"
PERFORMER "Coke Escovedo"
INDEX 00 05:09:14
FILE "11 - I wouldn't change a thing (original version).wav" WAVE
INDEX 01 00:00:00
TRACK 12 AUDIO
TITLE "All about the papers (original version)"
PERFORMER "Loleatta Holloway"
INDEX 00 03:16:49
FILE "12 - All about the papers (original version).wav" WAVE
INDEX 01 00:00:00
Приватный:
Нет (DHT включён)
Размер:
356.96 Мб (374,301,577 байт) » файлов: 16
Участники:
0 раздают, 0 качают (0 участников всего)
Внешние участники:
5 раздают, 2 качают (7 участников всего) [ Обновить ]
Никого нет на раздаче - пишите личное сообщение M0p94ok
No seeders - write personal message to M0p94ok
04:33
26
Нет комментариев. Ваш будет первым!