Поиск

(Jazzdance, Soul, Disco, Jazz-Funk) VA - The Best Of Mastercuts - 1996, FLAC (tracks+.cue), lossless

Треклист:
Various Artists - The Best Of Mastercuts

Жанр: Jazzdance, Soul, Disco, Jazz-Funk
Год выпуска диска: 1996
Производитель диска: UK
Аудио кодек: FLAC
Тип рипа: tracks+.cue
Битрейт аудио: lossless
Продолжительность: 03:27:40

80's Groove (CD1)
01 Sly & Robbie - Boops (Here To Go) [05:23]
02 Gwen Guthrie - Ain't Nothin' Goin' On But The Rent - 02 - Gwen Guthrie - Ain't Nothin' Goin' On But The Rent [07:13]
03 Aretha Franklin - Who's Zoomin' Who (Dance Mix) [08:34]
04 Evelyn King - Love Come Down [06:09]
05 The Gap Band - Big Fun [08:32]
06 Odyssey (2) - Going Back To My Roots [05:24]
07 Shalamar - A Night To Remember [04:08]
08 Colonel Abrams - Trapped [04:08]
09 The Whispers - And The Beat Goes On [06:44]
10 James Ingram with Michael McDonald - Yah Mo B There [06:36]
11 Chaka Khan - I Feel For You (Remix) [07:16]
12 Stephanie Mills - Never Knew Love Like This Before [05:25]
Jazz Funk (CD2)
01 Azymuth - Jazz Carnival [06:27]
02 Spyro Gyra - Morning Dance [03:55]
03 Rodney Franklin - The Groove [04:57]
04 Shakatak - Night Birds [06:22]
05 Ned Doheney - To Prove My Love [04:46]
06 Bob James - Sign Of The Times [05:34]
07 Mezzoforte - Garden Party [06:09]
08 Roy Ayers - Can't You See Me [06:54]
09 Average White Band - Pick Up The Pieces [03:57]
10 Lonnie Liston Smith - Space Princess [06:57]
11 Herbie Hancock - I Thought It Was You [08:53]
12 The McCrarys - Love On A Summer Night [04:31]
Soul (CD3)
01 The Jones Girls - This Feeling's Killing Me [03:29]
02 Phyllis Hyman - You Know How To Love Me [07:28]
03 Dennis Edwards - Don't Look Any Further (feat. Siedah Garrett) [05:21]
04 Soul II Soul - Keep On Movin' (Club Mix) [05:46]
05 Luther Vandross - See Me [05:35]
06 Massive Attack - Unfinished Sympathy (Paul Oakenfold Mix) [05:16]
07 Teddy Pendergrass - Whole Town's Laughing [03:54]
08 Lavine Hudson - Flesh Of My Flesh (I Want The World To Know) (Extended Re-Mix) [07:38]
09 The Isley Brothers - Between The Sheets [05:31]
10 Mary J. Blige - (You Make Me Feel Like A) Natural Woman [02:55]
11 Rose Royce - Love Don't Live Here Anymore [03:53]
12 Loose Ends - Don't Be A Fool (Extended Version) [05:46]
from what.cd
 
Logs & CUE's
 
Log EAC CD 1
Exact Audio Copy V0.99 prebeta 4 from 23. January 2008
EAC extraction logfile from 8. May 2009, 20:37
Various / The Best Of Mastercuts (80's Groove CD)
Used drive : Optiarc DVD RW AD-7530B Adapter: 0 ID: 0
Read mode : Secure
Utilize accurate stream : Yes
Defeat audio cache : Yes
Make use of C2 pointers : No
Read offset correction : 6
Overread into Lead-In and Lead-Out : No
Fill up missing offset samples with silence : Yes
Delete leading and trailing silent blocks : No
Null samples used in CRC calculations : Yes
Used interface : Native Win32 interface for Win NT & 2000
Gap handling : Appended to previous track
Used output format : User Defined Encoder
Selected bitrate : 320 kBit/s
Quality : High
Add ID3 tag : No
Command line compressor : C:\Program Files\FLAC\flac.exe
Additional command line options : -V -8 -T "artist=%a" -T "title=%t" -T "album=%g" -T "date=%y" -T "tracknumber=%n" -T "genre=%m" %s
TOC of the extracted CD
Track | Start | Length | Start sector | End sector
---------------------------------------------------------
1 | 0:00.00 | 5:23.02 | 0 | 24226
2 | 5:23.02 | 7:13.70 | 24227 | 56771
3 | 12:36.72 | 8:34.25 | 56772 | 95346
4 | 21:11.22 | 6:09.03 | 95347 | 123024
5 | 27:20.25 | 8:32.30 | 123025 | 161454
6 | 35:52.55 | 5:24.25 | 161455 | 185779
7 | 41:17.05 | 4:08.00 | 185780 | 204379
8 | 45:25.05 | 4:08.07 | 204380 | 222986
9 | 49:33.12 | 6:44.18 | 222987 | 253304
10 | 56:17.30 | 6:36.45 | 253305 | 283049
11 | 62:54.00 | 7:16.07 | 283050 | 315756
12 | 70:10.07 | 5:25.50 | 315757 | 340181
Track 1
Filename D:\Rips\01 - Sly & Robbie - Boops (Here To Go).wav
Pre-gap length 0:00:02.00
Peak level 88.9 %
Track quality 100.0 %
Test CRC 518A94BC
Copy CRC 518A94BC
Accurately ripped (confidence 3) [F1E8B048]
Copy OK
Track 2
Filename D:\Rips\02 - Gwen Guthrie - Ain't Nothin' Goin' On But The Rent.wav
Pre-gap length 0:00:00.22
Peak level 97.7 %
Track quality 100.0 %
Test CRC 4CE90D44
Copy CRC 4CE90D44
Accurately ripped (confidence 3) [BC4597F3]
Copy OK
Track 3
Filename D:\Rips\03 - Aretha Franklin - Who's Zoomin' Who.wav
Pre-gap length 0:00:00.42
Peak level 97.4 %
Track quality 100.0 %
Test CRC F54722CD
Copy CRC F54722CD
Accurately ripped (confidence 3) [EA46ED2F]
Copy OK
Track 4
Filename D:\Rips\04 - Evelyn King - Love Come Down.wav
Pre-gap length 0:00:00.33
Peak level 96.4 %
Track quality 100.0 %
Test CRC F3F1CA54
Copy CRC F3F1CA54
Accurately ripped (confidence 3) [8B1D1E83]
Copy OK
Track 5
Filename D:\Rips\05 - Gap Band (The) - Big Fun.wav
Pre-gap length 0:00:00.13
Peak level 87.0 %
Track quality 100.0 %
Test CRC 7839F54F
Copy CRC 7839F54F
Accurately ripped (confidence 3) [669C7CC2]
Copy OK
Track 6
Filename D:\Rips\06 - Odyssey - Going Back To My Roots.wav
Pre-gap length 0:00:00.46
Peak level 95.8 %
Track quality 100.0 %
Test CRC 2903FA9A
Copy CRC 2903FA9A
Accurately ripped (confidence 3) [70EDB8C8]
Copy OK
Track 7
Filename D:\Rips\07 - Shalamar - A Night To Remember.wav
Pre-gap length 0:00:00.40
Peak level 96.3 %
Track quality 100.0 %
Test CRC 9F335A11
Copy CRC 9F335A11
Accurately ripped (confidence 3) [2DC98B58]
Copy OK
Track 8
Filename D:\Rips\08 - Colonel Abrams - Trapped.wav
Pre-gap length 0:00:00.37
Peak level 82.1 %
Track quality 100.0 %
Test CRC 624F147E
Copy CRC 624F147E
Accurately ripped (confidence 3) [CE250851]
Copy OK
Track 9
Filename D:\Rips\09 - Whispers (The) - And The Beat Goes On.wav
Pre-gap length 0:00:00.36
Peak level 81.7 %
Track quality 100.0 %
Test CRC D034A9F4
Copy CRC D034A9F4
Accurately ripped (confidence 3) [F319C364]
Copy OK
Track 10
Filename D:\Rips\10 - James Ingram - Yah Mo B There.wav
Pre-gap length 0:00:00.46
Peak level 97.2 %
Track quality 100.0 %
Test CRC AB61F5F3
Copy CRC AB61F5F3
Accurately ripped (confidence 3) [0AEE67A6]
Copy OK
Track 11
Filename D:\Rips\11 - Chaka Khan - I Feel For You.wav
Pre-gap length 0:00:00.44
Peak level 87.0 %
Track quality 100.0 %
Test CRC 5B3DA611
Copy CRC 5B3DA611
Accurately ripped (confidence 3) [6367DF4B]
Copy OK
Track 12
Filename D:\Rips\12 - Stephanie Mills - Never Knew Love Like This Before.wav
Pre-gap length 0:00:00.29
Peak level 97.5 %
Track quality 100.0 %
Test CRC 0B34343B
Copy CRC 0B34343B
Accurately ripped (confidence 3) [7091A200]
Copy OK
All tracks accurately ripped
No errors occurred
End of status report
 
CUE
REM DISCID BB11B70C
REM COMMENT "ExactAudioCopy v0.99pb4"
PERFORMER "Various"
TITLE "The Best Of Mastercuts (80's Groove CD)"
FILE "01 - Sly & Robbie - Boops (Here To Go).wav" WAVE
TRACK 01 AUDIO
TITLE "Sly & Robbie - Boops (Here To Go)"
PERFORMER "Sly & Robbie - Boops (Here To Go)"
INDEX 01 00:00:00
TRACK 02 AUDIO
TITLE "Gwen Guthrie - Ain't Nothin' Goin' On But The Rent"
PERFORMER "Gwen Guthrie - Ain't Nothin' Goin' On But The Rent"
INDEX 00 05:22:60
FILE "02 - Gwen Guthrie - Ain't Nothin' Goin' On But The Rent.wav" WAVE
INDEX 01 00:00:00
TRACK 03 AUDIO
TITLE "Aretha Franklin - Who's Zoomin' Who"
PERFORMER "Aretha Franklin - Who's Zoomin' Who"
INDEX 00 07:13:38
FILE "03 - Aretha Franklin - Who's Zoomin' Who.wav" WAVE
INDEX 01 00:00:00
TRACK 04 AUDIO
TITLE "Evelyn King - Love Come Down"
PERFORMER "Evelyn King - Love Come Down"
INDEX 00 08:34:00
FILE "04 - Evelyn King - Love Come Down.wav" WAVE
INDEX 01 00:00:00
TRACK 05 AUDIO
TITLE "Gap Band (The) - Big Fun"
PERFORMER "Gap Band (The) - Big Fun"
INDEX 00 06:08:68
FILE "05 - Gap Band (The) - Big Fun.wav" WAVE
INDEX 01 00:00:00
TRACK 06 AUDIO
TITLE "Odyssey - Going Back To My Roots"
PERFORMER "Odyssey - Going Back To My Roots"
INDEX 00 08:31:70
FILE "06 - Odyssey - Going Back To My Roots.wav" WAVE
INDEX 01 00:00:00
TRACK 07 AUDIO
TITLE "Shalamar - A Night To Remember"
PERFORMER "Shalamar - A Night To Remember"
INDEX 00 05:23:70
FILE "07 - Shalamar - A Night To Remember.wav" WAVE
INDEX 01 00:00:00
TRACK 08 AUDIO
TITLE "Colonel Abrams - Trapped"
PERFORMER "Colonel Abrams - Trapped"
INDEX 00 04:07:47
FILE "08 - Colonel Abrams - Trapped.wav" WAVE
INDEX 01 00:00:00
TRACK 09 AUDIO
TITLE "Whispers (The) - And The Beat Goes On"
PERFORMER "Whispers (The) - And The Beat Goes On"
INDEX 00 04:07:55
FILE "09 - Whispers (The) - And The Beat Goes On.wav" WAVE
INDEX 01 00:00:00
TRACK 10 AUDIO
TITLE "James Ingram - Yah Mo B There"
PERFORMER "James Ingram - Yah Mo B There"
INDEX 00 06:43:58
FILE "10 - James Ingram - Yah Mo B There.wav" WAVE
INDEX 01 00:00:00
TRACK 11 AUDIO
TITLE "Chaka Khan - I Feel For You"
PERFORMER "Chaka Khan - I Feel For You"
INDEX 00 06:36:12
FILE "11 - Chaka Khan - I Feel For You.wav" WAVE
INDEX 01 00:00:00
TRACK 12 AUDIO
TITLE "Stephanie Mills - Never Knew Love Like This Before"
PERFORMER "Stephanie Mills - Never Knew Love Like This Before"
INDEX 00 07:15:60
FILE "12 - Stephanie Mills - Never Knew Love Like This Before.wav" WAVE
INDEX 01 00:00:00
 
Log EAC CD 2
Exact Audio Copy V0.99 prebeta 4 from 23. January 2008
EAC extraction logfile from 9. May 2009, 0:29
Various / The Best of Mastercuts (Jazz Funk CD)
Used drive : Optiarc DVD RW AD-7530B Adapter: 0 ID: 0
Read mode : Secure
Utilize accurate stream : Yes
Defeat audio cache : Yes
Make use of C2 pointers : No
Read offset correction : 6
Overread into Lead-In and Lead-Out : No
Fill up missing offset samples with silence : Yes
Delete leading and trailing silent blocks : No
Null samples used in CRC calculations : Yes
Used interface : Native Win32 interface for Win NT & 2000
Gap handling : Appended to previous track
Used output format : User Defined Encoder
Selected bitrate : 320 kBit/s
Quality : High
Add ID3 tag : No
Command line compressor : C:\Program Files\FLAC\flac.exe
Additional command line options : -V -8 -T "artist=%a" -T "title=%t" -T "album=%g" -T "date=%y" -T "tracknumber=%n" -T "genre=%m" %s
TOC of the extracted CD
Track | Start | Length | Start sector | End sector
---------------------------------------------------------
1 | 0:00.00 | 6:27.40 | 0 | 29064
2 | 6:27.40 | 3:55.45 | 29065 | 46734
3 | 10:23.10 | 4:57.32 | 46735 | 69041
4 | 15:20.42 | 6:22.50 | 69042 | 97741
5 | 21:43.17 | 4:46.15 | 97742 | 119206
6 | 26:29.32 | 5:34.60 | 119207 | 144316
7 | 32:04.17 | 6:09.48 | 144317 | 172039
8 | 38:13.65 | 6:54.30 | 172040 | 203119
9 | 45:08.20 | 3:57.67 | 203120 | 220961
10 | 49:06.12 | 6:57.03 | 220962 | 252239
11 | 56:03.15 | 8:53.42 | 252240 | 292256
12 | 64:56.57 | 4:31.00 | 292257 | 312581
Track 1
Filename D:\Rips\01 - Jazz Carnival.wav
Pre-gap length 0:00:02.00
Peak level 98.8 %
Track quality 99.9 %
Test CRC 12BCECFB
Copy CRC 12BCECFB
Accurately ripped (confidence 3) [2BDD27A2]
Copy OK
Track 2
Filename D:\Rips\02 - Morning Dance.wav
Pre-gap length 0:00:00.26
Peak level 98.7 %
Track quality 100.0 %
Test CRC 916C0B84
Copy CRC 916C0B84
Accurately ripped (confidence 3) [818CB8A7]
Copy OK
Track 3
Filename D:\Rips\03 - The Groove.wav
Pre-gap length 0:00:00.33
Peak level 95.0 %
Track quality 100.0 %
Test CRC 5BD51334
Copy CRC 5BD51334
Accurately ripped (confidence 3) [27965A64]
Copy OK
Track 4
Filename D:\Rips\04 - Night Birds.wav
Pre-gap length 0:00:00.20
Peak level 98.8 %
Track quality 100.0 %
Test CRC 83C288B7
Copy CRC 83C288B7
Accurately ripped (confidence 3) [4E6EF20C]
Copy OK
Track 5
Filename D:\Rips\05 - To Prove My Love.wav
Pre-gap length 0:00:00.46
Peak level 95.1 %
Track quality 100.0 %
Test CRC 7D776D08
Copy CRC 7D776D08
Accurately ripped (confidence 3) [0FA0CBE9]
Copy OK
Track 6
Filename D:\Rips\06 - Sign Of The Times.wav
Pre-gap length 0:00:00.36
Peak level 91.8 %
Track quality 100.0 %
Test CRC A73CFB8B
Copy CRC A73CFB8B
Accurately ripped (confidence 3) [E254E8E8]
Copy OK
Track 7
Filename D:\Rips\07 - Garden Party.wav
Pre-gap length 0:00:00.46
Peak level 95.0 %
Track quality 100.0 %
Test CRC 78396769
Copy CRC 78396769
Track not present in AccurateRip database
Copy OK
Track 8
Filename D:\Rips\08 - Can't You See Me.wav
Pre-gap length 0:00:00.26
Peak level 98.8 %
Track quality 99.9 %
Test CRC C40FD6EB
Copy CRC C40FD6EB
Accurately ripped (confidence 3) [0666FBB2]
Copy OK
Track 9
Filename D:\Rips\09 - Pick Up The Pieces.wav
Pre-gap length 0:00:00.53
Peak level 87.6 %
Track quality 100.0 %
Test CRC C4044827
Copy CRC C4044827
Accurately ripped (confidence 3) [B7C95B53]
Copy OK
Track 10
Filename D:\Rips\10 - Space Princess.wav
Pre-gap length 0:00:00.13
Peak level 98.2 %
Track quality 100.0 %
Test CRC CD571A89
Copy CRC CD571A89
Accurately ripped (confidence 3) [01F2C5EA]
Copy OK
Track 11
Filename D:\Rips\11 - I Thought It Was You.wav
Pre-gap length 0:00:00.50
Peak level 95.1 %
Track quality 100.0 %
Test CRC 9399939B
Copy CRC 9399939B
Accurately ripped (confidence 3) [A559AE6C]
Copy OK
Track 12
Filename D:\Rips\12 - Love On A Summer Night.wav
Pre-gap length 0:00:00.29
Peak level 98.8 %
Track quality 99.9 %
Test CRC 4F00DED9
Copy CRC 4F00DED9
Accurately ripped (confidence 3) [5125EDB8]
Copy OK
11 track(s) accurately ripped
1 track(s) not present in the AccurateRip database
Some tracks could not be verified as accurate
No errors occurred
End of status report
 
CUE
REM GENRE "Acid Jazz"
REM DISCID BB10470C
REM COMMENT "ExactAudioCopy v0.99pb4"
PERFORMER "Various"
TITLE "The Best of Mastercuts (Jazz Funk CD)"
FILE "01 - Jazz Carnival.wav" WAVE
TRACK 01 AUDIO
TITLE "Jazz Carnival"
PERFORMER "Azymuth"
INDEX 01 00:00:00
TRACK 02 AUDIO
TITLE "Morning Dance"
PERFORMER "Spyro Grya"
INDEX 00 06:27:20
FILE "02 - Morning Dance.wav" WAVE
INDEX 01 00:00:00
TRACK 03 AUDIO
TITLE "The Groove"
PERFORMER "Rodney Franklin"
INDEX 00 03:55:20
FILE "03 - The Groove.wav" WAVE
INDEX 01 00:00:00
TRACK 04 AUDIO
TITLE "Night Birds"
PERFORMER "Shakatak"
INDEX 00 04:57:17
FILE "04 - Night Birds.wav" WAVE
INDEX 01 00:00:00
TRACK 05 AUDIO
TITLE "To Prove My Love"
PERFORMER "Ned Doheney"
INDEX 00 06:22:15
FILE "05 - To Prove My Love.wav" WAVE
INDEX 01 00:00:00
TRACK 06 AUDIO
TITLE "Sign Of The Times"
PERFORMER "Bob James"
INDEX 00 04:45:63
FILE "06 - Sign Of The Times.wav" WAVE
INDEX 01 00:00:00
TRACK 07 AUDIO
TITLE "Garden Party"
PERFORMER "Mezzoforte"
INDEX 00 05:34:25
FILE "07 - Garden Party.wav" WAVE
INDEX 01 00:00:00
TRACK 08 AUDIO
TITLE "Can't You See Me"
PERFORMER "Roy ayers"
INDEX 00 06:09:28
FILE "08 - Can't You See Me.wav" WAVE
INDEX 01 00:00:00
TRACK 09 AUDIO
TITLE "Pick Up The Pieces"
PERFORMER "Average White Band"
INDEX 00 06:53:65
FILE "09 - Pick Up The Pieces.wav" WAVE
INDEX 01 00:00:00
TRACK 10 AUDIO
TITLE "Space Princess"
PERFORMER "Lonnie Liston Smith"
INDEX 00 03:57:57
FILE "10 - Space Princess.wav" WAVE
INDEX 01 00:00:00
TRACK 11 AUDIO
TITLE "I Thought It Was You"
PERFORMER "Herbie Handcock"
INDEX 00 06:56:40
FILE "11 - I Thought It Was You.wav" WAVE
INDEX 01 00:00:00
TRACK 12 AUDIO
TITLE "Love On A Summer Night"
PERFORMER "The McCrays"
INDEX 00 08:53:20
FILE "12 - Love On A Summer Night.wav" WAVE
INDEX 01 00:00:00
 
Log EAC CD 3
Exact Audio Copy V0.99 prebeta 4 from 23. January 2008
EAC extraction logfile from 9. May 2009, 11:51
Various / Mastercuts The Best Of (Soul)
Used drive : Optiarc DVD RW AD-7530B Adapter: 0 ID: 0
Read mode : Secure
Utilize accurate stream : Yes
Defeat audio cache : Yes
Make use of C2 pointers : No
Read offset correction : 6
Overread into Lead-In and Lead-Out : No
Fill up missing offset samples with silence : Yes
Delete leading and trailing silent blocks : No
Null samples used in CRC calculations : Yes
Used interface : Native Win32 interface for Win NT & 2000
Gap handling : Appended to previous track
Used output format : User Defined Encoder
Selected bitrate : 320 kBit/s
Quality : High
Add ID3 tag : No
Command line compressor : C:\Program Files\FLAC\flac.exe
Additional command line options : -V -8 -T "artist=%a" -T "title=%t" -T "album=%g" -T "date=%y" -T "tracknumber=%n" -T "genre=%m" %s
TOC of the extracted CD
Track | Start | Length | Start sector | End sector
---------------------------------------------------------
1 | 0:00.00 | 3:29.02 | 0 | 15676
2 | 3:29.02 | 7:28.60 | 15677 | 49336
3 | 10:57.62 | 5:21.30 | 49337 | 73441
4 | 16:19.17 | 5:46.03 | 73442 | 99394
5 | 22:05.20 | 5:35.20 | 99395 | 124539
6 | 27:40.40 | 5:16.47 | 124540 | 148286
7 | 32:57.12 | 3:54.68 | 148287 | 165904
8 | 36:52.05 | 7:38.15 | 165905 | 200269
9 | 44:30.20 | 5:31.55 | 200270 | 225149
10 | 50:02.00 | 2:55.27 | 225150 | 238301
11 | 52:57.27 | 3:53.13 | 238302 | 255789
12 | 56:50.40 | 5:46.20 | 255790 | 281759
Track 1
Filename D:\Rips\01 - This Feelings Killing Me.wav
Pre-gap length 0:00:02.00
Peak level 98.2 %
Track quality 100.0 %
Test CRC 7FE802C1
Copy CRC 7FE802C1
Accurately ripped (confidence 5) [013DFF75]
Copy OK
Track 2
Filename D:\Rips\02 - You Know How To Love Me.wav
Pre-gap length 0:00:00.02
Peak level 98.8 %
Track quality 100.0 %
Test CRC C70AFE45
Copy CRC C70AFE45
Accurately ripped (confidence 5) [371937F3]
Copy OK
Track 3
Filename D:\Rips\03 - Don't Look Any Further.wav
Pre-gap length 0:00:00.13
Peak level 88.1 %
Track quality 99.9 %
Test CRC 166DFF08
Copy CRC 166DFF08
Accurately ripped (confidence 5) [113B2284]
Copy OK
Track 4
Filename D:\Rips\04 - Keep On Movin'.wav
Pre-gap length 0:00:00.13
Peak level 92.7 %
Track quality 100.0 %
Test CRC 2CD8675A
Copy CRC 2CD8675A
Accurately ripped (confidence 6) [F22EE918]
Copy OK
Track 5
Filename D:\Rips\05 - See Me.wav
Pre-gap length 0:00:00.10
Peak level 77.2 %
Track quality 100.0 %
Test CRC 87EE3F62
Copy CRC 87EE3F62
Accurately ripped (confidence 5) [7E035C4A]
Copy OK
Track 6
Filename D:\Rips\06 - Unfinished Sympathy.wav
Pre-gap length 0:00:00.10
Peak level 98.8 %
Track quality 100.0 %
Test CRC 14295D71
Copy CRC 14295D71
Accurately ripped (confidence 5) [85439129]
Copy OK
Track 7
Filename D:\Rips\07 - Whole Town's Laughing.wav
Pre-gap length 0:00:00.36
Peak level 98.1 %
Track quality 100.0 %
Test CRC B7B25469
Copy CRC B7B25469
Accurately ripped (confidence 5) [E3053C25]
Copy OK
Track 8
Filename D:\Rips\08 - Flesh of my Fles.wav
Pre-gap length 0:00:00.37
Peak level 93.3 %
Track quality 100.0 %
Test CRC 58943F86
Copy CRC 58943F86
Accurately ripped (confidence 5) [16C26D73]
Copy OK
Track 9
Filename D:\Rips\09 - Between the Sheets.wav
Pre-gap length 0:00:00.46
Peak level 80.0 %
Track quality 99.9 %
Test CRC 6C1E4C31
Copy CRC 6C1E4C31
Accurately ripped (confidence 5) [1FD1B2E9]
Copy OK
Track 10
Filename D:\Rips\10 - (You Make Me Feel Like A) Natural Woman.wav
Pre-gap length 0:00:00.33
Peak level 98.8 %
Track quality 100.0 %
Test CRC FD2AB582
Copy CRC FD2AB582
Accurately ripped (confidence 5) [173E811D]
Copy OK
Track 11
Filename D:\Rips\11 - Love Don't Live Here Anymore.wav
Pre-gap length 0:00:00.29
Peak level 98.8 %
Track quality 100.0 %
Test CRC 04AB3DAF
Copy CRC 04AB3DAF
Accurately ripped (confidence 5) [B2234D56]
Copy OK
Track 12
Filename D:\Rips\12 - Don't Be A Fool.wav
Pre-gap length 0:00:00.20
Peak level 98.2 %
Track quality 100.0 %
Test CRC 55979F24
Copy CRC 55979F24
Accurately ripped (confidence 5) [AF438909]
Copy OK
All tracks accurately ripped
No errors occurred
End of status report
 
CUE
REM DISCID A10EAC0C
REM COMMENT "ExactAudioCopy v0.99pb4"
PERFORMER "Various"
TITLE "Mastercuts The Best Of (Soul)"
FILE "01 - This Feelings Killing Me.wav" WAVE
TRACK 01 AUDIO
TITLE "This Feelings Killing Me"
PERFORMER "Jones Girls"
INDEX 01 00:00:00
TRACK 02 AUDIO
TITLE "You Know How To Love Me"
PERFORMER "Phyllis Hyman"
INDEX 00 03:29:00
FILE "02 - You Know How To Love Me.wav" WAVE
INDEX 01 00:00:00
TRACK 03 AUDIO
TITLE "Don't Look Any Further"
PERFORMER "Dennis Edwards"
INDEX 00 07:28:50
FILE "03 - Don't Look Any Further.wav" WAVE
INDEX 01 00:00:00
TRACK 04 AUDIO
TITLE "Keep On Movin'"
PERFORMER "Soul II Soul"
INDEX 00 05:21:20
FILE "04 - Keep On Movin'.wav" WAVE
INDEX 01 00:00:00
TRACK 05 AUDIO
TITLE "See Me"
PERFORMER "Luther Vandross"
INDEX 00 05:45:70
FILE "05 - See Me.wav" WAVE
INDEX 01 00:00:00
TRACK 06 AUDIO
TITLE "Unfinished Sympathy"
PERFORMER "Massive Attack"
INDEX 00 05:35:12
FILE "06 - Unfinished Sympathy.wav" WAVE
INDEX 01 00:00:00
TRACK 07 AUDIO
TITLE "Whole Town's Laughing"
PERFORMER "Teddy Pendergrass"
INDEX 00 05:16:20
FILE "07 - Whole Town's Laughing.wav" WAVE
INDEX 01 00:00:00
TRACK 08 AUDIO
TITLE "Flesh of my Fles"
PERFORMER "Lavine Hudson"
INDEX 00 03:54:40
FILE "08 - Flesh of my Fles.wav" WAVE
INDEX 01 00:00:00
TRACK 09 AUDIO
TITLE "Between the Sheets"
PERFORMER "Isley Brothers"
INDEX 00 07:37:55
FILE "09 - Between the Sheets.wav" WAVE
INDEX 01 00:00:00
TRACK 10 AUDIO
TITLE "(You Make Me Feel Like A) Natural Woman"
PERFORMER "Mary J. Blige"
INDEX 00 05:31:30
FILE "10 - (You Make Me Feel Like A) Natural Woman.wav" WAVE
INDEX 01 00:00:00
TRACK 11 AUDIO
TITLE "Love Don't Live Here Anymore"
PERFORMER "Rose Royce"
INDEX 00 02:55:05
FILE "11 - Love Don't Live Here Anymore.wav" WAVE
INDEX 01 00:00:00
TRACK 12 AUDIO
TITLE "Don't Be A Fool"
PERFORMER "Loose Ends"
INDEX 00 03:52:73
FILE "12 - Don't Be A Fool.wav" WAVE
INDEX 01 00:00:00
Приватный:
Нет (DHT включён)
Размер:
1.33 Гб (1,433,236,279 байт) » файлов: 47
Участники:
0 раздают, 0 качают (0 участников всего)
Внешние участники:
5 раздают, 1 качают (6 участников всего) [ Обновить ]
Никого нет на раздаче - пишите личное сообщение M0p94ok
No seeders - write personal message to M0p94ok
04:34
23
Нет комментариев. Ваш будет первым!