Поиск

(Funk, Soul) VA - Classic P-Funk Mastercuts Volume 1 (CUTSCD 12) - 1993, FLAC (tracks+.cue), lossless

Треклист:
Various Artists - Classic P-Funk Mastercuts Volume 1
Жанр: Funk, Soul
Год выпуска диска: 1993
Производитель диска: UK \ Mastercuts
Аудио кодек: FLAC
Тип рипа: tracks+.cue
Битрейт аудио: lossless
Продолжительность: 79:33
01 Fred Wesley & The Horny Horns - Four Play [08:05]
02 Cameo - Funk Funk [04:47]
03 The Brides Of Funkenstein - Disco To Go [05:07]
04 Fred Wesley & The Horny Horns - We Came To Funk Ya [07:01]
05 Slave - Funken Town [03:42]
06 General Caine - Shake [06:35]
07 Red Hot Chilli Peppers - Hollywood [06:34]
08 George Clinton - Tweakin' [05:50]
09 Well Red - Get Lucky [07:57]
10 K-9 Corp - Dog Talk [07:57]
11 George Clinton - Loopzilla [08:53]
12 Xavier - Work That Sucker To Death [06:58]

from what.cd
 
Log EAC
EAC extraction logfile from 25. June 2009, 17:14 for CD
Various / Classic P-Funk Mastercuts Volume 1
Used drive : HL-DT-STDVDRRW GSA-H20L Adapter: 1 ID: 0
Read mode : Secure with NO C2, accurate stream, disable cache
Read offset correction : 102
Overread into Lead-In and Lead-Out : No
Used output format : C:\Program Files\Exact Audio Copy\bin\flac.exe (User Defined Encoder)
192 kBit/s
Additional command line options : -V -8 -T "artist=%a" -T "title=%t" -T "album=%g" -T "date=%y" -T "tracknumber=%n" -T "genre=%m" %s
Other options :
Fill up missing offset samples with silence : Yes
Delete leading and trailing silent blocks : No
Installed external ASPI interface
Track 1
Filename D:\!Ripped\Classic P-Funk Mastercuts Volume 1 [1993, FLAC]\01 - Fred Wesley & The Horny Horns - Four Play.wav
Pre-gap length 0:00:02.00
Peak level 80.8 %
Track quality 100.0 %
Test CRC A6CF179F
Copy CRC A6CF179F
Copy OK
Track 2
Filename D:\!Ripped\Classic P-Funk Mastercuts Volume 1 [1993, FLAC]\02 - Cameo - Funk Funk.wav
Pre-gap length 0:00:02.26
Peak level 71.7 %
Track quality 100.0 %
Test CRC C13602D6
Copy CRC C13602D6
Copy OK
Track 3
Filename D:\!Ripped\Classic P-Funk Mastercuts Volume 1 [1993, FLAC]\03 - The Brides Of Funkenstein - Disco To Go.wav
Pre-gap length 0:00:01.76
Peak level 80.2 %
Track quality 100.0 %
Test CRC E8DCF3CA
Copy CRC E8DCF3CA
Copy OK
Track 4
Filename D:\!Ripped\Classic P-Funk Mastercuts Volume 1 [1993, FLAC]\04 - Fred Wesley & The Horny Horns - We Came To Funk Ya.wav
Pre-gap length 0:00:02.00
Peak level 81.7 %
Track quality 99.9 %
Test CRC 336600B9
Copy CRC 336600B9
Copy OK
Track 5
Filename D:\!Ripped\Classic P-Funk Mastercuts Volume 1 [1993, FLAC]\05 - Slave - Funken Town.wav
Pre-gap length 0:00:02.20
Peak level 80.0 %
Track quality 100.0 %
Test CRC A858BDE7
Copy CRC A858BDE7
Copy OK
Track 6
Filename D:\!Ripped\Classic P-Funk Mastercuts Volume 1 [1993, FLAC]\06 - General Caine - Shake.wav
Pre-gap length 0:00:01.53
Peak level 84.3 %
Track quality 99.9 %
Test CRC 56FBAB20
Copy CRC 56FBAB20
Copy OK
Track 7
Filename D:\!Ripped\Classic P-Funk Mastercuts Volume 1 [1993, FLAC]\07 - Red Hot Chilli Peppers - Hollywood.wav
Pre-gap length 0:00:03.22
Peak level 81.4 %
Track quality 100.0 %
Test CRC 3AD0A806
Copy CRC 3AD0A806
Copy OK
Track 8
Filename D:\!Ripped\Classic P-Funk Mastercuts Volume 1 [1993, FLAC]\08 - George Clinton - Tweakin'.wav
Pre-gap length 0:00:00.86
Peak level 76.8 %
Track quality 100.0 %
Test CRC 4BA37F47
Copy CRC 4BA37F47
Copy OK
Track 9
Filename D:\!Ripped\Classic P-Funk Mastercuts Volume 1 [1993, FLAC]\09 - Well Red - Get Lucky.wav
Pre-gap length 0:00:01.09
Peak level 82.7 %
Track quality 100.0 %
Test CRC A75944E8
Copy CRC A75944E8
Copy OK
Track 10
Filename D:\!Ripped\Classic P-Funk Mastercuts Volume 1 [1993, FLAC]\10 - K-9 Corp - Dog Talk.wav
Pre-gap length 0:00:01.73
Peak level 81.5 %
Track quality 99.9 %
Test CRC B24B4574
Copy CRC B24B4574
Copy OK
Track 11
Filename D:\!Ripped\Classic P-Funk Mastercuts Volume 1 [1993, FLAC]\11 - George Clinton - Loopzilla.wav
Pre-gap length 0:00:01.22
Peak level 80.5 %
Track quality 100.0 %
Test CRC 242B2A9D
Copy CRC 242B2A9D
Copy OK
Track 12
Filename D:\!Ripped\Classic P-Funk Mastercuts Volume 1 [1993, FLAC]\12 - Xavier - Work That Sucker To Death.wav
Pre-gap length 0:00:01.73
Peak level 84.5 %
Track quality 100.0 %
Test CRC 3FF3D79F
Copy CRC 3FF3D79F
Copy OK
No errors occured
End of status report
 
CUE
REM GENRE Funk
REM DATE 1993
REM DISCID AB12A50C
REM COMMENT "ExactAudioCopy v0.95b3"
PERFORMER "Various"
TITLE "Classic P-Funk Mastercuts Volume 1"
FILE "01 - Fred Wesley & The Horny Horns - Four Play.wav" WAVE
TRACK 01 AUDIO
TITLE "Four Play"
PERFORMER "Fred Wesley & The Horny Horns"
INDEX 01 00:00:00
TRACK 02 AUDIO
TITLE "Funk Funk"
PERFORMER "Cameo"
INDEX 00 08:03:22
FILE "02 - Cameo - Funk Funk.wav" WAVE
INDEX 01 00:00:00
TRACK 03 AUDIO
TITLE "Disco To Go"
PERFORMER "The Brides Of Funkenstein"
INDEX 00 04:45:63
FILE "03 - The Brides Of Funkenstein - Disco To Go.wav" WAVE
INDEX 01 00:00:00
TRACK 04 AUDIO
TITLE "We Came To Funk Ya"
PERFORMER "Fred Wesley & The Horny Horns"
INDEX 00 05:05:23
FILE "04 - Fred Wesley & The Horny Horns - We Came To Funk Ya.wav" WAVE
INDEX 01 00:00:00
TRACK 05 AUDIO
TITLE "Funken Town"
PERFORMER "Slave"
INDEX 00 06:59:37
FILE "05 - Slave - Funken Town.wav" WAVE
INDEX 01 00:00:00
TRACK 06 AUDIO
TITLE "Shake"
PERFORMER "General Caine"
INDEX 00 03:41:03
FILE "06 - General Caine - Shake.wav" WAVE
INDEX 01 00:00:00
TRACK 07 AUDIO
TITLE "Hollywood"
PERFORMER "Red Hot Chilli Peppers"
INDEX 00 06:32:20
FILE "07 - Red Hot Chilli Peppers - Hollywood.wav" WAVE
INDEX 01 00:00:00
TRACK 08 AUDIO
TITLE "Tweakin'"
PERFORMER "George Clinton"
INDEX 00 06:33:68
FILE "08 - George Clinton - Tweakin'.wav" WAVE
INDEX 01 00:00:00
TRACK 09 AUDIO
TITLE "Get Lucky"
PERFORMER "Well Red"
INDEX 00 05:49:50
FILE "09 - Well Red - Get Lucky.wav" WAVE
INDEX 01 00:00:00
TRACK 10 AUDIO
TITLE "Dog Talk"
PERFORMER "K-9 Corp"
INDEX 00 07:56:13
FILE "10 - K-9 Corp - Dog Talk.wav" WAVE
INDEX 01 00:00:00
TRACK 11 AUDIO
TITLE "Loopzilla"
PERFORMER "George Clinton"
INDEX 00 07:56:55
FILE "11 - George Clinton - Loopzilla.wav" WAVE
INDEX 01 00:00:00
TRACK 12 AUDIO
TITLE "Work That Sucker To Death"
PERFORMER "Xavier"
INDEX 00 08:51:43
FILE "12 - Xavier - Work That Sucker To Death.wav" WAVE
INDEX 01 00:00:00
Приватный:
Нет (DHT включён)
Размер:
471.11 Мб (493,992,236 байт) » файлов: 18
Участники:
0 раздают, 0 качают (0 участников всего)
Внешние участники:
5 раздают, 1 качают (6 участников всего) [ Обновить ]
Никого нет на раздаче - пишите личное сообщение M0p94ok
No seeders - write personal message to M0p94ok
04:35
26
Нет комментариев. Ваш будет первым!