Поиск

(Funk, Soul) VA - A Motown Christmas - 2003, FLAC (tracks+.cue), lossless

Треклист:
Various Artists - A Motown Christmas
Жанр: Funk, Soul
Год выпуска диска: 2003
Производитель диска: MCA Records, Motown
Аудио кодек: FLAC
Тип рипа: tracks+.cue
Битрейт аудио: lossless
Продолжительность: 57:35
01 The Supremes - Santa Clause Is Comin' To Town [02:44]
02 The Jackson 5 - Frosty The Snowman [02:39]
03 Stevie Wonder - What Christmas Means To Me [02:29]
04 The Jackson 5 - I Saw Mommy Kissing Santa Claus [02:59]
05 Smokey Robinson & The Miracles - Jingle Bells [02:47]
06 The Jackson 5 - Up On The House Top [03:11]
07 The Supremes - Joy To The World [02:11]
08 The Four Tops - Away In A Manger [02:45]
09 The Temptations - White Christmas [04:24]
10 Stevie Wonder - A Warm Little Home On A Hill [03:28]
11 Marvin Gaye - I Want To Come Home For Christmas [03:25]
12 The Supremes - Little Bright Star [02:26]
13 The Temptations - The Christmas Song [05:11]
14 The Supremes - Rudolph, The Red Nosed Reindeer [02:43]
15 The Four Tops - Merry Christmas Baby [05:03]
16 The Commodores - Jesus Loves You [04:55]
17 Smokey Robinson & The Miracles - Let It Snow [01:42]
18 The Temptations - Silent Night [02:24]
from what.cd
 
Log XLD
X Lossless Decoder version 20091202 (114.5)
XLD extraction logfile from 2009-12-08 16:02:25 +0000
Various Artists / A Motown Christmas
Used drive : MATSHITA DVD-R UJ-868 (revision KA19)
Use cdparanoia mode : YES (CDParanoia III 10.2 engine)
Disable audio cache : OK for the drive with cache less than 2750KB
Make use of C2 pointers : NO
Read offset correction : 102
Max retry count : 100
TOC of the extracted CD
Track | Start | Length | Start sector | End sector
---------------------------------------------------------
1 | 00:00:00 | 02:44:48 | 0 | 12347
2 | 02:44:48 | 02:39:63 | 12348 | 24335
3 | 05:24:36 | 02:29:23 | 24336 | 35533
4 | 07:53:59 | 02:59:34 | 35534 | 48992
5 | 10:53:18 | 02:47:74 | 48993 | 61591
6 | 13:41:17 | 03:11:46 | 61592 | 75962
7 | 16:52:63 | 02:11:03 | 75963 | 85790
8 | 19:03:66 | 02:45:63 | 85791 | 98228
9 | 21:49:54 | 04:24:63 | 98229 | 118091
10 | 26:14:42 | 03:28:11 | 118092 | 133702
11 | 29:42:53 | 03:25:42 | 133703 | 149119
12 | 33:08:20 | 02:26:65 | 149120 | 160134
13 | 35:35:10 | 05:11:62 | 160135 | 183521
14 | 40:46:72 | 02:43:15 | 183522 | 195761
15 | 43:30:12 | 05:03:23 | 195762 | 218509
16 | 48:33:35 | 04:55:16 | 218510 | 240650
17 | 53:28:51 | 01:42:25 | 240651 | 248325
18 | 55:11:01 | 02:24:20 | 248326 | 259145
Track 01
Filename : /Volumes/Music Backup Drive/A Motown Christmas/01 - Santa Clause Is Comin' To Town.flac
CRC32 hash (test run) : 80DBE758
CRC32 hash : 80DBE758
CRC32 hash (skip zero) : 445E8D66
AccurateRip signature : 7CF6BC5C
->Track not present in AccurateRip database.
Statistics
Read error : 0
Skipped (treated as error) : 0
Edge jitter error (maybe fixed) : 0
Atom jitter error (maybe fixed) : 0
Drift error (maybe fixed) : 0
Dropped bytes error (maybe fixed) : 0
Duplicated bytes error (maybe fixed) : 0
Track 02
Filename : /Volumes/Music Backup Drive/A Motown Christmas/02 - Frosty The Snowman.flac
CRC32 hash (test run) : 0544612F
CRC32 hash : 0544612F
CRC32 hash (skip zero) : 9CA30227
AccurateRip signature : F8C9DC13
->Track not present in AccurateRip database.
Statistics
Read error : 0
Skipped (treated as error) : 0
Edge jitter error (maybe fixed) : 0
Atom jitter error (maybe fixed) : 0
Drift error (maybe fixed) : 0
Dropped bytes error (maybe fixed) : 0
Duplicated bytes error (maybe fixed) : 0
Track 03
Filename : /Volumes/Music Backup Drive/A Motown Christmas/03 - What Christmas Means To Me.flac
CRC32 hash (test run) : 1B39C485
CRC32 hash : 1B39C485
CRC32 hash (skip zero) : 01531772
AccurateRip signature : 782843F8
->Track not present in AccurateRip database.
Statistics
Read error : 0
Skipped (treated as error) : 0
Edge jitter error (maybe fixed) : 0
Atom jitter error (maybe fixed) : 0
Drift error (maybe fixed) : 0
Dropped bytes error (maybe fixed) : 0
Duplicated bytes error (maybe fixed) : 0
Track 04
Filename : /Volumes/Music Backup Drive/A Motown Christmas/04 - I Saw Mommy Kissing Santa Claus.flac
CRC32 hash (test run) : B08FA2C3
CRC32 hash : B08FA2C3
CRC32 hash (skip zero) : FF109C69
AccurateRip signature : 68A52474
->Track not present in AccurateRip database.
Statistics
Read error : 0
Skipped (treated as error) : 0
Edge jitter error (maybe fixed) : 0
Atom jitter error (maybe fixed) : 0
Drift error (maybe fixed) : 0
Dropped bytes error (maybe fixed) : 0
Duplicated bytes error (maybe fixed) : 0
Track 05
Filename : /Volumes/Music Backup Drive/A Motown Christmas/05 - Jingle Bells.flac
CRC32 hash (test run) : 0BD23833
CRC32 hash : 0BD23833
CRC32 hash (skip zero) : 0B0B397E
AccurateRip signature : 92CAC234
->Track not present in AccurateRip database.
Statistics
Read error : 0
Skipped (treated as error) : 0
Edge jitter error (maybe fixed) : 0
Atom jitter error (maybe fixed) : 0
Drift error (maybe fixed) : 0
Dropped bytes error (maybe fixed) : 0
Duplicated bytes error (maybe fixed) : 0
Track 06
Filename : /Volumes/Music Backup Drive/A Motown Christmas/06 - Up On The House Top.flac
CRC32 hash (test run) : 12FE714F
CRC32 hash : 12FE714F
CRC32 hash (skip zero) : 229EFAF1
AccurateRip signature : 0239E3BA
->Track not present in AccurateRip database.
Statistics
Read error : 0
Skipped (treated as error) : 0
Edge jitter error (maybe fixed) : 0
Atom jitter error (maybe fixed) : 0
Drift error (maybe fixed) : 0
Dropped bytes error (maybe fixed) : 0
Duplicated bytes error (maybe fixed) : 0
Track 07
Filename : /Volumes/Music Backup Drive/A Motown Christmas/07 - Joy To The World.flac
CRC32 hash (test run) : D1F2B6EF
CRC32 hash : D1F2B6EF
CRC32 hash (skip zero) : 8E62362F
AccurateRip signature : BA424264
->Track not present in AccurateRip database.
Statistics
Read error : 0
Skipped (treated as error) : 0
Edge jitter error (maybe fixed) : 0
Atom jitter error (maybe fixed) : 0
Drift error (maybe fixed) : 0
Dropped bytes error (maybe fixed) : 0
Duplicated bytes error (maybe fixed) : 0
Track 08
Filename : /Volumes/Music Backup Drive/A Motown Christmas/08 - Away In A Manger.flac
CRC32 hash (test run) : 457ED687
CRC32 hash : 457ED687
CRC32 hash (skip zero) : 1929A4FD
AccurateRip signature : C261C72D
->Track not present in AccurateRip database.
Statistics
Read error : 0
Skipped (treated as error) : 0
Edge jitter error (maybe fixed) : 0
Atom jitter error (maybe fixed) : 0
Drift error (maybe fixed) : 0
Dropped bytes error (maybe fixed) : 0
Duplicated bytes error (maybe fixed) : 0
Track 09
Filename : /Volumes/Music Backup Drive/A Motown Christmas/09 - White Christmas.flac
CRC32 hash (test run) : DE495958
CRC32 hash : DE495958
CRC32 hash (skip zero) : 75DF7698
AccurateRip signature : 859EDB78
->Track not present in AccurateRip database.
Statistics
Read error : 0
Skipped (treated as error) : 0
Edge jitter error (maybe fixed) : 0
Atom jitter error (maybe fixed) : 0
Drift error (maybe fixed) : 0
Dropped bytes error (maybe fixed) : 0
Duplicated bytes error (maybe fixed) : 0
Track 10
Filename : /Volumes/Music Backup Drive/A Motown Christmas/10 - A Warm Little Home On A Hill.flac
CRC32 hash (test run) : C54F43A7
CRC32 hash : C54F43A7
CRC32 hash (skip zero) : CC7C1DD8
AccurateRip signature : 827A5B68
->Track not present in AccurateRip database.
Statistics
Read error : 0
Skipped (treated as error) : 0
Edge jitter error (maybe fixed) : 0
Atom jitter error (maybe fixed) : 0
Drift error (maybe fixed) : 0
Dropped bytes error (maybe fixed) : 0
Duplicated bytes error (maybe fixed) : 0
Track 11
Filename : /Volumes/Music Backup Drive/A Motown Christmas/11 - I Want To Come Home For Christmas.flac
CRC32 hash (test run) : C0E9DABF
CRC32 hash : C0E9DABF
CRC32 hash (skip zero) : 2C257CAB
AccurateRip signature : ADF9D44F
->Track not present in AccurateRip database.
Statistics
Read error : 0
Skipped (treated as error) : 0
Edge jitter error (maybe fixed) : 0
Atom jitter error (maybe fixed) : 0
Drift error (maybe fixed) : 0
Dropped bytes error (maybe fixed) : 0
Duplicated bytes error (maybe fixed) : 0
Track 12
Filename : /Volumes/Music Backup Drive/A Motown Christmas/12 - Little Bright Star.flac
CRC32 hash (test run) : E63A12D2
CRC32 hash : E63A12D2
CRC32 hash (skip zero) : CC5C7181
AccurateRip signature : E127580F
->Track not present in AccurateRip database.
Statistics
Read error : 0
Skipped (treated as error) : 0
Edge jitter error (maybe fixed) : 0
Atom jitter error (maybe fixed) : 0
Drift error (maybe fixed) : 0
Dropped bytes error (maybe fixed) : 0
Duplicated bytes error (maybe fixed) : 0
Track 13
Filename : /Volumes/Music Backup Drive/A Motown Christmas/13 - The Christmas Song.flac
CRC32 hash (test run) : 16233557
CRC32 hash : 16233557
CRC32 hash (skip zero) : 93589506
AccurateRip signature : AB738149
->Track not present in AccurateRip database.
Statistics
Read error : 0
Skipped (treated as error) : 0
Edge jitter error (maybe fixed) : 0
Atom jitter error (maybe fixed) : 0
Drift error (maybe fixed) : 0
Dropped bytes error (maybe fixed) : 0
Duplicated bytes error (maybe fixed) : 0
Track 14
Filename : /Volumes/Music Backup Drive/A Motown Christmas/14 - Rudolph, The Red Nosed Reindeer.flac
CRC32 hash (test run) : 400654C9
CRC32 hash : 400654C9
CRC32 hash (skip zero) : 6924EFD8
AccurateRip signature : DD0909C8
->Track not present in AccurateRip database.
Statistics
Read error : 0
Skipped (treated as error) : 0
Edge jitter error (maybe fixed) : 0
Atom jitter error (maybe fixed) : 0
Drift error (maybe fixed) : 0
Dropped bytes error (maybe fixed) : 0
Duplicated bytes error (maybe fixed) : 0
Track 15
Filename : /Volumes/Music Backup Drive/A Motown Christmas/15 - Merry Christmas Baby.flac
CRC32 hash (test run) : 8BE564EF
CRC32 hash : 8BE564EF
CRC32 hash (skip zero) : 649B3D1A
AccurateRip signature : 03A059A2
->Track not present in AccurateRip database.
Statistics
Read error : 0
Skipped (treated as error) : 0
Edge jitter error (maybe fixed) : 0
Atom jitter error (maybe fixed) : 0
Drift error (maybe fixed) : 0
Dropped bytes error (maybe fixed) : 0
Duplicated bytes error (maybe fixed) : 0
Track 16
Filename : /Volumes/Music Backup Drive/A Motown Christmas/16 - Jesus Loves You.flac
CRC32 hash (test run) : 15CA4A79
CRC32 hash : 15CA4A79
CRC32 hash (skip zero) : F27EEDA1
AccurateRip signature : 38050B1B
->Track not present in AccurateRip database.
Statistics
Read error : 0
Skipped (treated as error) : 0
Edge jitter error (maybe fixed) : 0
Atom jitter error (maybe fixed) : 0
Drift error (maybe fixed) : 0
Dropped bytes error (maybe fixed) : 0
Duplicated bytes error (maybe fixed) : 0
Track 17
Filename : /Volumes/Music Backup Drive/A Motown Christmas/17 - Let It Snow.flac
CRC32 hash (test run) : D240C0E4
CRC32 hash : D240C0E4
CRC32 hash (skip zero) : 2E3CF54E
AccurateRip signature : 30A87C1C
->Track not present in AccurateRip database.
Statistics
Read error : 0
Skipped (treated as error) : 0
Edge jitter error (maybe fixed) : 0
Atom jitter error (maybe fixed) : 0
Drift error (maybe fixed) : 0
Dropped bytes error (maybe fixed) : 0
Duplicated bytes error (maybe fixed) : 0
Track 18
Filename : /Volumes/Music Backup Drive/A Motown Christmas/18 - Silent Night.flac
CRC32 hash (test run) : 0DBFBBD0
CRC32 hash : 0DBFBBD0
CRC32 hash (skip zero) : B9F978C0
AccurateRip signature : D39F3271
->Track not present in AccurateRip database.
Statistics
Read error : 0
Skipped (treated as error) : 0
Edge jitter error (maybe fixed) : 0
Atom jitter error (maybe fixed) : 0
Drift error (maybe fixed) : 0
Dropped bytes error (maybe fixed) : 0
Duplicated bytes error (maybe fixed) : 0
No errors occurred
End of status report
 
CUE
PERFORMER "Various"
TITLE "A Motown Christmas"
FILE "01 - Santa Claus Is Comin' To Town.wav" WAVE
TRACK 01 AUDIO
TITLE "Santa Claus Is Comin' To Town"
PERFORMER "The Supremes"
INDEX 01 00:00:00
FILE "02 - Frosty The Snowman.wav" WAVE
TRACK 02 AUDIO
TITLE "Frosty The Snowman"
PERFORMER "The Jackson 5"
INDEX 01 00:00:00
FILE "03 - What Cristmas Means To Me.wav" WAVE
TRACK 03 AUDIO
TITLE "What Cristmas Means To Me"
PERFORMER "Stevie Wonder"
INDEX 01 00:00:00
FILE "04 - I Saw Mommy Kissing Santa Claus.wav" WAVE
TRACK 04 AUDIO
TITLE "I Saw Mommy Kissing Santa Claus"
PERFORMER "The Jackson 5"
INDEX 01 00:00:00
FILE "05 - Jingle Bells.wav" WAVE
TRACK 05 AUDIO
TITLE "Jingle Bells"
PERFORMER "Smokey Robinson & The Miracles"
INDEX 01 00:00:00
FILE "06 - Up On The Top.wav" WAVE
TRACK 06 AUDIO
TITLE "Up On The Top"
PERFORMER "The Jackson 5"
INDEX 01 00:00:00
FILE "07 - Joy To The World.wav" WAVE
TRACK 07 AUDIO
TITLE "Joy To The World"
PERFORMER "The Supremes"
INDEX 01 00:00:00
FILE "08 - Away In A Manger.wav" WAVE
TRACK 08 AUDIO
TITLE "Away In A Manger"
PERFORMER "The Four Tops"
INDEX 01 00:00:00
FILE "09 - White Christmas.wav" WAVE
TRACK 09 AUDIO
TITLE "White Christmas"
PERFORMER "The Temptations"
INDEX 01 00:00:00
FILE "10 - A Warm Little Home On A Hill.wav" WAVE
TRACK 10 AUDIO
TITLE "A Warm Little Home On A Hill"
PERFORMER "Stevie Wonder"
INDEX 01 00:00:00
FILE "11 - I Want To Come Home For Christmas.wav" WAVE
TRACK 11 AUDIO
TITLE "I Want To Come Home For Christmas"
PERFORMER "Marvin Gaye"
INDEX 01 00:00:00
FILE "12 - Little Bright Star.wav" WAVE
TRACK 12 AUDIO
TITLE "Little Bright Star"
PERFORMER "The Supremes"
INDEX 01 00:00:00
FILE "13 - The Christmas Song.wav" WAVE
TRACK 13 AUDIO
TITLE "The Christmas Song"
PERFORMER "The Temptations"
INDEX 01 00:00:00
FILE "14 - Rudolph, The Red-Nosed Reindeer.wav" WAVE
TRACK 14 AUDIO
TITLE "Rudolph, The Red-Nosed Reindeer"
PERFORMER "The Supremes"
INDEX 01 00:00:00
FILE "15 - Merry Christmas Baby.wav" WAVE
TRACK 15 AUDIO
TITLE "Merry Christmas Baby"
PERFORMER "The Four Tops"
INDEX 01 00:00:00
FILE "16 - Jesus Is Love.wav" WAVE
TRACK 16 AUDIO
TITLE "Jesus Is Love"
PERFORMER "The Commodores"
INDEX 01 00:00:00
FILE "17 - Let It Snow.wav" WAVE
TRACK 17 AUDIO
TITLE "Let It Snow"
PERFORMER "Smokey Robinson & The Miracles"
INDEX 01 00:00:00
FILE "18 - Silent Night.wav" WAVE
TRACK 18 AUDIO
TITLE "Silent Night"
PERFORMER "The Temptations"
INDEX 01 00:00:00
Приватный:
Нет (DHT включён)
Размер:
348.69 Мб (365,624,107 байт) » файлов: 21
Участники:
0 раздают, 0 качают (0 участников всего)
Внешние участники:
1 раздают, 0 качают (1 участников всего) [ Обновить ]
Нет сидеров - пишите личное сообщение M0p94ok. Не нравятся торренты? Участники группы Pro-jazz Club могут заказать прямую ссылку на скачивание из облака.
No seeders - write a personal message to M0p94ok. Don't like torrents? Members of Pro-jazz Club group can order a direct download link from the cloud.
04:37
28
Нет комментариев. Ваш будет первым!