Поиск

(Latin, Funk, Soul) VA - Let's Boogaloo Vol. 4 - 2007, FLAC (tracks+.cue), lossless

Треклист:
Various Artists - Let's Boogaloo Vol. 4
Жанр: Latin, Funk, Soul
Год выпуска диска: 2007
Производитель диска: Italy
Аудио кодек: FLAC
Тип рипа: tracks+.cue
Битрейт аудио: lossless
Продолжительность: 51:03
Трэклист:
1.The New Mastersounds - Thirty Three(3:15)
2.The Belles - Don't Pretend(2:16)
3.Lebron Brothers - Boogaloo Lebron(2:07)
4.The Diplomats - Cards On The Table(2:41)
5.Baby Charles - No Controlling Me(3:50)
6.Little Ann - One Way Street(2:27)
7.Osaka Monaurail - Down And Out(5:45)
8.Billy Garner - You're Wasting My Time(2:51)
9.Bobby Garrett - Keep It Coming(2:20)
10.Ralph Robles - Taking Over(3:15)
11.The Ovations - They Say(2:03)
12.Frankie Crocker - Ton Of Dynamite(2:39)
13.Ann Alford - Got To Get Me A Job(3:29)
14.James Carr - That's What I Want To Know(1:52)
15.Eddie Palmieri - Melao Para El Sapo(4:56)
16.The Harvey Averne Dozen - Dynamite(2:30)
17.The Sweet Vandals - Papa's Got A Brand New Bag(2:50)
Доп. информация:
Compiled By, Presenter - DJ Andy Smith
 
EAC
Exact Audio Copy V0.99 prebeta 4 from 23. January 2008
EAC extraction logfile from 23. March 2009, 20:29
Various / Let's Boogaloo! Vol.4
Used drive : TSSTcorpCDDVDW TS-L633L Adapter: 1 ID: 0
Read mode : Secure
Utilize accurate stream : Yes
Defeat audio cache : Yes
Make use of C2 pointers : No
Read offset correction : 6
Overread into Lead-In and Lead-Out : No
Fill up missing offset samples with silence : Yes
Delete leading and trailing silent blocks : No
Null samples used in CRC calculations : Yes
Used interface : Installed external ASPI interface
Gap handling : Appended to previous track
Used output format : User Defined Encoder
Selected bitrate : 128 kBit/s
Quality : High
Add ID3 tag : No
Command line compressor : C:\Program Files\Exact Audio Copy\Flac\flac.exe
Additional command line options : -V -8 -T "artist=%a" -T "title=%t" -T "album=%g" -T "date=%y" -T "tracknumber=%n" -T "genre=%m" %s
TOC of the extracted CD
Track | Start | Length | Start sector | End sector
---------------------------------------------------------
1 | 0:00.00 | 3:15.13 | 0 | 14637
2 | 3:15.13 | 2:15.55 | 14638 | 24817
3 | 5:30.68 | 2:07.07 | 24818 | 34349
4 | 7:38.00 | 2:40.66 | 34350 | 46415
5 | 10:18.66 | 3:50.00 | 46416 | 63665
6 | 14:08.66 | 2:26.73 | 63666 | 74688
7 | 16:35.64 | 5:44.57 | 74689 | 100545
8 | 22:20.46 | 2:50.74 | 100546 | 113369
9 | 25:11.45 | 2:19.38 | 113370 | 123832
10 | 27:31.08 | 3:14.39 | 123833 | 138421
11 | 30:45.47 | 2:03.20 | 138422 | 147666
12 | 32:48.67 | 2:38.35 | 147667 | 159551
13 | 35:27.27 | 3:28.48 | 159552 | 175199
14 | 38:56.00 | 1:52.12 | 175200 | 183611
15 | 40:48.12 | 4:55.55 | 183612 | 205791
16 | 45:43.67 | 2:30.25 | 205792 | 217066
17 | 48:14.17 | 2:49.53 | 217067 | 229794
Track 1
Filename D:\EACrips\01. Various - The New Mastersounds - Thirty Three.wav
Pre-gap length 0:00:02.00
Peak level 98.8 %
Track quality 100.0 %
Test CRC C14FEC5E
Copy CRC C14FEC5E
Track not present in AccurateRip database
Copy OK
Track 2
Filename D:\EACrips\02. Various - The Bells - Don't Pretend.wav
Peak level 98.8 %
Track quality 100.0 %
Test CRC 72604793
Copy CRC 72604793
Track not present in AccurateRip database
Copy OK
Track 3
Filename D:\EACrips\03. Various - Lebron Brothers - Boogaloo Lebron.wav
Peak level 98.8 %
Track quality 100.0 %
Test CRC 7E753CDC
Copy CRC 7E753CDC
Track not present in AccurateRip database
Copy OK
Track 4
Filename D:\EACrips\04. Various - The Diplomats - Cards On The Table.wav
Peak level 98.8 %
Track quality 100.0 %
Test CRC DB332019
Copy CRC DB332019
Track not present in AccurateRip database
Copy OK
Track 5
Filename D:\EACrips\05. Various - Baby Charles - No Controlling Me.wav
Peak level 98.8 %
Track quality 100.0 %
Test CRC CEAF33F3
Copy CRC CEAF33F3
Track not present in AccurateRip database
Copy OK
Track 6
Filename D:\EACrips\06. Various - Little Ann - One Way Street.wav
Peak level 98.8 %
Track quality 100.0 %
Test CRC 846AE589
Copy CRC 846AE589
Track not present in AccurateRip database
Copy OK
Track 7
Filename D:\EACrips\07. Various - Osaka Monaurail - Down And Out.wav
Peak level 98.8 %
Track quality 100.0 %
Test CRC E409A47C
Copy CRC E409A47C
Track not present in AccurateRip database
Copy OK
Track 8
Filename D:\EACrips\08. Various - Billy Garner - You're Wasting My Time.wav
Peak level 98.8 %
Track quality 99.9 %
Test CRC 20223A22
Copy CRC 20223A22
Track not present in AccurateRip database
Copy OK
Track 9
Filename D:\EACrips\09. Various - Bobby Garrett - Keep It Coming.wav
Peak level 98.8 %
Track quality 100.0 %
Test CRC AFB6C659
Copy CRC AFB6C659
Track not present in AccurateRip database
Copy OK
Track 10
Filename D:\EACrips\10. Various - Ralph Robles - Taking Over.wav
Peak level 98.8 %
Track quality 100.0 %
Test CRC 38BB2CC1
Copy CRC 38BB2CC1
Track not present in AccurateRip database
Copy OK
Track 11
Filename D:\EACrips\11. Various - The Ovations - They Say.wav
Peak level 98.8 %
Track quality 100.0 %
Test CRC E4EBFC24
Copy CRC E4EBFC24
Track not present in AccurateRip database
Copy OK
Track 12
Filename D:\EACrips\12. Various - Frankie Crocker - Ton Of Dynamite.wav
Peak level 98.8 %
Track quality 100.0 %
Test CRC A92B04F0
Copy CRC A92B04F0
Track not present in AccurateRip database
Copy OK
Track 13
Filename D:\EACrips\13. Various - Ann Alford - Got To Get Me A Job.wav
Peak level 98.8 %
Track quality 100.0 %
Test CRC F0FF82F4
Copy CRC F0FF82F4
Track not present in AccurateRip database
Copy OK
Track 14
Filename D:\EACrips\14. Various - James Carr - That's What I Want To Know.wav
Peak level 98.8 %
Track quality 100.0 %
Test CRC 9B27CDA6
Copy CRC 9B27CDA6
Track not present in AccurateRip database
Copy OK
Track 15
Filename D:\EACrips\15. Various - Eddie Palmieri - Melao Para El Sapo.wav
Peak level 98.8 %
Track quality 100.0 %
Test CRC 386DBD7D
Copy CRC 386DBD7D
Track not present in AccurateRip database
Copy OK
Track 16
Filename D:\EACrips\16. Various - The Harvey Averne Dozen - Cynamite.wav
Peak level 98.8 %
Track quality 100.0 %
Test CRC 491DA724
Copy CRC 491DA724
Track not present in AccurateRip database
Copy OK
Track 17
Filename D:\EACrips\17. Various - The Sweet Vandals - Papa's Got A Brandnew Bag.wav
Peak level 98.8 %
Track quality 99.9 %
Test CRC A956BC45
Copy CRC A956BC45
Track not present in AccurateRip database
Copy OK
None of the tracks are present in the AccurateRip database
No errors occurred
End of status report
 
CUE
REM GENRE Jazz
REM DATE 2007
REM DISCID EF0BF711
REM COMMENT "ExactAudioCopy v0.99pb4"
FILE "01. Various - The New Mastersounds - Thirty Three.wav" WAVE
TRACK 01 AUDIO
FLAGS DCP
INDEX 01 00:00:00
FILE "02. Various - The Bells - Don't Pretend.wav" WAVE
TRACK 02 AUDIO
FLAGS DCP
INDEX 01 00:00:00
FILE "03. Various - Lebron Brothers - Boogaloo Lebron.wav" WAVE
TRACK 03 AUDIO
FLAGS DCP
INDEX 01 00:00:00
FILE "04. Various - The Diplomats - Cards On The Table.wav" WAVE
TRACK 04 AUDIO
FLAGS DCP
INDEX 01 00:00:00
FILE "05. Various - Baby Charles - No Controlling Me.wav" WAVE
TRACK 05 AUDIO
FLAGS DCP
INDEX 01 00:00:00
FILE "06. Various - Little Ann - One Way Street.wav" WAVE
TRACK 06 AUDIO
FLAGS DCP
INDEX 01 00:00:00
FILE "07. Various - Osaka Monaurail - Down And Out.wav" WAVE
TRACK 07 AUDIO
FLAGS DCP
INDEX 01 00:00:00
FILE "08. Various - Billy Garner - You're Wasting My Time.wav" WAVE
TRACK 08 AUDIO
FLAGS DCP
INDEX 01 00:00:00
FILE "09. Various - Bobby Garrett - Keep It Coming.wav" WAVE
TRACK 09 AUDIO
FLAGS DCP
INDEX 01 00:00:00
FILE "10. Various - Ralph Robles - Taking Over.wav" WAVE
TRACK 10 AUDIO
FLAGS DCP
INDEX 01 00:00:00
FILE "11. Various - The Ovations - They Say.wav" WAVE
TRACK 11 AUDIO
FLAGS DCP
INDEX 01 00:00:00
FILE "12. Various - Frankie Crocker - Ton Of Dynamite.wav" WAVE
TRACK 12 AUDIO
FLAGS DCP
INDEX 01 00:00:00
FILE "13. Various - Ann Alford - Got To Get Me A Job.wav" WAVE
TRACK 13 AUDIO
FLAGS DCP
INDEX 01 00:00:00
FILE "14. Various - James Carr - That's What I Want To Know.wav" WAVE
TRACK 14 AUDIO
FLAGS DCP
INDEX 01 00:00:00
FILE "15. Various - Eddie Palmieri - Melao Para El Sapo.wav" WAVE
TRACK 15 AUDIO
FLAGS DCP
INDEX 01 00:00:00
FILE "16. Various - The Harvey Averne Dozen - Cynamite.wav" WAVE
TRACK 16 AUDIO
FLAGS DCP
INDEX 01 00:00:00
FILE "17. Various - The Sweet Vandals - Papa's Got A Brandnew Bag.wav" WAVE
TRACK 17 AUDIO
FLAGS DCP
INDEX 01 00:00:00
Приватный:
Нет (DHT включён)
Размер:
323.39 Мб (339,100,953 байт) » файлов: 20
Участники:
0 раздают, 0 качают (0 участников всего)
Внешние участники:
3 раздают, 1 качают (4 участников всего) [ Обновить ]
Никого нет на раздаче - пишите личное сообщение M0p94ok
No seeders - write personal message to M0p94ok
04:29
24
Нет комментариев. Ваш будет первым!