Поиск

(Soul, Funk, Disco, Electronic, Hip Hop) [CD] Labelle - Back To Now - 2008, FLAC (image+.cue), lossless

(Soul, Funk, Disco, Electronic, Hip Hop) [CD] Labelle - Back To Now - 2008, FLAC (image+.cue), lossless
Треклист:
.Labelle
Back To Now
(CD Album, Patti LaBelle And The Bluebells).
.Жанр: Soul, Funk, Disco, Electronic, Hip Hop
Носитель: CD
Страна-производитель диска (релиза): US
Год издания: 2008
Издатель (лейбл): Verve Records
Номер по каталогу: B0011511-02
Страна исполнителя (группы): US
Аудиокодек: FLAC (*.flac)
Тип рипа: image+.cue
Битрейт аудио: lossless
Продолжительность: 00:49:21
Источник (релизер): stas64
Наличие сканов в содержимом раздачи: да - 600 dpi.
.
.
.Треклист:
01. Candlelight.
02. Roll Out (feat. Wyclef Jean).
03. Superlover.
04. System.
05. Truth Will Set You Free.
06. Without You in My Life.
07. Tears for the World.
08. Dear Rosa.
09. How Long.
10. Miss Otis Regrets.
 
Booklet



 
Лог создания рипа
Exact Audio Copy V1.1 from 23. June 2015
Отчёт EAC об извлечении, выполненном 21. марта 2016, 15:58
LaBelle / Back to Now
Дисковод: PLEXTOR DVDR PX-712A Adapter: 9 ID: 0
Режим чтения : Достоверность
Использование точного потока : Да
Отключение кэша аудио : Да
Использование указателей C2 : Нет
Коррекция смещения при чтении : 30
Способность читать области Lead-in и Lead-out : Нет
Заполнение пропущенных сэмплов тишиной : Да
Удаление блоков с тишиной в начале и конце : Нет
При вычислениях CRC использовались нулевые сэмплы : Да
Интерфейс : Установленный внешний ASPI-интерфейс
Выходной формат : Пользовательский кодировщик
Выбранный битрейт : 128 kBit/s
Качество : Высокий
Добавление ID3-тега : Нет
Утилита сжатия : C:\Program Files\Exact Audio Copy\Flac\flac.exe
Дополнительные параметры : -V -8 -T "Genre=%genre%" -T "Artist=%artist%" -T "Title=%title%" -T "Album=%albumtitle%" -T "Date=%year%" -T "Tracknumber=%tracknr%" -T "Comment=%comment%" %source%
TOC извлечённого CD
Трек | Старт | Длительность | Начальный сектор | Конечный сектор
---------------------------------------------------------------------
1 | 0:00.00 | 4:41.27 | 0 | 21101
2 | 4:41.27 | 3:51.00 | 21102 | 38426
3 | 8:32.27 | 4:14.59 | 38427 | 57535
4 | 12:47.11 | 5:32.39 | 57536 | 82474
5 | 18:19.50 | 4:58.10 | 82475 | 104834
6 | 23:17.60 | 5:29.69 | 104835 | 129578
7 | 28:47.54 | 4:33.50 | 129579 | 150103
8 | 33:21.29 | 6:47.34 | 150104 | 180662
9 | 40:08.63 | 4:33.14 | 180663 | 201151
10 | 44:42.02 | 4:39.37 | 201152 | 222113
Характеристики диапазона извлечения и сообщения об ошибках
Выбранный диапазон
Имя файла I:\MOI_RAZDACI\LaBelle\LaBelle_Back.To.Now_2008\LaBelle - Back to Now.wav
Пиковый уровень 100.0 %
Скорость извлечения 12.8 X
Качество диапазона 100.0 %
CRC теста 63DEAB3C
CRC копии 63DEAB3C
Копирование... OK
Ошибок не произошло
AccurateRip: сводка
Трек 1 точность не определена (достоверность 14) [1E913DCD], AccurateRip вернул [CC270D76] (AR v2)
Трек 2 точность не определена (достоверность 14) [2F763B3B], AccurateRip вернул [C25D146A] (AR v2)
Трек 3 точность не определена (достоверность 14) [62879A46], AccurateRip вернул [8B612A05] (AR v2)
Трек 4 точность не определена (достоверность 14) [8CDD0A8F], AccurateRip вернул [79CB9C86] (AR v2)
Трек 5 точность не определена (достоверность 14) [D0C7BFBF], AccurateRip вернул [CFA566DD] (AR v2)
Трек 6 точность не определена (достоверность 14) [10D68D40], AccurateRip вернул [0F4C0F64] (AR v2)
Трек 7 точность не определена (достоверность 14) [8580866C], AccurateRip вернул [768A522A] (AR v2)
Трек 8 точность не определена (достоверность 14) [2A1CC827], AccurateRip вернул [23A206CE] (AR v2)
Трек 9 точность не определена (достоверность 14) [E0C2B6C2], AccurateRip вернул [567B7C12] (AR v2)
Трек 10 точность не определена (достоверность 14) [24C5A977], AccurateRip вернул [A3FE82FD] (AR v2)
Ни один трек не прошёл проверки на точность
В вашей базе может быть иной вариант штамповки диска
Конец отчёта
---- CUETools DB Plugin V2.1.6
[CTDB TOCID: yMazhDnLUqhMSeaN3b5cYm64VhI-] found
Submit result: yMazhDnLUqhMSeaN3b5cYm64VhI- has been confirmed
Track | CTDB Status
1 | (10/10) Accurately ripped
2 | (10/10) Accurately ripped
3 | (10/10) Accurately ripped
4 | (10/10) Accurately ripped
5 | (10/10) Accurately ripped
6 | (10/10) Accurately ripped
7 | (10/10) Accurately ripped
8 | (10/10) Accurately ripped
9 | (10/10) Accurately ripped
10 | (10/10) Accurately ripped
==== Контрольная сумма отчёта 48EE0E55E4001B6E28EC6E3BE3F2676DCA0279E192C0C60D356E416F179A63D8 ====
 
Содержание индексной карты (.CUE)
REM GENRE Hip-Hop
REM DATE 2009
REM DISCID 7B0B910A
REM COMMENT "ExactAudioCopy v1.1"
CATALOG 0602517755703
PERFORMER "LaBelle"
TITLE "Back to Now"
FILE "LaBelle - Back to Now.flac" WAVE
TRACK 01 AUDIO
TITLE "Candlelight"
PERFORMER "LaBelle"
ISRC USUM70836845
INDEX 01 00:00:00
TRACK 02 AUDIO
TITLE "Roll Out (feat. Wyclef Jean)"
PERFORMER "LaBelle"
ISRC USUM70836330
INDEX 01 04:41:27
TRACK 03 AUDIO
TITLE "Superlover"
PERFORMER "LaBelle"
ISRC USUM70837749
INDEX 00 08:32:18
INDEX 01 08:32:27
TRACK 04 AUDIO
TITLE "System"
PERFORMER "LaBelle"
ISRC USUM70837750
INDEX 00 12:47:00
INDEX 01 12:47:11
TRACK 05 AUDIO
TITLE "Truth Will Set You Free"
PERFORMER "LaBelle"
ISRC USUM70837760
INDEX 01 18:19:50
TRACK 06 AUDIO
TITLE "Without You in My Life"
PERFORMER "LaBelle"
ISRC USUM70836839
INDEX 01 23:17:60
TRACK 07 AUDIO
TITLE "Tears for the World"
PERFORMER "LaBelle"
ISRC USUM70837762
INDEX 01 28:47:54
TRACK 08 AUDIO
TITLE "Dear Rosa"
PERFORMER "LaBelle"
ISRC USUM70837765
INDEX 00 33:21:18
INDEX 01 33:21:29
TRACK 09 AUDIO
TITLE "How Long"
PERFORMER "LaBelle"
ISRC USUM70837766
INDEX 01 40:08:63
TRACK 10 AUDIO
TITLE "Miss Otis Regrets"
PERFORMER "LaBelle"
ISRC USUM70837748
INDEX 01 44:42:02
 
Лог проверки качества
-----------------------
DON'T MODIFY THIS FILE
-----------------------
PERFORMER: auCDtect Task Manager, ver. 1.5.1RC6 build 1.5.1.7
Copyright (c) 2008-2010 y-soft. All rights reserved
http://y-soft.org
ANALYZER: auCDtect: CD records authenticity detector, version 0.8.2
Copyright (c) 2004 Oleg Berngardt. All rights reserved.
Copyright (c) 2004 Alexander Djourik. All rights reserved.
FILE: LaBelle - Back to Now.flac
Size: 330350546 Hash: E98196EE71C9ACEA7E235D6D85D45897 Accuracy: -m0
Conclusion: CDDA 100%
Signature: 1DB3AB98C6B105B609715657F435561337D79860
 
Скриншот спектра частот
 
МОИ РАЗДАЧИ - МУЗЫКА: / MY DISTRIBUTION - MUSIC:
 
Rock music:
Прямые кликабельные ссылки на раздачи.
Direct clickable links to hand.



























 
Pop music:
Прямые кликабельные ссылки на раздачи.
Direct clickable links to hand.































 
Other music including Electronic and Soundtracks:
Прямые кликабельные ссылки на раздачи.
Direct clickable links to hand.

























Приватный:
Нет (DHT включён)
Размер:
367.05 Мб (384,874,628 байт) » файлов: 11
Участники:
0 раздают, 0 качают (0 участников всего)
Внешние участники:
2 раздают, 1 качают (3 участников всего) [ Обновить ]
Есть вопросы - пишите личное сообщение пользователю M0p94ok.
10:23
59
Нет комментариев. Ваш будет первым!