Поиск

(Funk) [CD] James Brown - Get On The Good Foot - 1972, FLAC (image+.cue), lossless

(Funk) [CD] James Brown - Get On The Good Foot - 1972, FLAC (image+.cue), lossless
Треклист:
James Brown / Get On The Good Foot
Жанр: Funk
Носитель: CD
Страна-производитель диска (релиза): Россия
Год издания: 1972
Издатель (лейбл): Private Area
Страна исполнителя (группы): США
Аудиокодек: FLAC (*.flac)
Тип рипа: image+.cue
Битрейт аудио: lossless
Продолжительность: 01.10.05
Источник (релизер): собственный рип
Наличие сканов в содержимом раздачи: да
Треклист:
1. Get on the Good Foot (Parts 1 & 2)
2. The Whole World Needs Liberation
3. Your Love Was Good for Me
4. Cold Sweat
5. Recitation by Hank Ballard
6. I Got a Bag of My Own
7. Nothing Beats a Try But a Fail
8. Lost Someone
9. Funky Side of Town
10. Please, Please
11. Ain't It a Groove
12. My Part/Make It Funky (Parts 3 & 4)
13. Dirty Harri
14. I Know It's True
 
Лог создания рипа
Exact Audio Copy V1.1 from 23. June 2015
EAC extraction logfile from 21. March 2016, 18:26
James Brown / Get on the Good Foot
Used drive : HL-DT-STDVDRAM GA31N Adapter: 0 ID: 0
Read mode : Secure
Utilize accurate stream : Yes
Defeat audio cache : Yes
Make use of C2 pointers : No
Read offset correction : 103
Overread into Lead-In and Lead-Out : No
Fill up missing offset samples with silence : Yes
Delete leading and trailing silent blocks : No
Null samples used in CRC calculations : Yes
Used interface : Installed external ASPI interface
Used output format : User Defined Encoder
Selected bitrate : 896 kBit/s
Quality : High
Add ID3 tag : Yes
Command line compressor : C:\Program Files\Exact Audio Copy\Flac\flac.exe
Additional command line options : -V -8 -T "Date=%year%" -T "Genre=%genre%" %source%
TOC of the extracted CD
Track | Start | Length | Start sector | End sector
---------------------------------------------------------
1 | 0:00.00 | 5:44.25 | 0 | 25824
2 | 5:44.25 | 3:41.00 | 25825 | 42399
3 | 9:25.25 | 3:20.35 | 42400 | 57434
4 | 12:45.60 | 2:54.09 | 57435 | 70493
5 | 15:39.69 | 5:54.40 | 70494 | 97083
6 | 21:34.34 | 3:30.72 | 97084 | 112905
7 | 25:05.31 | 3:06.48 | 112906 | 126903
8 | 28:12.04 | 3:56.16 | 126904 | 144619
9 | 32:08.20 | 7:50.05 | 144620 | 179874
10 | 39:58.25 | 12:19.24 | 179875 | 235323
11 | 52:17.49 | 2:10.23 | 235324 | 245096
12 | 54:27.72 | 5:14.35 | 245097 | 268681
13 | 59:42.32 | 6:15.09 | 268682 | 296815
14 | 65:57.41 | 4:08.17 | 296816 | 315432
Range status and errors
Selected range
Filename C:\Users\ПК\Desktop\James Brown - Get on the Good Foot [1972]\James Brown - Get on the Good Foot.wav
Peak level 100.0 %
Extraction speed 2.2 X
Range quality 99.9 %
Test CRC 6A522BA2
Copy CRC 6A522BA2
Copy OK
No errors occurred
AccurateRip summary
Track 1 not present in database
Track 2 not present in database
Track 3 not present in database
Track 4 not present in database
Track 5 not present in database
Track 6 not present in database
Track 7 not present in database
Track 8 not present in database
Track 9 not present in database
Track 10 not present in database
Track 11 not present in database
Track 12 not present in database
Track 13 not present in database
Track 14 not present in database
None of the tracks are present in the AccurateRip database
End of status report
==== Log checksum 2C670B55C14E3479C7D28D0980DC2510182D8487CD84A3EB7065EAB224332AC2 ====
 
Содержание индексной карты (.CUE)
REM DATE 1972
REM DISCID DB106D0E
REM COMMENT "ExactAudioCopy v1.1"
PERFORMER "James Brown"
TITLE "Get on the Good Foot"
FILE "James Brown - Get on the Good Foot.flac" WAVE
TRACK 01 AUDIO
TITLE "Get on the Good Foot"
PERFORMER "James Brown"
FLAGS DCP
INDEX 01 00:00:00
TRACK 02 AUDIO
TITLE "The Whole World Needs Liberation"
PERFORMER "James Brown"
FLAGS DCP
INDEX 01 05:44:25
TRACK 03 AUDIO
TITLE "Your Love Was Good to Me"
PERFORMER "James Brown"
FLAGS DCP
INDEX 01 09:25:25
TRACK 04 AUDIO
TITLE "Cold Sweat"
PERFORMER "James Brown"
FLAGS DCP
INDEX 01 12:45:60
TRACK 05 AUDIO
TITLE "Recitation by Hank Ballard"
PERFORMER "James Brown"
FLAGS DCP
INDEX 01 15:39:69
TRACK 06 AUDIO
TITLE "I Got a Bag of My Own"
PERFORMER "James Brown"
FLAGS DCP
INDEX 01 21:34:34
TRACK 07 AUDIO
TITLE "Nothing Beats a Try but a Fail"
PERFORMER "James Brown"
FLAGS DCP
INDEX 01 25:05:31
TRACK 08 AUDIO
TITLE "Lost Someone"
PERFORMER "James Brown"
FLAGS DCP
INDEX 01 28:12:04
TRACK 09 AUDIO
TITLE "Funky Side of Town"
PERFORMER "James Brown"
FLAGS DCP
INDEX 01 32:08:20
TRACK 10 AUDIO
TITLE "Please, Please, Please"
PERFORMER "James Brown"
FLAGS DCP
INDEX 01 39:58:25
TRACK 11 AUDIO
TITLE "Ain't It a Groove"
PERFORMER "James Brown"
FLAGS DCP
INDEX 01 52:17:49
TRACK 12 AUDIO
TITLE "My Part / Make It Funky"
PERFORMER "James Brown"
FLAGS DCP
INDEX 01 54:27:72
TRACK 13 AUDIO
TITLE "Dirty Harri"
PERFORMER "James Brown"
FLAGS DCP
INDEX 01 59:42:32
TRACK 14 AUDIO
TITLE "I Know It's True"
PERFORMER "James Brown"
FLAGS DCP
INDEX 01 65:57:41
Приватный:
Нет (DHT включён)
Размер:
470.30 Мб (493,140,644 байт) » файлов: 10
Участники:
0 раздают, 0 качают (0 участников всего)
Внешние участники:
2 раздают, 1 качают (3 участников всего) [ Обновить ]
Есть вопросы - пишите личное сообщение пользователю M0p94ok.
10:22
49
Нет комментариев. Ваш будет первым!