Поиск

(Jazz Rock / Funk / Jam Band) Kung Fu - Joyride - 2016, FLAC (image+.cue), lossless

(Jazz Rock / Funk / Jam Band) Kung Fu - Joyride - 2016, FLAC (image+.cue), lossless
Треклист:
Kung Fu / Joyride
Жанр: Jazz Rock / Funk / Jam Band
Носитель: CD
Год издания: 2016
Издатель (лейбл): Dojo Music
Номер по каталогу: 1085074561
Страна исполнителя (группы): USA
Аудиокодек: FLAC (*.flac)
Тип рипа: image+.cue
Битрейт аудио: lossless
Продолжительность: 01:04:15
Источник (релизер): Original CD
Наличие сканов в содержимом раздачи: нет
Треклист:
01. Daddy D
02. Chin Music
03. Vroom
04. Joyride
05. Speed Bump Of Your Love
06. Primetime Rib
07. The Get Down
08. Gold Coast
09. Samurai
 
Лог создания рипа
Exact Audio Copy V1.0 beta 3 from 29. August 2011
Отчёт EAC об извлечении, выполненном 20. марта 2016, 1:48
Kung Fu / Joyride
Дисковод: ATAPI iHAP122 W Adapter: 1 ID: 0
Режим чтения : Достоверность
Использование точного потока : Да
Отключение кэша аудио : Да
Использование указателей C2 : Нет
Коррекция смещения при чтении : 6
Способность читать области Lead-in и Lead-out : Нет
Заполнение пропущенных сэмплов тишиной : Да
Удаление блоков с тишиной в начале и конце : Нет
При вычислениях CRC использовались нулевые сэмплы : Да
Интерфейс : Установленный внешний ASPI-интерфейс
Выходной формат : Пользовательский кодировщик
Выбранный битрейт : 768 kBit/s
Качество : Высокий
Добавление ID3-тега : Нет
Утилита сжатия : C:\Program Files\Exact Audio Copy\Flac\flac.exe
Дополнительные параметры : -8 -V -T "ARTIST=%artist%" -T "TITLE=%title%" -T "ALBUM=%albumtitle%" -T "DATE=%year%" -T "TRACKNUMBER=%tracknr%" -T "GENRE=%genre%" -T "COMMENT=www.blues.at.ua" -T "URL=www.blues.at.ua" %source%
TOC извлечённого CD
Трек | Старт | Длительность | Начальный сектор | Конечный сектор
---------------------------------------------------------------------
1 | 0:00.00 | 5:16.59 | 0 | 23758
2 | 5:16.59 | 7:48.15 | 23759 | 58873
3 | 13:04.74 | 8:01.14 | 58874 | 94962
4 | 21:06.13 | 6:16.22 | 94963 | 123184
5 | 27:22.35 | 6:19.00 | 123185 | 151609
6 | 33:41.35 | 6:49.37 | 151610 | 182321
7 | 40:30.72 | 7:10.00 | 182322 | 214571
8 | 47:40.72 | 7:41.00 | 214572 | 249146
9 | 55:21.72 | 8:53.14 | 249147 | 289135
Характеристики диапазона извлечения и сообщения об ошибках
Выбранный диапазон
Имя файла C:\Program Files\Exact Audio Copy\Flac\Kung Fu - Joyride(2016)\Kung Fu - Joyride.wav
Пиковый уровень 100.0 %
Скорость извлечения 3.3 X
Качество диапазона 100.0 %
CRC копии BBBF0941
Копирование... OK
Ошибок не произошло
AccurateRip: сводка
Трек 1 отсутствует в базе данных
Трек 2 отсутствует в базе данных
Трек 3 отсутствует в базе данных
Трек 4 отсутствует в базе данных
Трек 5 отсутствует в базе данных
Трек 6 отсутствует в базе данных
Трек 7 отсутствует в базе данных
Трек 8 отсутствует в базе данных
Трек 9 отсутствует в базе данных
Ни одного трека нет в базе AccurateRip
Конец отчёта
 
Содержание индексной карты (.CUE)
REM GENRE Funk
REM DATE 2016
REM DISCID 720F0F09
REM COMMENT "ExactAudioCopy v1.0b3"
PERFORMER "Kung Fu"
TITLE "Joyride"
FILE "Kung Fu - Joyride.flac" WAVE
TRACK 01 AUDIO
TITLE "Daddy D"
PERFORMER "Kung Fu"
INDEX 01 00:00:00
TRACK 02 AUDIO
TITLE "Chin Music"
PERFORMER "Kung Fu"
INDEX 01 05:16:59
TRACK 03 AUDIO
TITLE "Vroom"
PERFORMER "Kung Fu"
INDEX 01 13:04:74
TRACK 04 AUDIO
TITLE "Joyride"
PERFORMER "Kung Fu"
INDEX 01 21:06:13
TRACK 05 AUDIO
TITLE "Speed Bump Of Your Love"
PERFORMER "Kung Fu"
INDEX 01 27:22:35
TRACK 06 AUDIO
TITLE "Prime Time Rib"
PERFORMER "Kung Fu"
INDEX 01 33:41:35
TRACK 07 AUDIO
TITLE "The Getdown"
PERFORMER "Kung Fu"
INDEX 01 40:30:72
TRACK 08 AUDIO
TITLE "Gold Coast"
PERFORMER "Kung Fu"
INDEX 01 47:40:72
TRACK 09 AUDIO
TITLE "Samurai"
PERFORMER "Kung Fu"
INDEX 01 55:21:72
Приватный:
Нет (DHT включён)
Размер:
456.32 Мб (478,483,860 байт) » файлов: 4
Участники:
0 раздают, 0 качают (0 участников всего)
Внешние участники:
2 раздают, 1 качают (3 участников всего) [ Обновить ]
Есть вопросы - пишите личное сообщение пользователю M0p94ok.
10:23
48
Нет комментариев. Ваш будет первым!