Поиск

(Funk, Soul) [CD] James Brown - Sings Raw Soul - 1967, FLAC (image+.cue), lossless

(Funk, Soul) [CD] James Brown - Sings Raw Soul - 1967, FLAC (image+.cue), lossless
Треклист:
James Brown / Sings Raw Soul
Жанр: Funk, Soul
Носитель: CD
Страна-производитель диска (релиза): Россия
Год издания: 1967
Издатель (лейбл): Private Area
Страна исполнителя (группы): USA
Аудиокодек: FLAC (*.flac)
Тип рипа: image+.cue
Битрейт аудио: lossless
Продолжительность: 00:34:09
Источник (релизер): Собственный рип
Наличие сканов в содержимом раздачи: да
Треклист:
1. Bring It Up
2. Don't Be A Dropout
3. Till Then
4. Tell Me That You Love Me
5. Yours And Mine
6. Money Won't Change You, Part 1
7. Money Won't Change You, Part 2
8. Only You
9. Let Yourself Go
10. The Nearness Of You
11. Nobody Knows
12. Stone Fox
 
Лог создания рипа
Exact Audio Copy V1.1 from 23. June 2015
EAC extraction logfile from 22. March 2016, 17:21
James Brown / Sings Raw Soul
Used drive : HL-DT-STDVDRAM GA31N Adapter: 0 ID: 0
Read mode : Secure
Utilize accurate stream : Yes
Defeat audio cache : Yes
Make use of C2 pointers : No
Read offset correction : 103
Overread into Lead-In and Lead-Out : No
Fill up missing offset samples with silence : Yes
Delete leading and trailing silent blocks : No
Null samples used in CRC calculations : Yes
Used interface : Installed external ASPI interface
Used output format : User Defined Encoder
Selected bitrate : 896 kBit/s
Quality : High
Add ID3 tag : Yes
Command line compressor : C:\Program Files\Exact Audio Copy\Flac\flac.exe
Additional command line options : -V -8 -T "Date=%year%" -T "Genre=%genre%" %source%
TOC of the extracted CD
Track | Start | Length | Start sector | End sector
---------------------------------------------------------
1 | 0:00.00 | 2:45.53 | 0 | 12427
2 | 2:45.53 | 3:42.42 | 12428 | 29119
3 | 6:28.20 | 2:41.29 | 29120 | 41223
4 | 9:09.49 | 1:41.15 | 41224 | 48813
5 | 10:50.64 | 3:08.41 | 48814 | 62954
6 | 13:59.30 | 2:47.13 | 62955 | 75492
7 | 16:46.43 | 2:24.62 | 75493 | 86354
8 | 19:11.30 | 2:49.74 | 86355 | 99103
9 | 22:01.29 | 2:54.40 | 99104 | 112193
10 | 24:55.69 | 3:07.44 | 112194 | 126262
11 | 28:03.38 | 3:19.64 | 126263 | 141251
12 | 31:23.27 | 2:46.42 | 141252 | 153743
Range status and errors
Selected range
Filename C:\Users\ПК\Desktop\James Brown - Sings Raw Soul\James Brown - Sings Raw Soul.wav
Suspicious position 0:18:35 - 0:18:39
Suspicious position 0:18:41
Peak level 99.7 %
Extraction speed 1.0 X
Range quality 99.7 %
Test CRC F60C4F60
Copy CRC 136DF87F
Copy finished
There were errors
AccurateRip summary
Track 1 not present in database
Track 2 not present in database
Track 3 not present in database
Track 4 not present in database
Track 5 not present in database
Track 6 not present in database
Track 7 not present in database
Track 8 not present in database
Track 9 not present in database
Track 10 not present in database
Track 11 not present in database
Track 12 not present in database
None of the tracks are present in the AccurateRip database
End of status report
==== Log checksum B132DE322BF4BBA77260A8624F1147993075B4AB7220FB655B33119BC1BFCD96 ====
 
Содержание индексной карты (.CUE)
REM GENRE Funk
REM DATE 1967
REM DISCID 9C08010C
REM COMMENT "ExactAudioCopy v1.1"
PERFORMER "James Brown"
TITLE "Sings Raw Soul"
FILE "James Brown - Sings Raw Soul.flac" WAVE
TRACK 01 AUDIO
TITLE "Bring It Up"
PERFORMER "James Brown"
FLAGS DCP
INDEX 01 00:00:00
TRACK 02 AUDIO
TITLE "Don`t Be a Dropout"
PERFORMER "James Brown"
FLAGS DCP
INDEX 01 02:45:53
TRACK 03 AUDIO
TITLE "Till Then"
PERFORMER "James Brown"
FLAGS DCP
INDEX 01 06:28:20
TRACK 04 AUDIO
TITLE "Tell Me That You Love Me"
PERFORMER "James Brown"
FLAGS DCP
INDEX 01 09:09:49
TRACK 05 AUDIO
TITLE "Yours And Mine"
PERFORMER "James Brown"
FLAGS DCP
INDEX 01 10:50:64
TRACK 06 AUDIO
TITLE "Money Won`t Change You, Part 1"
PERFORMER "James Brown"
FLAGS DCP
INDEX 01 13:59:30
TRACK 07 AUDIO
TITLE "Money Won`t Change You, Part 2"
PERFORMER "James Brown"
FLAGS DCP
INDEX 01 16:46:43
TRACK 08 AUDIO
TITLE "Only You"
PERFORMER "James Brown"
FLAGS DCP
INDEX 01 19:11:30
TRACK 09 AUDIO
TITLE "Let Yourself Go"
PERFORMER "James Brown"
FLAGS DCP
INDEX 01 22:01:29
TRACK 10 AUDIO
TITLE "The Nearness Of You"
PERFORMER "James Brown"
FLAGS DCP
INDEX 01 24:55:69
TRACK 11 AUDIO
TITLE "Nobody Knows"
PERFORMER "James Brown"
FLAGS DCP
INDEX 01 28:03:38
TRACK 12 AUDIO
TITLE "Stone Fox"
PERFORMER "James Brown"
FLAGS DCP
INDEX 01 31:23:27
Приватный:
Нет (DHT включён)
Размер:
203.46 Мб (213,348,445 байт) » файлов: 8
Участники:
0 раздают, 0 качают (0 участников всего)
Внешние участники:
2 раздают, 1 качают (3 участников всего) [ Обновить ]
Есть вопросы - пишите личное сообщение пользователю M0p94ok.
10:24
61
Нет комментариев. Ваш будет первым!