Поиск

(Soul, R&B) [CD] Frankie Gaye - My Brother - 1991, FLAC (tracks+.cue), lossless

(Soul, R&B) [CD] Frankie Gaye - My Brother - 1991, FLAC (tracks+.cue), lossless
Треклист:
Frankie Gaye - My Brother Жанр: Soul, R&B
Носитель: CD
Год издания: 1991
Издатель (лейбл): Motorcity Records
Номер по каталогу: MOTCCD56
Аудиокодек: FLAC (*.flac)
Тип рипа: tracks+.cue
Битрейт аудио: lossless
Продолжительность: 55:55
Rip by JET 1
Наличие сканов в содержимом раздачи: да
Треклист:
01. I Wish That I Could Be (8:16)
02. Crystal Ball (9:11)
03. Written In Stone (4:48)
04. I Feel It Too (7:16)
05. Special Day (3:32)
06. My Brother (4:18)
07. What Goes Around (3:38)
08. Extraordinary Girl (3:56)
09. Cross That Bridge (7:20)
10. What's Going On (3:40)
 
 
Лог создания рипа
Exact Audio Copy V1.0 beta 3 from 29. August 2011
EAC extraction logfile from 22. March 2016, 4:54
Frankie Gaye / My Brother
Used drive : GENERIC CDRCB05 Adapter: 4 ID: 0
Read mode : Secure
Utilize accurate stream : Yes
Defeat audio cache : Yes
Make use of C2 pointers : No
Read offset correction : 102
Overread into Lead-In and Lead-Out : No
Fill up missing offset samples with silence : Yes
Delete leading and trailing silent blocks : No
Null samples used in CRC calculations : Yes
Used interface : Native Win32 interface for Win NT & 2000
Gap handling : Appended to previous track
Used output format : User Defined Encoder
Selected bitrate : 1024 kBit/s
Quality : High
Add ID3 tag : No
Command line compressor : C:\Program Files\FLAC\flac.exe
Additional command line options : -8 -V -T "ARTIST=%artist%" -T "TITLE=%title%" -T "ALBUM=%albumtitle%" -T "DATE=%year%" -T "TRACKNUMBER=%tracknr%" -T "GENRE=%genre%" -T "PERFORMER=%albuminterpret%" -T "COMPOSER=%composer%" %haslyrics%--tag-from-file=LYRICS="%lyricsfile%"%haslyrics% -T "ALBUMARTIST=%albumartist%" -T "DISCNUMBER=%cdnumber%" -T "TOTALDISCS=%totalcds%" -T "TOTALTRACKS=%numtracks%" -T "COMMENT=%comment%" %source% -o %dest%
TOC of the extracted CD
Track | Start | Length | Start sector | End sector
---------------------------------------------------------
1 | 0:00.38 | 8:16.37 | 38 | 37274
2 | 8:17.00 | 9:10.60 | 37275 | 78584
3 | 17:27.60 | 4:47.53 | 78585 | 100162
4 | 22:15.38 | 7:16.02 | 100163 | 132864
5 | 29:31.40 | 3:31.58 | 132865 | 148747
6 | 33:03.23 | 4:18.15 | 148748 | 168112
7 | 37:21.38 | 3:37.60 | 168113 | 184447
8 | 40:59.23 | 3:56.25 | 184448 | 202172
9 | 44:55.48 | 7:20.17 | 202173 | 235189
10 | 52:15.65 | 3:39.58 | 235190 | 251672
Track 1
Filename F:\POSTSSSSS\Frankie Gaye - My Brother (1991)\01 - I Wish That I Could Be.wav
Pre-gap length 0:00:02.38
Peak level 74.7 %
Extraction speed 2.6 X
Track quality 100.0 %
Test CRC F4ACD6BA
Copy CRC F4ACD6BA
Accurately ripped (confidence 1) [4327D131] (AR v2)
Copy OK
Track 2
Filename F:\POSTSSSSS\Frankie Gaye - My Brother (1991)\02 - Crystal Ball.wav
Pre-gap length 0:00:02.30
Peak level 64.9 %
Extraction speed 3.0 X
Track quality 99.9 %
Test CRC 0D42E10E
Copy CRC 0D42E10E
Accurately ripped (confidence 1) [451940DF] (AR v2)
Copy OK
Track 3
Filename F:\POSTSSSSS\Frankie Gaye - My Brother (1991)\03 - Written In Stone.wav
Pre-gap length 0:00:02.25
Peak level 73.8 %
Extraction speed 3.3 X
Track quality 100.0 %
Test CRC 37E31562
Copy CRC 37E31562
Accurately ripped (confidence 1) [C8B52226] (AR v2)
Copy OK
Track 4
Filename F:\POSTSSSSS\Frankie Gaye - My Brother (1991)\04 - I Feel It Too.wav
Pre-gap length 0:00:03.33
Peak level 69.1 %
Extraction speed 3.8 X
Track quality 100.0 %
Test CRC 4022F1D0
Copy CRC 4022F1D0
Accurately ripped (confidence 1) [B79A3759] (AR v2)
Copy OK
Track 5
Filename F:\POSTSSSSS\Frankie Gaye - My Brother (1991)\05 - Special Day.wav
Pre-gap length 0:00:03.27
Peak level 74.2 %
Extraction speed 3.6 X
Track quality 100.0 %
Test CRC 9B91E01A
Copy CRC 9B91E01A
Accurately ripped (confidence 1) [748C5747] (AR v2)
Copy OK
Track 6
Filename F:\POSTSSSSS\Frankie Gaye - My Brother (1991)\06 - My Brother.wav
Pre-gap length 0:00:02.28
Peak level 78.5 %
Extraction speed 3.9 X
Track quality 100.0 %
Test CRC E6FAFAB5
Copy CRC E6FAFAB5
Accurately ripped (confidence 1) [37EAA256] (AR v2)
Copy OK
Track 7
Filename F:\POSTSSSSS\Frankie Gaye - My Brother (1991)\07 - What Goes Around.wav
Pre-gap length 0:00:03.15
Peak level 100.0 %
Extraction speed 3.5 X
Track quality 99.9 %
Test CRC CDB8C0D1
Copy CRC CDB8C0D1
Accurately ripped (confidence 1) [CE16DAD6] (AR v2)
Copy OK
Track 8
Filename F:\POSTSSSSS\Frankie Gaye - My Brother (1991)\08 - Extraordinary Girl.wav
Pre-gap length 0:00:02.45
Peak level 71.9 %
Extraction speed 4.2 X
Track quality 100.0 %
Test CRC 8C2A7E76
Copy CRC 8C2A7E76
Accurately ripped (confidence 1) [A6E0B852] (AR v2)
Copy OK
Track 9
Filename F:\POSTSSSSS\Frankie Gaye - My Brother (1991)\09 - Cross That Bridge.wav
Pre-gap length 0:00:02.43
Peak level 83.7 %
Extraction speed 4.3 X
Track quality 99.9 %
Test CRC 3C4D1C6D
Copy CRC 3C4D1C6D
Accurately ripped (confidence 1) [FBE2BEAD] (AR v2)
Copy OK
Track 10
Filename F:\POSTSSSSS\Frankie Gaye - My Brother (1991)\10 - What's Going On.wav
Pre-gap length 0:00:02.20
Peak level 67.2 %
Extraction speed 3.9 X
Track quality 99.9 %
Test CRC 50E08EE1
Copy CRC 50E08EE1
Accurately ripped (confidence 1) [E648D80E] (AR v2)
Copy OK
All tracks accurately ripped
No errors occurred
End of status report
==== Log checksum 19BD5AB3AFD4FC0C684EB40B52AF769BBFA64C541A868C0D9E9CC16ADD1A806C ====
 
Содержание индексной карты (.CUE)
REM GENRE Soul
REM DATE 1991
REM DISCID 9B0D1B0A
REM COMMENT "ExactAudioCopy v1.0b3"
PERFORMER "Frankie Gaye"
TITLE "My Brother"
FILE "01 - I Wish That I Could Be.wav" WAVE
TRACK 01 AUDIO
TITLE "I Wish That I Could Be"
PERFORMER "Frankie Gaye"
PREGAP 00:00:38
INDEX 01 00:00:00
TRACK 02 AUDIO
TITLE "Crystal Ball"
PERFORMER "Frankie Gaye"
INDEX 00 08:14:07
FILE "02 - Crystal Ball.wav" WAVE
INDEX 01 00:00:00
TRACK 03 AUDIO
TITLE "Written In Stone"
PERFORMER "Frankie Gaye"
INDEX 00 09:08:35
FILE "03 - Written In Stone.wav" WAVE
INDEX 01 00:00:00
TRACK 04 AUDIO
TITLE "I Feel It Too"
PERFORMER "Frankie Gaye"
INDEX 00 04:44:20
FILE "04 - I Feel It Too.wav" WAVE
INDEX 01 00:00:00
TRACK 05 AUDIO
TITLE "Special Day"
PERFORMER "Frankie Gaye"
INDEX 00 07:12:50
FILE "05 - Special Day.wav" WAVE
INDEX 01 00:00:00
TRACK 06 AUDIO
TITLE "My Brother"
PERFORMER "Frankie Gaye"
INDEX 00 03:29:30
FILE "06 - My Brother.wav" WAVE
INDEX 01 00:00:00
TRACK 07 AUDIO
TITLE "What Goes Around"
PERFORMER "Frankie Gaye"
INDEX 00 04:15:00
FILE "07 - What Goes Around.wav" WAVE
INDEX 01 00:00:00
TRACK 08 AUDIO
TITLE "Extraordinary Girl"
PERFORMER "Frankie Gaye"
INDEX 00 03:35:15
FILE "08 - Extraordinary Girl.wav" WAVE
INDEX 01 00:00:00
TRACK 09 AUDIO
TITLE "Cross That Bridge"
PERFORMER "Frankie Gaye"
INDEX 00 03:53:57
FILE "09 - Cross That Bridge.wav" WAVE
INDEX 01 00:00:00
TRACK 10 AUDIO
TITLE "What's Going On"
PERFORMER "Frankie Gaye"
INDEX 00 07:17:72
FILE "10 - What's Going On.wav" WAVE
INDEX 01 00:00:00
Приватный:
Нет (DHT включён)
Размер:
386.61 Мб (405,392,756 байт) » файлов: 20
Участники:
0 раздают, 0 качают (0 участников всего)
Внешние участники:
1 раздают, 0 качают (1 участников всего) [ Обновить ]
Есть вопросы - пишите личное сообщение пользователю M0p94ok.
10:25
65
Нет комментариев. Ваш будет первым!