Поиск

(Soul, Funk, Disco) [CD] Earth, Wind & Fire - Raise! - 1982, FLAC (tracks+.cue), lossless

(Soul, Funk, Disco) [CD] Earth, Wind & Fire - Raise! - 1982, FLAC (tracks+.cue), lossless
Треклист:
Earth, Wind & Fire / Raise!
Жанр: Soul, Funk, Disco
Носитель: CD
Страна-производитель диска (релиза): Japan
Год издания: 1982
Издатель (лейбл): CBS/Sony
Номер по каталогу: 35DP 15
Аудиокодек: FLAC (*.flac)
Тип рипа: tracks+.cue
Битрейт аудио: lossless
Продолжительность: 38:21
Источник (релизер): обмен
Наличие сканов в содержимом раздачи: да
Треклист:
01. Earth, Wind & Fire - Let's Groove (5:39)
02. Earth, Wind & Fire - Lady Sun (3:40)
03. Earth, Wind & Fire - My Love (4:36)
04. Earth, Wind & Fire - Evolution Orange (4:43)
05. Earth, Wind & Fire - Kalimba Tree (0:26)
06. Earth, Wind & Fire - You Are A Winner (4:10)
07. Earth, Wind & Fire - I've Had Enough (4:36)
08. Earth, Wind & Fire - Wanna Be With You (4:36)
09. Earth, Wind & Fire - The Changing Times (5:57)
 
Лог создания рипа
Exact Audio Copy V1.0 beta 3 from 29. August 2011
EAC extraction logfile from 18. April 2015, 18:15
Earth, Wind & Fire / Raise!
Used drive : ASUS DRW-20B1LT Adapter: 1 ID: 1
Read mode : Secure
Utilize accurate stream : Yes
Defeat audio cache : Yes
Make use of C2 pointers : No
Read offset correction : 6
Overread into Lead-In and Lead-Out : No
Fill up missing offset samples with silence : Yes
Delete leading and trailing silent blocks : No
Null samples used in CRC calculations : Yes
Used interface : Native Win32 interface for Win NT & 2000
Gap handling : Appended to previous track
Used output format : User Defined Encoder
Selected bitrate : 896 kBit/s
Quality : High
Add ID3 tag : No
Command line compressor : C:\Program Files\Exact Audio Copy\Flac\flac.exe
Additional command line options : -8 -V -T "ARTIST=%artist%" -T "TITLE=%title%" -T "ALBUM=%albumtitle%" -T "DATE=%year%" -T "TRACKNUMBER=%tracknr%" -T "GENRE=%genre%" -T "COMMENT=EAC FLAC -8" %source%
TOC of the extracted CD
Track | Start | Length | Start sector | End sector
---------------------------------------------------------
1 | 0:00.00 | 5:38.70 | 0 | 25419
2 | 5:38.70 | 3:39.65 | 25420 | 41909
3 | 9:18.60 | 4:35.45 | 41910 | 62579
4 | 13:54.30 | 4:42.45 | 62580 | 83774
5 | 18:37.00 | 0:26.25 | 83775 | 85749
6 | 19:03.25 | 4:09.50 | 85750 | 104474
7 | 23:13.00 | 4:35.40 | 104475 | 125139
8 | 27:48.40 | 4:35.62 | 125140 | 145826
9 | 32:24.27 | 5:56.48 | 145827 | 172574
Track 1
Filename K:\EACrips\Earth, Wind & Fire - Raise!\01 - Let's Groove.wav
Pre-gap length 0:00:02.00
Peak level 80.1 %
Extraction speed 3.9 X
Track quality 100.0 %
Test CRC 116C0950
Copy CRC 116C0950
Accurately ripped (confidence 14) [0FF0F332] (AR v2)
Copy OK
Track 2
Filename K:\EACrips\Earth, Wind & Fire - Raise!\02 - Lady Sun.wav
Peak level 100.0 %
Extraction speed 4.2 X
Track quality 100.0 %
Test CRC EDADC9F1
Copy CRC EDADC9F1
Accurately ripped (confidence 14) [597BD7D6] (AR v2)
Copy OK
Track 3
Filename K:\EACrips\Earth, Wind & Fire - Raise!\03 - My Love.wav
Peak level 83.3 %
Extraction speed 4.7 X
Track quality 100.0 %
Test CRC AB1A21A7
Copy CRC AB1A21A7
Accurately ripped (confidence 14) [E4CDBC74] (AR v2)
Copy OK
Track 4
Filename K:\EACrips\Earth, Wind & Fire - Raise!\04 - Evolution Orange.wav
Peak level 71.7 %
Extraction speed 5.0 X
Track quality 100.0 %
Test CRC 1275A42A
Copy CRC 1275A42A
Accurately ripped (confidence 14) [6A225E1E] (AR v2)
Copy OK
Track 5
Filename K:\EACrips\Earth, Wind & Fire - Raise!\05 - Kalimba Tree.wav
Pre-gap length 0:00:01.38
Peak level 56.1 %
Extraction speed 2.4 X
Track quality 100.0 %
Test CRC DB58F1EA
Copy CRC DB58F1EA
Accurately ripped (confidence 14) [8CAC1DEE] (AR v2)
Copy OK
Track 6
Filename K:\EACrips\Earth, Wind & Fire - Raise!\06 - You Are A Winner.wav
Peak level 100.0 %
Extraction speed 4.3 X
Track quality 99.9 %
Test CRC 8576C259
Copy CRC 8576C259
Accurately ripped (confidence 14) [1E24774F] (AR v2)
Copy OK
Track 7
Filename K:\EACrips\Earth, Wind & Fire - Raise!\07 - I've Had Enough.wav
Peak level 100.0 %
Extraction speed 4.7 X
Track quality 99.9 %
Test CRC A879C78C
Copy CRC A879C78C
Accurately ripped (confidence 14) [8FAD7B42] (AR v2)
Copy OK
Track 8
Filename K:\EACrips\Earth, Wind & Fire - Raise!\08 - Wanna Be With You.wav
Peak level 87.6 %
Extraction speed 5.8 X
Track quality 100.0 %
Test CRC 71F6BB60
Copy CRC 71F6BB60
Accurately ripped (confidence 14) [C17217A2] (AR v2)
Copy OK
Track 9
Filename K:\EACrips\Earth, Wind & Fire - Raise!\09 - The Changing Times.wav
Peak level 85.5 %
Extraction speed 6.5 X
Track quality 100.0 %
Test CRC D1E72D0C
Copy CRC D1E72D0C
Accurately ripped (confidence 14) [6004827D] (AR v2)
Copy OK
All tracks accurately ripped
No errors occurred
End of status report
==== Log checksum F529B880D79669B48785D1ED54D2974A8E6EC09EAE5DC22C2BEA465659046C9B ====
 
Содержание индексной карты (.CUE)
REM GENRE Funk
REM DATE 1981
REM DISCID 7008FD09
REM COMMENT "ExactAudioCopy v1.0b3"
PERFORMER "Earth, Wind & Fire"
TITLE "Raise!"
FILE "01 - Let's Groove.wav" WAVE
TRACK 01 AUDIO
TITLE "Let's Groove"
PERFORMER "Earth, Wind & Fire"
INDEX 01 00:00:00
FILE "02 - Lady Sun.wav" WAVE
TRACK 02 AUDIO
TITLE "Lady Sun"
PERFORMER "Earth, Wind & Fire"
INDEX 01 00:00:00
FILE "03 - My Love.wav" WAVE
TRACK 03 AUDIO
TITLE "My Love"
PERFORMER "Earth, Wind & Fire"
INDEX 01 00:00:00
FILE "04 - Evolution Orange.wav" WAVE
TRACK 04 AUDIO
TITLE "Evolution Orange"
PERFORMER "Earth, Wind & Fire"
INDEX 01 00:00:00
TRACK 05 AUDIO
TITLE "Kalimba Tree"
PERFORMER "Earth, Wind & Fire"
INDEX 00 04:41:07
FILE "05 - Kalimba Tree.wav" WAVE
INDEX 01 00:00:00
FILE "06 - You Are A Winner.wav" WAVE
TRACK 06 AUDIO
TITLE "You Are A Winner"
PERFORMER "Earth, Wind & Fire"
INDEX 01 00:00:00
FILE "07 - I've Had Enough.wav" WAVE
TRACK 07 AUDIO
TITLE "I've Had Enough"
PERFORMER "Earth, Wind & Fire"
INDEX 01 00:00:00
FILE "08 - Wanna Be With You.wav" WAVE
TRACK 08 AUDIO
TITLE "Wanna Be With You"
PERFORMER "Earth, Wind & Fire"
INDEX 01 00:00:00
FILE "09 - The Changing Times.wav" WAVE
TRACK 09 AUDIO
TITLE "The Changing Times"
PERFORMER "Earth, Wind & Fire"
INDEX 01 00:00:00
Приватный:
Нет (DHT включён)
Размер:
317.87 Мб (333,314,890 байт) » файлов: 26
Участники:
0 раздают, 0 качают (0 участников всего)
Внешние участники:
5 раздают, 2 качают (7 участников всего) [ Обновить ]
Есть вопросы - пишите личное сообщение пользователю M0p94ok.
16:18
68
Нет комментариев. Ваш будет первым!