Поиск

(Soul, Funk) [CD] Dennis Coffey - Dennis Coffey - 2011, FLAC (tracks+.cue), lossless

(Soul, Funk) [CD] Dennis Coffey - Dennis Coffey - 2011, FLAC (tracks+.cue), lossless
Треклист:
Dennis Coffey / Dennis Coffey
Жанр: Soul, Funk
Носитель: CD
Год издания: 2011
Издатель (лейбл): Strut
Номер по каталогу: STRUT075CD
Аудиокодек: FLAC (*.flac)
Тип рипа: tracks+.cue
Битрейт аудио: lossless
Продолжительность: 38:58
Источник (релизер): обмен
Наличие сканов в содержимом раздачи: да
Треклист:
01. Dennis Coffey - 7th Galaxy (3:55)
02. Dennis Coffey - Don't Knock My Love (2:18)
03. Dennis Coffey - All Your Goodies Are Gone (3:42)
04. Dennis Coffey - I Bet You (5:28)
05. Dennis Coffey - Miss Millie (3:17)
06. Dennis Coffey - Somebody's Been Sleeping (3:56)
07. Dennis Coffey - Plutonious (2:11)
08. Dennis Coffey - Knockabout (4:02)
09. Dennis Coffey - Only Good For Conversation (2:30)
10. Dennis Coffey - Space Traveler (4:20)
11. Dennis Coffey - Don't Knock My Love (Part 2) (3:19)
 
Лог создания рипа
Exact Audio Copy V1.0 beta 3 from 29. August 2011
EAC extraction logfile from 17. May 2015, 18:03
Dennis Coffey / Dennis Coffey
Used drive : SONY DVD RW DRU-810A Adapter: 1 ID: 0
Read mode : Secure
Utilize accurate stream : Yes
Defeat audio cache : Yes
Make use of C2 pointers : No
Read offset correction : 618
Overread into Lead-In and Lead-Out : No
Fill up missing offset samples with silence : Yes
Delete leading and trailing silent blocks : No
Null samples used in CRC calculations : Yes
Used interface : Native Win32 interface for Win NT & 2000
Gap handling : Appended to previous track
Used output format : User Defined Encoder
Selected bitrate : 128 kBit/s
Quality : High
Add ID3 tag : No
Command line compressor : C:\Program Files (x86)\Exact Audio Copy\Flac\flac.exe
Additional command line options : -8 -V -T "ARTIST=%artist%" -T "TITLE=%title%" -T "ALBUM=%albumtitle%" -T "DATE=%year%" -T "TRACKNUMBER=%tracknr%" -T "TOTALTRACKS=%numtracks%" -T "GENRE=%genre%" -T "ALBUMARTIST=%albumartist%" -T "ALBUM ARTIST=%albumartist%" -T "COMMENT=EAC Secure Mode, Test & Copy, AccurateRip, FLAC -8" %source%
TOC of the extracted CD
Track | Start | Length | Start sector | End sector
---------------------------------------------------------
1 | 0:00.00 | 3:55.18 | 0 | 17642
2 | 3:55.18 | 2:17.53 | 17643 | 27970
3 | 6:12.71 | 3:41.55 | 27971 | 44600
4 | 9:54.51 | 5:28.32 | 44601 | 69232
5 | 15:23.08 | 3:17.30 | 69233 | 84037
6 | 18:40.38 | 3:55.68 | 84038 | 101730
7 | 22:36.31 | 2:10.54 | 101731 | 111534
8 | 24:47.10 | 4:01.60 | 111535 | 129669
9 | 28:48.70 | 2:30.17 | 129670 | 140936
10 | 31:19.12 | 4:19.57 | 140937 | 160418
11 | 35:38.69 | 3:18.72 | 160419 | 175340
Track 1
Filename F:\New Rips\Dennis Coffey - Dennis Coffey (2011) [FLAC]\01 - 7th Galaxy.wav
Pre-gap length 0:00:02.00
Peak level 100.0 %
Extraction speed 4.4 X
Track quality 100.0 %
Test CRC 178BFC5D
Copy CRC 178BFC5D
Accurately ripped (confidence 9) [D7171772] (AR v2)
Copy OK
Track 2
Filename F:\New Rips\Dennis Coffey - Dennis Coffey (2011) [FLAC]\02 - Don't Knock My Love.wav
Pre-gap length 0:00:01.74
Peak level 100.0 %
Extraction speed 4.3 X
Track quality 100.0 %
Test CRC 07654E0E
Copy CRC 07654E0E
Accurately ripped (confidence 9) [1BCF37CA] (AR v2)
Copy OK
Track 3
Filename F:\New Rips\Dennis Coffey - Dennis Coffey (2011) [FLAC]\03 - All Your Goodies Are Gone.wav
Pre-gap length 0:00:01.74
Peak level 99.6 %
Extraction speed 4.2 X
Track quality 99.9 %
Test CRC 09553E06
Copy CRC 09553E06
Accurately ripped (confidence 9) [00D0A1CE] (AR v2)
Copy OK
Track 4
Filename F:\New Rips\Dennis Coffey - Dennis Coffey (2011) [FLAC]\04 - I Bet You.wav
Pre-gap length 0:00:01.74
Peak level 100.0 %
Extraction speed 5.8 X
Track quality 100.0 %
Test CRC 8895996B
Copy CRC 8895996B
Accurately ripped (confidence 9) [9647D206] (AR v2)
Copy OK
Track 5
Filename F:\New Rips\Dennis Coffey - Dennis Coffey (2011) [FLAC]\05 - Miss Millie.wav
Pre-gap length 0:00:01.74
Peak level 99.6 %
Extraction speed 5.8 X
Track quality 100.0 %
Test CRC CEEAC7BB
Copy CRC CEEAC7BB
Accurately ripped (confidence 9) [EF1B12FA] (AR v2)
Copy OK
Track 6
Filename F:\New Rips\Dennis Coffey - Dennis Coffey (2011) [FLAC]\06 - Somebody's Been Sleeping.wav
Pre-gap length 0:00:01.74
Peak level 99.6 %
Extraction speed 6.2 X
Track quality 100.0 %
Test CRC F707916A
Copy CRC F707916A
Accurately ripped (confidence 9) [9EC5C13C] (AR v2)
Copy OK
Track 7
Filename F:\New Rips\Dennis Coffey - Dennis Coffey (2011) [FLAC]\07 - Plutonious.wav
Pre-gap length 0:00:01.74
Peak level 99.6 %
Extraction speed 5.8 X
Track quality 100.0 %
Test CRC 2CD5883B
Copy CRC 2CD5883B
Accurately ripped (confidence 9) [307B1392] (AR v2)
Copy OK
Track 8
Filename F:\New Rips\Dennis Coffey - Dennis Coffey (2011) [FLAC]\08 - Knockabout.wav
Pre-gap length 0:00:01.74
Peak level 100.0 %
Extraction speed 6.7 X
Track quality 100.0 %
Test CRC 0E251505
Copy CRC 0E251505
Accurately ripped (confidence 9) [5F0E8CAE] (AR v2)
Copy OK
Track 9
Filename F:\New Rips\Dennis Coffey - Dennis Coffey (2011) [FLAC]\09 - Only Good For Conversation.wav
Pre-gap length 0:00:01.74
Peak level 100.0 %
Extraction speed 6.4 X
Track quality 100.0 %
Test CRC 8EA30838
Copy CRC 8EA30838
Accurately ripped (confidence 9) [58D878A2] (AR v2)
Copy OK
Track 10
Filename F:\New Rips\Dennis Coffey - Dennis Coffey (2011) [FLAC]\10 - Space Traveler.wav
Pre-gap length 0:00:01.74
Peak level 100.0 %
Extraction speed 7.3 X
Track quality 100.0 %
Test CRC CA5199A2
Copy CRC CA5199A2
Accurately ripped (confidence 9) [715D0781] (AR v2)
Copy OK
Track 11
Filename F:\New Rips\Dennis Coffey - Dennis Coffey (2011) [FLAC]\11 - Don't Knock My Love (Part 2).wav
Pre-gap length 0:00:01.74
Peak level 100.0 %
Extraction speed 7.2 X
Track quality 100.0 %
Test CRC 5A037189
Copy CRC 5A037189
Accurately ripped (confidence 9) [97B58EC7] (AR v2)
Copy OK
All tracks accurately ripped
No errors occurred
End of status report
---- CUETools DB Plugin V2.1.3
[CTDB TOCID: mQ.VgrGe0woW8FL992UnaSkxSp8-] found, Submit result: mQ.VgrGe0woW8FL992UnaSkxSp8- has been confirmed
[c5ca5918] (4/4) Accurately ripped
==== Log checksum E683E37BCE94334F4B9ED2EE4BC469C47762170084C46D90FEFEE86967DC1281 ====
 
Содержание индексной карты (.CUE)
REM GENRE Funk
REM DATE 2011
REM DISCID 9109210B
REM COMMENT "ExactAudioCopy v1.0b3"
PERFORMER "Dennis Coffey"
TITLE "Dennis Coffey "
FILE "01 - 7th Galaxy.flac" WAVE
TRACK 01 AUDIO
TITLE "7th Galaxy"
PERFORMER "Dennis Coffey"
INDEX 01 00:00:00
TRACK 02 AUDIO
TITLE "Don't Knock My Love"
PERFORMER "Dennis Coffey"
FLAGS DCP
INDEX 00 03:53:19
FILE "02 - Don't Knock My Love.flac" WAVE
INDEX 01 00:00:00
TRACK 03 AUDIO
TITLE "All Your Goodies Are Gone"
PERFORMER "Dennis Coffey"
FLAGS DCP
INDEX 00 02:15:54
FILE "03 - All Your Goodies Are Gone.flac" WAVE
INDEX 01 00:00:00
TRACK 04 AUDIO
TITLE "I Bet You"
PERFORMER "Dennis Coffey"
FLAGS DCP
INDEX 00 03:39:56
FILE "04 - I Bet You.flac" WAVE
INDEX 01 00:00:00
TRACK 05 AUDIO
TITLE "Miss Millie"
PERFORMER "Dennis Coffey"
FLAGS DCP
INDEX 00 05:26:33
FILE "05 - Miss Millie.flac" WAVE
INDEX 01 00:00:00
TRACK 06 AUDIO
TITLE "Somebody's Been Sleeping"
PERFORMER "Dennis Coffey"
FLAGS DCP
INDEX 00 03:15:31
FILE "06 - Somebody's Been Sleeping.flac" WAVE
INDEX 01 00:00:00
TRACK 07 AUDIO
TITLE "Plutonious"
PERFORMER "Dennis Coffey"
FLAGS DCP
INDEX 00 03:53:69
FILE "07 - Plutonious.flac" WAVE
INDEX 01 00:00:00
TRACK 08 AUDIO
TITLE "Knockabout"
PERFORMER "Dennis Coffey"
FLAGS DCP
INDEX 00 02:08:55
FILE "08 - Knockabout.flac" WAVE
INDEX 01 00:00:00
TRACK 09 AUDIO
TITLE "Only Good For Conversation"
PERFORMER "Dennis Coffey"
FLAGS DCP
INDEX 00 03:59:61
FILE "09 - Only Good For Conversation.flac" WAVE
INDEX 01 00:00:00
TRACK 10 AUDIO
TITLE "Space Traveler"
PERFORMER "Dennis Coffey"
FLAGS DCP
INDEX 00 02:28:18
FILE "10 - Space Traveler.flac" WAVE
INDEX 01 00:00:00
TRACK 11 AUDIO
TITLE "Don't Knock My Love (Part 2)"
PERFORMER "Dennis Coffey"
FLAGS DCP
INDEX 00 04:17:58
FILE "11 - Don't Knock My Love (Part 2).flac" WAVE
INDEX 01 00:00:00
Приватный:
Нет (DHT включён)
Размер:
261.82 Мб (274,540,578 байт) » файлов: 25
Участники:
0 раздают, 0 качают (0 участников всего)
Внешние участники:
2 раздают, 1 качают (3 участников всего) [ Обновить ]
No seeders - write a personal message to user M0p94ok. Нет сидеров - пишите личное сообщение пользователю M0p94ok.
16:17
84
Нет комментариев. Ваш будет первым!