Поиск

(Soul, Funk) [CD] Curtis Mayfield - Sweet Exorcist - 2014, FLAC (tracks+.cue), lossless

(Soul, Funk) [CD] Curtis Mayfield - Sweet Exorcist - 2014, FLAC (tracks+.cue), lossless
Треклист:
Curtis Mayfield / Sweet Exorcist
Жанр: Soul, Funk
Носитель: CD
Страна-производитель диска (релиза): Japan
Год издания: 2014
Издатель (лейбл): Curtom
Номер по каталогу: WPCR-27776
Аудиокодек: FLAC (*.flac)
Тип рипа: tracks+.cue
Битрейт аудио: lossless
Продолжительность: 32:08
Источник (релизер): обмен
Наличие сканов в содержимом раздачи: да
Треклист:
01. Curtis Mayfield - Ain't Got Time (5:07)
02. Curtis Mayfield - Sweet Exorcist (3:48)
03. Curtis Mayfield - To Be Invisible (4:09)
04. Curtis Mayfield - Power To The People (3:23)
05. Curtis Mayfield - Kung Fu (6:09)
06. Curtis Mayfield - Suffer (4:02)
07. Curtis Mayfield - Make Me Believe In You (5:30)
 
Лог создания рипа
Exact Audio Copy V1.0 beta 3 from 29. August 2011
EAC extraction logfile from 2. March 2015, 20:19
Curtis Mayfield / Sweet Exorcist
Used drive : TSSTcorpCDDVDW SN-208DN Adapter: 0 ID: 0
Read mode : Secure
Utilize accurate stream : Yes
Defeat audio cache : Yes
Make use of C2 pointers : No
Read offset correction : 6
Overread into Lead-In and Lead-Out : No
Fill up missing offset samples with silence : Yes
Delete leading and trailing silent blocks : No
Null samples used in CRC calculations : Yes
Used interface : Native Win32 interface for Win NT & 2000
Gap handling : Appended to previous track
Used output format : User Defined Encoder
Selected bitrate : 128 kBit/s
Quality : High
Add ID3 tag : No
Command line compressor : C:\Program Files (x86)\Exact Audio Copy\Flac\flac.exe
Additional command line options : -8 -V -T "ARTIST=%artist%" -T "TITLE=%title%" -T "ALBUM=%albumtitle%" -T "DATE=%year%" -T "TRACKNUMBER=%tracknr%" -T "TOTALTRACKS=%numtracks%" -T "GENRE=%genre%" -T "ALBUMARTIST=%albumartist%" -T "ALBUM ARTIST=%albumartist%" -T "COMMENT=EAC Secure Mode, Test & Copy, AccurateRip, FLAC -8" %source%
TOC of the extracted CD
Track | Start | Length | Start sector | End sector
---------------------------------------------------------
1 | 0:00.00 | 5:06.69 | 0 | 23018
2 | 5:06.69 | 3:47.59 | 23019 | 40102
3 | 8:54.53 | 4:09.15 | 40103 | 58792
4 | 13:03.68 | 3:22.60 | 58793 | 74002
5 | 16:26.53 | 6:08.61 | 74003 | 101663
6 | 22:35.39 | 4:01.47 | 101664 | 119785
7 | 26:37.11 | 5:30.31 | 119786 | 144566
Track 1
Filename C:\AddisistheGodFlac\01 - Ain't Got Time.wav
Pre-gap length 0:00:02.00
Peak level 99.8 %
Extraction speed 2.7 X
Track quality 100.0 %
Test CRC 0AECF3A4
Copy CRC 0AECF3A4
Track not present in AccurateRip database
Copy OK
Track 2
Filename C:\AddisistheGodFlac\02 - Sweet Exorcist.wav
Pre-gap length 0:00:00.48
Peak level 100.0 %
Extraction speed 2.9 X
Track quality 100.0 %
Test CRC 8437F0CB
Copy CRC 8437F0CB
Track not present in AccurateRip database
Copy OK
Track 3
Filename C:\AddisistheGodFlac\03 - To Be Invisible.wav
Pre-gap length 0:00:00.42
Peak level 100.0 %
Extraction speed 3.2 X
Track quality 100.0 %
Test CRC 0E359122
Copy CRC 0E359122
Track not present in AccurateRip database
Copy OK
Track 4
Filename C:\AddisistheGodFlac\04 - Power To The People.wav
Pre-gap length 0:00:00.47
Peak level 100.0 %
Extraction speed 3.3 X
Track quality 100.0 %
Test CRC 82BBF3B6
Copy CRC 82BBF3B6
Track not present in AccurateRip database
Copy OK
Track 5
Filename C:\AddisistheGodFlac\05 - Kung Fu.wav
Pre-gap length 0:00:00.60
Peak level 100.0 %
Extraction speed 3.3 X
Track quality 99.9 %
Test CRC 34FBF010
Copy CRC 34FBF010
Track not present in AccurateRip database
Copy OK
Track 6
Filename C:\AddisistheGodFlac\06 - Suffer.wav
Pre-gap length 0:00:00.46
Peak level 100.0 %
Extraction speed 3.9 X
Track quality 100.0 %
Test CRC AF18B750
Copy CRC AF18B750
Track not present in AccurateRip database
Copy OK
Track 7
Filename C:\AddisistheGodFlac\07 - Make Me Believe In You.wav
Pre-gap length 0:00:00.60
Peak level 100.0 %
Extraction speed 4.3 X
Track quality 100.0 %
Test CRC 91CA492D
Copy CRC 91CA492D
Track not present in AccurateRip database
Copy OK
None of the tracks are present in the AccurateRip database
No errors occurred
End of status report
==== Log checksum E8796EBA55886091DDC6A4343B4937248714BC33E87271304212557EDC141A1B ====
 
Содержание индексной карты (.CUE)
REM GENRE Soul
REM DATE 1974
REM DISCID 70078707
REM COMMENT "ExactAudioCopy v1.0b3"
PERFORMER "Curtis Mayfield"
TITLE "Sweet Exorcist"
FILE "01 - Ain't Got Time.wav" WAVE
TRACK 01 AUDIO
TITLE "Ain't Got Time"
PERFORMER "Curtis Mayfield"
INDEX 01 00:00:00
TRACK 02 AUDIO
TITLE "Sweet Exorcist"
PERFORMER "Curtis Mayfield"
INDEX 00 05:06:21
FILE "02 - Sweet Exorcist.wav" WAVE
INDEX 01 00:00:00
TRACK 03 AUDIO
TITLE "To Be Invisible"
PERFORMER "Curtis Mayfield"
INDEX 00 03:47:17
FILE "03 - To Be Invisible.wav" WAVE
INDEX 01 00:00:00
TRACK 04 AUDIO
TITLE "Power To The People"
PERFORMER "Curtis Mayfield"
INDEX 00 04:08:43
FILE "04 - Power To The People.wav" WAVE
INDEX 01 00:00:00
TRACK 05 AUDIO
TITLE "Kung Fu"
PERFORMER "Curtis Mayfield"
INDEX 00 03:22:00
FILE "05 - Kung Fu.wav" WAVE
INDEX 01 00:00:00
TRACK 06 AUDIO
TITLE "Suffer"
PERFORMER "Curtis Mayfield"
INDEX 00 06:08:15
FILE "06 - Suffer.wav" WAVE
INDEX 01 00:00:00
TRACK 07 AUDIO
TITLE "Make Me Believe In You"
PERFORMER "Curtis Mayfield"
INDEX 00 04:00:62
FILE "07 - Make Me Believe In You.wav" WAVE
INDEX 01 00:00:00
Приватный:
Нет (DHT включён)
Размер:
173.32 Мб (181,738,361 байт) » файлов: 19
Участники:
0 раздают, 0 качают (0 участников всего)
Внешние участники:
5 раздают, 2 качают (7 участников всего) [ Обновить ]
Есть вопросы - пишите личное сообщение пользователю M0p94ok.
16:16
112
Нет комментариев. Ваш будет первым!