Поиск

(Funk, Soul) [CD] Gladys Knight & The Pips - Letter Full Of Tears - 1993, FLAC (tracks+.cue), lossless

(Funk, Soul) [CD] Gladys Knight & The Pips - Letter Full Of Tears - 1993, FLAC (tracks+.cue), lossless
Треклист:
Gladys Knight & The Pips / Letter Full Of Tears
Жанр: Funk, Soul
Носитель: CD
Страна-производитель диска (релиза): USA
Год издания: 1993
Издатель (лейбл): Relic Records
Номер по каталогу: RELIC CD 7045
Аудиокодек: FLAC (*.flac)
Тип рипа: tracks+.cue
Битрейт аудио: lossless
Продолжительность: 67:05
Источник (релизер): обмен
Наличие сканов в содержимом раздачи: да
Треклист:
01. Gladys Knight & The Pips - Every Beat Of My Heart (2:07)
02. Gladys Knight & The Pips - Operator (2:22)
03. Gladys Knight & The Pips - Come See About Me (2:52)
04. Gladys Knight & The Pips - You Broke Your Promise (2:49)
05. Gladys Knight & The Pips - Guess Who? (3:25)
06. Gladys Knight & The Pips - It Hurts So Bad (3:13)
07. Gladys Knight & The Pips - Queen Of Tears (3:29)
08. Gladys Knight & The Pips - Room In You Heart (2:05)
09. Gladys Knight & The Pips - Letter Full Of tears (2:53)
10. Gladys Knight & The Pips - One More Lonely Night (2:24)
11. Gladys Knight & The Pips - What Shall I Do? (2:44)
12. Gladys Knight & The Pips - A Love Like Mine (3:01)
13. Gladys Knight & The Pips - What Will Become Of Me? (2:23)
14. Gladys Knight & The Pips - I Can't Stand By (2:45)
15. Gladys Knight & The Pips - I'll Trust In You (2:50)
16. Gladys Knight & The Pips - How Do You Say Goodbye? (2:37)
17. Gladys Knight & The Pips - Love Call (2:55)
18. Gladys Knight & The Pips - Stop Running Around (2:11)
19. Gladys Knight & The Pips - I Want That Kind Of Love (2:32)
20. Gladys Knight & The Pips - Darling (2:49)
21. Gladys Knight & The Pips - Before Now And After Then (3:03)
22. Gladys Knight & The Pips - Morning, Noon, And Night (2:26)
23. Gladys Knight & The Pips - Linda (2:32)
24. Gladys Knight & The Pips - Every Beat Of My Heart (unreleased) (2:06)
25. Gladys Knight & The Pips - Goodnight My Love (2:34)
 
Лог создания рипа
Exact Audio Copy V1.0 beta 3 from 29. August 2011
EAC extraction logfile from 17. May 2015, 13:26
Gladys Knight & The Pips / Letter Full Of Tears
Used drive : ATAPI iHBS112 2 Adapter: 0 ID: 1
Read mode : Secure
Utilize accurate stream : Yes
Defeat audio cache : Yes
Make use of C2 pointers : No
Read offset correction : 6
Overread into Lead-In and Lead-Out : No
Fill up missing offset samples with silence : Yes
Delete leading and trailing silent blocks : No
Null samples used in CRC calculations : Yes
Used interface : Native Win32 interface for Win NT & 2000
Gap handling : Appended to previous track
Used output format : User Defined Encoder
Selected bitrate : 128 kBit/s
Quality : High
Add ID3 tag : No
Command line compressor : C:\Program Files (x86)\Exact Audio Copy\Flac\flac.exe
Additional command line options : -8 -V -T "ARTIST=%artist%" -T "TITLE=%title%" -T "ALBUM=%albumtitle%" -T "DATE=%year%" -T "TRACKNUMBER=%tracknr%" -T "TOTALTRACKS=%numtracks%" -T "GENRE=%genre%" -T "ALBUMARTIST=%albumartist%" -T "ALBUM ARTIST=%albumartist%" -T "COMMENT=EAC Secure Mode, Test & Copy, AccurateRip, FLAC -8" %source%
TOC of the extracted CD
Track | Start | Length | Start sector | End sector
---------------------------------------------------------
1 | 0:00.00 | 2:07.00 | 0 | 9524
2 | 2:07.00 | 2:21.62 | 9525 | 20161
3 | 4:28.62 | 2:52.00 | 20162 | 33061
4 | 7:20.62 | 2:49.28 | 33062 | 45764
5 | 10:10.15 | 3:25.17 | 45765 | 61156
6 | 13:35.32 | 3:13.03 | 61157 | 75634
7 | 16:48.35 | 3:29.00 | 75635 | 91309
8 | 20:17.35 | 2:05.35 | 91310 | 100719
9 | 22:22.70 | 2:52.40 | 100720 | 113659
10 | 25:15.35 | 2:23.50 | 113660 | 124434
11 | 27:39.10 | 2:43.42 | 124435 | 136701
12 | 30:22.52 | 3:00.43 | 136702 | 150244
13 | 33:23.20 | 2:23.20 | 150245 | 160989
14 | 35:46.40 | 2:44.45 | 160990 | 173334
15 | 38:31.10 | 2:49.70 | 173335 | 186079
16 | 41:21.05 | 2:36.52 | 186080 | 197831
17 | 43:57.57 | 2:55.20 | 197832 | 210976
18 | 46:53.02 | 2:10.50 | 210977 | 220776
19 | 49:03.52 | 2:31.63 | 220777 | 232164
20 | 51:35.40 | 2:49.05 | 232165 | 244844
21 | 54:24.45 | 3:03.02 | 244845 | 258571
22 | 57:27.47 | 2:25.50 | 258572 | 269496
23 | 59:53.22 | 2:31.40 | 269497 | 280861
24 | 62:24.62 | 2:06.20 | 280862 | 290331
25 | 64:31.07 | 2:33.48 | 290332 | 301854
Track 1
Filename C:\Users\sven\Music\UPLOAD\Gladys Knight & The Pips - Letter Full Of Tears (1993) [FLAC]\01 - Every Beat Of My Heart.wav
Pre-gap length 0:00:02.00
Peak level 90.2 %
Extraction speed 5.0 X
Track quality 100.0 %
Test CRC 7609E7D3
Copy CRC 7609E7D3
Track not present in AccurateRip database
Copy OK
Track 2
Filename C:\Users\sven\Music\UPLOAD\Gladys Knight & The Pips - Letter Full Of Tears (1993) [FLAC]\02 - Operator.wav
Pre-gap length 0:00:02.35
Peak level 88.5 %
Extraction speed 5.4 X
Track quality 100.0 %
Test CRC 06B50954
Copy CRC 06B50954
Track not present in AccurateRip database
Copy OK
Track 3
Filename C:\Users\sven\Music\UPLOAD\Gladys Knight & The Pips - Letter Full Of Tears (1993) [FLAC]\03 - Come See About Me.wav
Pre-gap length 0:00:03.47
Peak level 86.0 %
Extraction speed 4.7 X
Track quality 99.9 %
Test CRC D6977A1F
Copy CRC D6977A1F
Track not present in AccurateRip database
Copy OK
Track 4
Filename C:\Users\sven\Music\UPLOAD\Gladys Knight & The Pips - Letter Full Of Tears (1993) [FLAC]\04 - You Broke Your Promise.wav
Pre-gap length 0:00:03.05
Peak level 82.6 %
Extraction speed 6.2 X
Track quality 100.0 %
Test CRC 170EF249
Copy CRC 170EF249
Track not present in AccurateRip database
Copy OK
Track 5
Filename C:\Users\sven\Music\UPLOAD\Gladys Knight & The Pips - Letter Full Of Tears (1993) [FLAC]\05 - Guess Who.wav
Pre-gap length 0:00:03.25
Peak level 78.8 %
Extraction speed 6.8 X
Track quality 100.0 %
Test CRC 6F647635
Copy CRC 6F647635
Track not present in AccurateRip database
Copy OK
Track 6
Filename C:\Users\sven\Music\UPLOAD\Gladys Knight & The Pips - Letter Full Of Tears (1993) [FLAC]\06 - It Hurts So Bad.wav
Pre-gap length 0:00:02.37
Peak level 90.6 %
Extraction speed 7.0 X
Track quality 100.0 %
Test CRC 5BA7E274
Copy CRC 5BA7E274
Track not present in AccurateRip database
Copy OK
Track 7
Filename C:\Users\sven\Music\UPLOAD\Gladys Knight & The Pips - Letter Full Of Tears (1993) [FLAC]\07 - Queen Of Tears.wav
Pre-gap length 0:00:03.08
Peak level 79.2 %
Extraction speed 7.4 X
Track quality 100.0 %
Test CRC 47BED751
Copy CRC 47BED751
Track not present in AccurateRip database
Copy OK
Track 8
Filename C:\Users\sven\Music\UPLOAD\Gladys Knight & The Pips - Letter Full Of Tears (1993) [FLAC]\08 - Room In You Heart.wav
Pre-gap length 0:00:02.48
Peak level 99.9 %
Extraction speed 5.3 X
Track quality 99.9 %
Test CRC 64A12DF5
Copy CRC 64A12DF5
Track not present in AccurateRip database
Copy OK
Track 9
Filename C:\Users\sven\Music\UPLOAD\Gladys Knight & The Pips - Letter Full Of Tears (1993) [FLAC]\09 - Letter Full Of tears.wav
Pre-gap length 0:00:01.38
Peak level 97.4 %
Extraction speed 7.8 X
Track quality 100.0 %
Test CRC 326D10F9
Copy CRC 326D10F9
Track not present in AccurateRip database
Copy OK
Track 10
Filename C:\Users\sven\Music\UPLOAD\Gladys Knight & The Pips - Letter Full Of Tears (1993) [FLAC]\10 - One More Lonely Night.wav
Pre-gap length 0:00:03.10
Peak level 77.0 %
Extraction speed 7.6 X
Track quality 100.0 %
Test CRC 8B7311AF
Copy CRC 8B7311AF
Track not present in AccurateRip database
Copy OK
Track 11
Filename C:\Users\sven\Music\UPLOAD\Gladys Knight & The Pips - Letter Full Of Tears (1993) [FLAC]\11 - What Shall I Do.wav
Pre-gap length 0:00:01.30
Peak level 97.1 %
Extraction speed 8.0 X
Track quality 100.0 %
Test CRC C2C77220
Copy CRC C2C77220
Track not present in AccurateRip database
Copy OK
Track 12
Filename C:\Users\sven\Music\UPLOAD\Gladys Knight & The Pips - Letter Full Of Tears (1993) [FLAC]\12 - A Love Like Mine.wav
Pre-gap length 0:00:03.07
Peak level 95.0 %
Extraction speed 6.7 X
Track quality 99.9 %
Test CRC 2B9A8FE1
Copy CRC 2B9A8FE1
Track not present in AccurateRip database
Copy OK
Track 13
Filename C:\Users\sven\Music\UPLOAD\Gladys Knight & The Pips - Letter Full Of Tears (1993) [FLAC]\13 - What Will Become Of Me.wav
Pre-gap length 0:00:02.35
Peak level 82.0 %
Extraction speed 8.3 X
Track quality 100.0 %
Test CRC 4E3033E4
Copy CRC 4E3033E4
Track not present in AccurateRip database
Copy OK
Track 14
Filename C:\Users\sven\Music\UPLOAD\Gladys Knight & The Pips - Letter Full Of Tears (1993) [FLAC]\14 - I Can't Stand By.wav
Pre-gap length 0:00:02.53
Peak level 99.8 %
Extraction speed 8.7 X
Track quality 100.0 %
Test CRC 66C7A4FB
Copy CRC 66C7A4FB
Track not present in AccurateRip database
Copy OK
Track 15
Filename C:\Users\sven\Music\UPLOAD\Gladys Knight & The Pips - Letter Full Of Tears (1993) [FLAC]\15 - I'll Trust In You.wav
Pre-gap length 0:00:02.23
Peak level 99.9 %
Extraction speed 9.0 X
Track quality 100.0 %
Test CRC AA607930
Copy CRC AA607930
Track not present in AccurateRip database
Copy OK
Track 16
Filename C:\Users\sven\Music\UPLOAD\Gladys Knight & The Pips - Letter Full Of Tears (1993) [FLAC]\16 - How Do You Say Goodbye.wav
Pre-gap length 0:00:02.48
Peak level 99.6 %
Extraction speed 7.0 X
Track quality 99.9 %
Test CRC D1E96185
Copy CRC D1E96185
Track not present in AccurateRip database
Copy OK
Track 17
Filename C:\Users\sven\Music\UPLOAD\Gladys Knight & The Pips - Letter Full Of Tears (1993) [FLAC]\17 - Love Call.wav
Pre-gap length 0:00:02.27
Peak level 99.8 %
Extraction speed 7.3 X
Track quality 99.9 %
Test CRC C98F9F68
Copy CRC C98F9F68
Track not present in AccurateRip database
Copy OK
Track 18
Filename C:\Users\sven\Music\UPLOAD\Gladys Knight & The Pips - Letter Full Of Tears (1993) [FLAC]\18 - Stop Running Around.wav
Pre-gap length 0:00:03.17
Peak level 96.3 %
Extraction speed 9.0 X
Track quality 100.0 %
Test CRC C0E4AB6B
Copy CRC C0E4AB6B
Track not present in AccurateRip database
Copy OK
Track 19
Filename C:\Users\sven\Music\UPLOAD\Gladys Knight & The Pips - Letter Full Of Tears (1993) [FLAC]\19 - I Want That Kind Of Love.wav
Pre-gap length 0:00:02.30
Peak level 93.9 %
Extraction speed 9.4 X
Track quality 100.0 %
Test CRC C3F8156F
Copy CRC C3F8156F
Track not present in AccurateRip database
Copy OK
Track 20
Filename C:\Users\sven\Music\UPLOAD\Gladys Knight & The Pips - Letter Full Of Tears (1993) [FLAC]\20 - Darling.wav
Pre-gap length 0:00:02.23
Peak level 87.9 %
Extraction speed 9.8 X
Track quality 100.0 %
Test CRC C4502861
Copy CRC C4502861
Track not present in AccurateRip database
Copy OK
Track 21
Filename C:\Users\sven\Music\UPLOAD\Gladys Knight & The Pips - Letter Full Of Tears (1993) [FLAC]\21 - Before Now And After Then.wav
Pre-gap length 0:00:02.53
Peak level 99.6 %
Extraction speed 10.2 X
Track quality 100.0 %
Test CRC 3C9C97A7
Copy CRC 3C9C97A7
Track not present in AccurateRip database
Copy OK
Track 22
Filename C:\Users\sven\Music\UPLOAD\Gladys Knight & The Pips - Letter Full Of Tears (1993) [FLAC]\22 - Morning, Noon, And Night.wav
Pre-gap length 0:00:02.10
Peak level 99.6 %
Extraction speed 9.8 X
Track quality 100.0 %
Test CRC 7F442020
Copy CRC 7F442020
Track not present in AccurateRip database
Copy OK
Track 23
Filename C:\Users\sven\Music\UPLOAD\Gladys Knight & The Pips - Letter Full Of Tears (1993) [FLAC]\23 - Linda.wav
Pre-gap length 0:00:03.37
Peak level 92.3 %
Extraction speed 10.2 X
Track quality 100.0 %
Test CRC E4CBB5D9
Copy CRC E4CBB5D9
Track not present in AccurateRip database
Copy OK
Track 24
Filename C:\Users\sven\Music\UPLOAD\Gladys Knight & The Pips - Letter Full Of Tears (1993) [FLAC]\24 - Every Beat Of My Heart (unreleased).wav
Pre-gap length 0:00:02.05
Peak level 100.0 %
Extraction speed 9.8 X
Track quality 100.0 %
Test CRC 10764622
Copy CRC 10764622
Track not present in AccurateRip database
Copy OK
Track 25
Filename C:\Users\sven\Music\UPLOAD\Gladys Knight & The Pips - Letter Full Of Tears (1993) [FLAC]\25 - Goodnight My Love.wav
Pre-gap length 0:00:02.50
Peak level 90.8 %
Extraction speed 10.2 X
Track quality 100.0 %
Test CRC E785F490
Copy CRC E785F490
Track not present in AccurateRip database
Copy OK
None of the tracks are present in the AccurateRip database
No errors occurred
End of status report
==== Log checksum ED11745722D062CDF873ADABB820DE9A26010973C353CF113705CE964119306F ====
 
Содержание индексной карты (.CUE)
REM GENRE Soul
REM DATE 1993
REM DISCID 600FB819
REM COMMENT "ExactAudioCopy v1.0b3"
PERFORMER "Gladys Knight & The Pips"
TITLE "Letter Full Of Tears"
FILE "01 - Every Beat Of My Heart.wav" WAVE
TRACK 01 AUDIO
TITLE "Every Beat Of My Heart"
PERFORMER "Gladys Knight & The Pips"
INDEX 01 00:00:00
TRACK 02 AUDIO
TITLE "Operator"
PERFORMER "Gladys Knight & The Pips"
INDEX 00 02:04:40
FILE "02 - Operator.wav" WAVE
INDEX 01 00:00:00
TRACK 03 AUDIO
TITLE "Come See About Me"
PERFORMER "Gladys Knight & The Pips"
INDEX 00 02:18:15
FILE "03 - Come See About Me.wav" WAVE
INDEX 01 00:00:00
TRACK 04 AUDIO
TITLE "You Broke Your Promise"
PERFORMER "Gladys Knight & The Pips"
INDEX 00 02:48:70
FILE "04 - You Broke Your Promise.wav" WAVE
INDEX 01 00:00:00
TRACK 05 AUDIO
TITLE "Guess Who?"
PERFORMER "Gladys Knight & The Pips"
INDEX 00 02:46:03
FILE "05 - Guess Who.wav" WAVE
INDEX 01 00:00:00
TRACK 06 AUDIO
TITLE "It Hurts So Bad"
PERFORMER "Gladys Knight & The Pips"
INDEX 00 03:22:55
FILE "06 - It Hurts So Bad.wav" WAVE
INDEX 01 00:00:00
TRACK 07 AUDIO
TITLE "Queen Of Tears"
PERFORMER "Gladys Knight & The Pips"
INDEX 00 03:09:70
FILE "07 - Queen Of Tears.wav" WAVE
INDEX 01 00:00:00
TRACK 08 AUDIO
TITLE "Room In You Heart"
PERFORMER "Gladys Knight & The Pips"
INDEX 00 03:26:27
FILE "08 - Room In You Heart.wav" WAVE
INDEX 01 00:00:00
TRACK 09 AUDIO
TITLE "Letter Full Of tears"
PERFORMER "Gladys Knight & The Pips"
INDEX 00 02:03:72
FILE "09 - Letter Full Of tears.wav" WAVE
INDEX 01 00:00:00
TRACK 10 AUDIO
TITLE "One More Lonely Night"
PERFORMER "Gladys Knight & The Pips"
INDEX 00 02:49:30
FILE "10 - One More Lonely Night.wav" WAVE
INDEX 01 00:00:00
TRACK 11 AUDIO
TITLE "What Shall I Do?"
PERFORMER "Gladys Knight & The Pips"
INDEX 00 02:22:20
FILE "11 - What Shall I Do.wav" WAVE
INDEX 01 00:00:00
TRACK 12 AUDIO
TITLE "A Love Like Mine"
PERFORMER "Gladys Knight & The Pips"
INDEX 00 02:40:35
FILE "12 - A Love Like Mine.wav" WAVE
INDEX 01 00:00:00
TRACK 13 AUDIO
TITLE "What Will Become Of Me?"
PERFORMER "Gladys Knight & The Pips"
INDEX 00 02:58:08
FILE "13 - What Will Become Of Me.wav" WAVE
INDEX 01 00:00:00
TRACK 14 AUDIO
TITLE "I Can't Stand By"
PERFORMER "Gladys Knight & The Pips"
INDEX 00 02:20:42
FILE "14 - I Can't Stand By.wav" WAVE
INDEX 01 00:00:00
TRACK 15 AUDIO
TITLE "I'll Trust In You"
PERFORMER "Gladys Knight & The Pips"
INDEX 00 02:42:22
FILE "15 - I'll Trust In You.wav" WAVE
INDEX 01 00:00:00
TRACK 16 AUDIO
TITLE "How Do You Say Goodbye?"
PERFORMER "Gladys Knight & The Pips"
INDEX 00 02:47:22
FILE "16 - How Do You Say Goodbye.wav" WAVE
INDEX 01 00:00:00
TRACK 17 AUDIO
TITLE "Love Call"
PERFORMER "Gladys Knight & The Pips"
INDEX 00 02:34:25
FILE "17 - Love Call.wav" WAVE
INDEX 01 00:00:00
TRACK 18 AUDIO
TITLE "Stop Running Around"
PERFORMER "Gladys Knight & The Pips"
INDEX 00 02:52:03
FILE "18 - Stop Running Around.wav" WAVE
INDEX 01 00:00:00
TRACK 19 AUDIO
TITLE "I Want That Kind Of Love"
PERFORMER "Gladys Knight & The Pips"
INDEX 00 02:08:20
FILE "19 - I Want That Kind Of Love.wav" WAVE
INDEX 01 00:00:00
TRACK 20 AUDIO
TITLE "Darling"
PERFORMER "Gladys Knight & The Pips"
INDEX 00 02:29:40
FILE "20 - Darling.wav" WAVE
INDEX 01 00:00:00
TRACK 21 AUDIO
TITLE "Before Now And After Then"
PERFORMER "Gladys Knight & The Pips"
INDEX 00 02:46:27
FILE "21 - Before Now And After Then.wav" WAVE
INDEX 01 00:00:00
TRACK 22 AUDIO
TITLE "Morning, Noon, And Night"
PERFORMER "Gladys Knight & The Pips"
INDEX 00 03:00:67
FILE "22 - Morning, Noon, And Night.wav" WAVE
INDEX 01 00:00:00
TRACK 23 AUDIO
TITLE "Linda"
PERFORMER "Gladys Knight & The Pips"
INDEX 00 02:22:13
FILE "23 - Linda.wav" WAVE
INDEX 01 00:00:00
TRACK 24 AUDIO
TITLE "Every Beat Of My Heart (unreleased)"
PERFORMER "Gladys Knight & The Pips"
INDEX 00 02:29:35
FILE "24 - Every Beat Of My Heart (unreleased).wav" WAVE
INDEX 01 00:00:00
TRACK 25 AUDIO
TITLE "Goodnight My Love"
PERFORMER "Gladys Knight & The Pips"
INDEX 00 02:03:45
FILE "25 - Goodnight My Love.wav" WAVE
INDEX 01 00:00:00
Приватный:
Нет (DHT включён)
Размер:
399.23 Мб (418,619,216 байт) » файлов: 37
Участники:
0 раздают, 0 качают (0 участников всего)
Внешние участники:
5 раздают, 2 качают (7 участников всего) [ Обновить ]
Есть вопросы - пишите личное сообщение пользователю M0p94ok.
16:22
52
Нет комментариев. Ваш будет первым!