Поиск

(Soul, Funk) [CD] The Natural Four - Can This Be Real? The Complete Curtom Recordings - 1999 (2CD), FLAC (tracks+.cue), lossless

(Soul, Funk) [CD] The Natural Four - Can This Be Real? The Complete Curtom Recordings - 1999 (2CD), FLAC (tracks+.cue), lossless
Треклист:
The Natural Four / Can This Be Real? The Complete Curtom Recordings
Жанр: Soul, Funk
Носитель: CD
Страна-производитель диска (релиза): UK
Год издания: 1999
Издатель (лейбл): Sequel Records
Номер по каталогу: NEMCD 406
Страна исполнителя (группы): USA
Аудиокодек: FLAC (*.flac)
Тип рипа: tracks+.cue
Битрейт аудио: lossless
Продолжительность: 1:35:52
Источник (релизер): DP
Наличие сканов в содержимом раздачи:Front, Back
 
CD1
Natural Four
01. Can This Be Real? 3:28
02. You Bring Out The Best In Me 4:37
03. Try Love Again 4:27
04. You Can't Keep Running Away 3:24
05. That Is What's Happening Now 4:08
06. Love That Really Counts 4:21
07. Try To Smile 2:57
08. Love's Society 3:20
09. Things Will Be Better Tomorrow (Non-Album Track) 3:29
10. Eddie You Should Know Better 2:16
Heaven Right Here On Earth
11. Heaven Right Here On Earth 4:14
12. Love's So Wonderful 3:25
13. Count On Me 4:04
14. Baby Come On 3:41
 
Лог создания рипа
Exact Audio Copy V1.0 beta 3 from 29. August 2011
EAC extraction logfile from 28. February 2012, 21:35
Natural Four / Can This Be Real? The Complete Curtom Recordings Disc One
Used drive : MATSHITADVD-RAM UJ-850S Adapter: 0 ID: 0
Read mode : Secure
Utilize accurate stream : Yes
Defeat audio cache : Yes
Make use of C2 pointers : No
Read offset correction : 102
Overread into Lead-In and Lead-Out : No
Fill up missing offset samples with silence : Yes
Delete leading and trailing silent blocks : No
Null samples used in CRC calculations : Yes
Used interface : Native Win32 interface for Win NT & 2000
Gap handling : Appended to previous track
Used output format : User Defined Encoder
Selected bitrate : 1024 kBit/s
Quality : High
Add ID3 tag : No
Command line compressor : C:\Program Files\Exact Audio Copy\Flac\flac.exe
Additional command line options : -8 -V -T "ARTIST=%artist%" -T "TITLE=%title%" -T "ALBUM=%albumtitle%" -T "DATE=%year%" -T "TRACKNUMBER=%tracknr%" -T "GENRE=%genre%" -T "PERFORMER=%albuminterpret%" -T "COMPOSER=%composer%" %haslyrics%--tag-from-file=LYRICS="%lyricsfile%"%haslyrics% -T "ALBUMARTIST=%albumartist%" -T "DISCNUMBER=%cdnumber%" -T "TOTALDISCS=%totalcds%" -T "TOTALTRACKS=%numtracks%" -T "COMMENT=%comment%" %source% -o %dest%
TOC of the extracted CD
Track | Start | Length | Start sector | End sector
---------------------------------------------------------
1 | 0:00.00 | 3:30.70 | 0 | 15819
2 | 3:30.70 | 4:39.18 | 15820 | 36762
3 | 8:10.13 | 4:30.72 | 36763 | 57084
4 | 12:41.10 | 3:27.10 | 57085 | 72619
5 | 16:08.20 | 4:10.08 | 72620 | 91377
6 | 20:18.28 | 4:23.47 | 91378 | 111149
7 | 24:42.00 | 3:01.73 | 111150 | 124797
8 | 27:43.73 | 3:24.62 | 124798 | 140159
9 | 31:08.60 | 3:34.48 | 140160 | 156257
10 | 34:43.33 | 2:18.32 | 156258 | 166639
11 | 37:01.65 | 4:19.18 | 166640 | 186082
12 | 41:21.08 | 3:27.55 | 186083 | 201662
13 | 44:48.63 | 4:06.50 | 201663 | 220162
14 | 48:55.38 | 3:40.47 | 220163 | 236709
Track 1
Filename C:\EAC Rips\Natural Four - Can This Be Real - The Complete Curtom Recordings [FLAC]\Disc One\01 - Can This Be Real.wav
Pre-gap length 0:00:02.00
Peak level 97.2 %
Extraction speed 1.4 X
Track quality 100.0 %
Test CRC F9002FA9
Copy CRC F9002FA9
Track not present in AccurateRip database
Copy OK
Track 2
Filename C:\EAC Rips\Natural Four - Can This Be Real - The Complete Curtom Recordings [FLAC]\Disc One\02 - You Bring Out The Best In Me.wav
Pre-gap length 0:00:01.89
Peak level 97.2 %
Extraction speed 1.4 X
Track quality 99.9 %
Test CRC 528A53AB
Copy CRC 528A53AB
Track not present in AccurateRip database
Copy OK
Track 3
Filename C:\EAC Rips\Natural Four - Can This Be Real - The Complete Curtom Recordings [FLAC]\Disc One\03 - Try Love Again.wav
Pre-gap length 0:00:01.57
Peak level 97.2 %
Extraction speed 1.8 X
Track quality 100.0 %
Test CRC B7A40F09
Copy CRC B7A40F09
Track not present in AccurateRip database
Copy OK
Track 4
Filename C:\EAC Rips\Natural Four - Can This Be Real - The Complete Curtom Recordings [FLAC]\Disc One\04 - You Can't Keep Running Away.wav
Pre-gap length 0:00:03.60
Peak level 97.2 %
Extraction speed 1.6 X
Track quality 99.9 %
Test CRC D04517E4
Copy CRC D04517E4
Track not present in AccurateRip database
Copy OK
Track 5
Filename C:\EAC Rips\Natural Four - Can This Be Real - The Complete Curtom Recordings [FLAC]\Disc One\05 - This Is What's Happening Now.wav
Pre-gap length 0:00:03.00
Peak level 97.2 %
Extraction speed 2.0 X
Track quality 100.0 %
Test CRC 30512C1F
Copy CRC 30512C1F
Track not present in AccurateRip database
Copy OK
Track 6
Filename C:\EAC Rips\Natural Four - Can This Be Real - The Complete Curtom Recordings [FLAC]\Disc One\06 - Love That Really Counts.wav
Pre-gap length 0:00:01.73
Peak level 97.2 %
Extraction speed 1.9 X
Track quality 99.9 %
Test CRC C85C6D42
Copy CRC C85C6D42
Track not present in AccurateRip database
Copy OK
Track 7
Filename C:\EAC Rips\Natural Four - Can This Be Real - The Complete Curtom Recordings [FLAC]\Disc One\07 - Try To Smile.wav
Pre-gap length 0:00:02.06
Peak level 97.2 %
Extraction speed 2.1 X
Track quality 100.0 %
Test CRC C87A8322
Copy CRC C87A8322
Track not present in AccurateRip database
Copy OK
Track 8
Filename C:\EAC Rips\Natural Four - Can This Be Real - The Complete Curtom Recordings [FLAC]\Disc One\08 - Love's Society.wav
Pre-gap length 0:00:04.20
Peak level 97.2 %
Extraction speed 1.9 X
Track quality 99.9 %
Test CRC A37B994C
Copy CRC A37B994C
Track not present in AccurateRip database
Copy OK
Track 9
Filename C:\EAC Rips\Natural Four - Can This Be Real - The Complete Curtom Recordings [FLAC]\Disc One\09 - Things Will Be Better Tomorrow.wav
Pre-gap length 0:00:04.02
Peak level 97.2 %
Extraction speed 2.3 X
Track quality 100.0 %
Test CRC 6BDC7DFA
Copy CRC 6BDC7DFA
Track not present in AccurateRip database
Copy OK
Track 10
Filename C:\EAC Rips\Natural Four - Can This Be Real - The Complete Curtom Recordings [FLAC]\Disc One\10 - Eddie You Should Know Better.wav
Pre-gap length 0:00:04.44
Peak level 71.8 %
Extraction speed 1.8 X
Track quality 99.9 %
Test CRC 54F8B0EA
Copy CRC 54F8B0EA
Track not present in AccurateRip database
Copy OK
Track 11
Filename C:\EAC Rips\Natural Four - Can This Be Real - The Complete Curtom Recordings [FLAC]\Disc One\11 - Heaven Right Here On Earth.wav
Pre-gap length 0:00:01.89
Peak level 89.7 %
Extraction speed 2.5 X
Track quality 100.0 %
Test CRC D3912C1F
Copy CRC D3912C1F
Track not present in AccurateRip database
Copy OK
Track 12
Filename C:\EAC Rips\Natural Four - Can This Be Real - The Complete Curtom Recordings [FLAC]\Disc One\12 - Love's So Wonderful.wav
Pre-gap length 0:00:04.06
Peak level 89.3 %
Extraction speed 2.5 X
Track quality 100.0 %
Test CRC 9A8AF01A
Copy CRC 9A8AF01A
Track not present in AccurateRip database
Copy OK
Track 13
Filename C:\EAC Rips\Natural Four - Can This Be Real - The Complete Curtom Recordings [FLAC]\Disc One\13 - Count On Me.wav
Pre-gap length 0:00:02.24
Peak level 86.1 %
Extraction speed 2.4 X
Track quality 99.9 %
Test CRC 54C2ED76
Copy CRC 54C2ED76
Track not present in AccurateRip database
Copy OK
Track 14
Filename C:\EAC Rips\Natural Four - Can This Be Real - The Complete Curtom Recordings [FLAC]\Disc One\14 - Baby Come On.wav
Pre-gap length 0:00:02.10
Peak level 72.3 %
Extraction speed 2.8 X
Track quality 100.0 %
Test CRC 1A502EB7
Copy CRC 1A502EB7
Track not present in AccurateRip database
Copy OK
None of the tracks are present in the AccurateRip database
No errors occurred
End of status report
==== Log checksum 74120891E6AC934CD53CEFDFFD933726B3054F30A273DF7E8AA8D53D2CB9888F ====
 
Содержание индексной карты (.CUE)
REM GENRE Soul
REM DISCID BD0C540E
REM COMMENT "ExactAudioCopy v1.0b3"
PERFORMER "Natural Four"
TITLE "Can This Be Real? The Complete Curtom Recordings Disc One"
FILE "01 - Can This Be Real.wav" WAVE
TRACK 01 AUDIO
TITLE "Can This Be Real?"
PERFORMER "Natural Four"
FLAGS DCP
INDEX 01 00:00:00
TRACK 02 AUDIO
TITLE "You Bring Out The Best In Me"
PERFORMER "Natural Four"
FLAGS DCP
INDEX 00 03:29:03
FILE "02 - You Bring Out The Best In Me.wav" WAVE
INDEX 01 00:00:00
TRACK 03 AUDIO
TITLE "Try Love Again"
PERFORMER "Natural Four"
FLAGS DCP
INDEX 00 04:37:50
FILE "03 - Try Love Again.wav" WAVE
INDEX 01 00:00:00
TRACK 04 AUDIO
TITLE "You Can't Keep Running Away"
PERFORMER "Natural Four"
FLAGS DCP
INDEX 00 04:27:27
FILE "04 - You Can't Keep Running Away.wav" WAVE
INDEX 01 00:00:00
TRACK 05 AUDIO
TITLE "This Is What's Happening Now"
PERFORMER "Natural Four"
FLAGS DCP
INDEX 00 03:24:10
FILE "05 - This Is What's Happening Now.wav" WAVE
INDEX 01 00:00:00
TRACK 06 AUDIO
TITLE "Love That Really Counts"
PERFORMER "Natural Four"
FLAGS DCP
INDEX 00 04:08:28
FILE "06 - Love That Really Counts.wav" WAVE
INDEX 01 00:00:00
TRACK 07 AUDIO
TITLE "Try To Smile"
PERFORMER "Natural Four"
FLAGS DCP
INDEX 00 04:21:42
FILE "07 - Try To Smile.wav" WAVE
INDEX 01 00:00:00
TRACK 08 AUDIO
TITLE "Love's Society"
PERFORMER "Natural Four"
FLAGS DCP
INDEX 00 02:57:58
FILE "08 - Love's Society.wav" WAVE
INDEX 01 00:00:00
TRACK 09 AUDIO
TITLE "Things Will Be Better Tomorrow"
PERFORMER "Natural Four"
FLAGS DCP
INDEX 00 03:20:60
FILE "09 - Things Will Be Better Tomorrow.wav" WAVE
INDEX 01 00:00:00
TRACK 10 AUDIO
TITLE "Eddie You Should Know Better"
PERFORMER "Natural Four"
FLAGS DCP
INDEX 00 03:30:15
FILE "10 - Eddie You Should Know Better.wav" WAVE
INDEX 01 00:00:00
TRACK 11 AUDIO
TITLE "Heaven Right Here On Earth"
PERFORMER "Natural Four"
FLAGS DCP
INDEX 00 02:16:40
FILE "11 - Heaven Right Here On Earth.wav" WAVE
INDEX 01 00:00:00
TRACK 12 AUDIO
TITLE "Love's So Wonderful"
PERFORMER "Natural Four"
FLAGS DCP
INDEX 00 04:15:13
FILE "12 - Love's So Wonderful.wav" WAVE
INDEX 01 00:00:00
TRACK 13 AUDIO
TITLE "Count On Me"
PERFORMER "Natural Four"
FLAGS DCP
INDEX 00 03:25:37
FILE "13 - Count On Me.wav" WAVE
INDEX 01 00:00:00
TRACK 14 AUDIO
TITLE "Baby Come On"
PERFORMER "Natural Four"
FLAGS DCP
INDEX 00 04:04:42
FILE "14 - Baby Come On.wav" WAVE
INDEX 01 00:00:00
 
DR Log
foobar2000 1.1.10 / Dynamic Range Meter 1.1.1
log date: 2018-07-18 20:06:50
--------------------------------------------------------------------------------
Analyzed: Natural Four / Can This Be Real? The Complete Curtom Recordings Disc One
--------------------------------------------------------------------------------
DR Peak RMS Duration Track
--------------------------------------------------------------------------------
DR12 -0.24 dB -14.84 dB 3:31 ?-Can This Be Real?
DR9 -0.24 dB -10.85 dB 4:39 ?-You Bring Out The Best In Me
DR9 -0.24 dB -10.94 dB 4:31 ?-Try Love Again
DR8 -0.24 dB -10.19 dB 3:27 ?-You Can't Keep Running Away
DR8 -0.24 dB -10.87 dB 4:10 ?-This Is What's Happening Now
DR12 -0.24 dB -13.83 dB 4:24 ?-Love That Really Counts
DR9 -0.24 dB -11.42 dB 3:02 ?-Try To Smile
DR13 -0.24 dB -16.33 dB 3:25 ?-Love's Society
DR12 -0.24 dB -15.68 dB 3:35 ?-Things Will Be Better Tomorrow
DR10 -2.88 dB -15.90 dB 2:18 ?-Eddie You Should Know Better
DR12 -0.94 dB -14.96 dB 4:19 ?-Heaven Right Here On Earth
DR13 -0.98 dB -16.26 dB 3:28 ?-Love's So Wonderful
DR14 -1.29 dB -17.47 dB 4:07 ?-Count On Me
DR13 -2.82 dB -18.73 dB 3:41 ?-Baby Come On
--------------------------------------------------------------------------------
Number of tracks: 14
Official DR value: DR11
Samplerate: 44100 Hz
Channels: 2
Bits per sample: 16
Bitrate: 825 kbps
Codec: FLAC
================================================================================
 
CD2
Heaven Right Here On Earth
01. What Do You Do? 2:52
02. Give This Love A Try 3:42
03. What's Happening Here? 4:31
04. While You're Away 3:16
Nightchaser
05. It's The Music 3:14
06. Free 2:55
07. I Think I Found That Girl 3:01
08. Night Chaser 3:14
09. The Pacifiers 4:14
10. How Have You Been 3:06
11. Get It Over With 2:57
12. Nothing Beats A Failure (But A Try) 2:36
13. It's The Music (Instrumental) 3:17
 
Лог создания рипа
Exact Audio Copy V1.0 beta 3 from 29. August 2011
EAC extraction logfile from 28. February 2012, 22:31
Natural Four / Can This Be Real? The Complete Curtom Recordings Disc Two
Used drive : MATSHITADVD-RAM UJ-850S Adapter: 0 ID: 0
Read mode : Secure
Utilize accurate stream : Yes
Defeat audio cache : Yes
Make use of C2 pointers : No
Read offset correction : 102
Overread into Lead-In and Lead-Out : No
Fill up missing offset samples with silence : Yes
Delete leading and trailing silent blocks : No
Null samples used in CRC calculations : Yes
Used interface : Native Win32 interface for Win NT & 2000
Gap handling : Appended to previous track
Used output format : User Defined Encoder
Selected bitrate : 1024 kBit/s
Quality : High
Add ID3 tag : No
Command line compressor : C:\Program Files\Exact Audio Copy\Flac\flac.exe
Additional command line options : -8 -V -T "ARTIST=%artist%" -T "TITLE=%title%" -T "ALBUM=%albumtitle%" -T "DATE=%year%" -T "TRACKNUMBER=%tracknr%" -T "GENRE=%genre%" -T "PERFORMER=%albuminterpret%" -T "COMPOSER=%composer%" %haslyrics%--tag-from-file=LYRICS="%lyricsfile%"%haslyrics% -T "ALBUMARTIST=%albumartist%" -T "DISCNUMBER=%cdnumber%" -T "TOTALDISCS=%totalcds%" -T "TOTALTRACKS=%numtracks%" -T "COMMENT=%comment%" %source% -o %dest%
TOC of the extracted CD
Track | Start | Length | Start sector | End sector
---------------------------------------------------------
1 | 0:00.00 | 2:53.63 | 0 | 13037
2 | 2:53.63 | 3:43.52 | 13038 | 29814
3 | 6:37.40 | 4:32.70 | 29815 | 50284
4 | 11:10.35 | 3:18.33 | 50285 | 65167
5 | 14:28.68 | 3:15.12 | 65168 | 79804
6 | 17:44.05 | 2:57.48 | 79805 | 93127
7 | 20:41.53 | 3:02.47 | 93128 | 106824
8 | 23:44.25 | 3:16.48 | 106825 | 121572
9 | 27:00.73 | 4:15.70 | 121573 | 140767
10 | 31:16.68 | 3:08.27 | 140768 | 154894
11 | 34:25.20 | 2:55.65 | 154895 | 168084
12 | 37:21.10 | 2:37.55 | 168085 | 179914
13 | 39:58.65 | 3:17.03 | 179915 | 194692
Track 1
Filename C:\EAC Rips\Natural Four - Can This Be Real - The Complete Curtom Recordings [FLAC]\Disc Two\01 - What Do You Do.wav
Pre-gap length 0:00:02.00
Peak level 97.2 %
Extraction speed 1.3 X
Track quality 100.0 %
Test CRC 376C01CB
Copy CRC 376C01CB
Track not present in AccurateRip database
Copy OK
Track 2
Filename C:\EAC Rips\Natural Four - Can This Be Real - The Complete Curtom Recordings [FLAC]\Disc Two\02 - Give This Love A Try.wav
Pre-gap length 0:00:01.24
Peak level 97.2 %
Extraction speed 1.5 X
Track quality 100.0 %
Test CRC ED9F1C78
Copy CRC ED9F1C78
Track not present in AccurateRip database
Copy OK
Track 3
Filename C:\EAC Rips\Natural Four - Can This Be Real - The Complete Curtom Recordings [FLAC]\Disc Two\03 - What's Happening Here.wav
Pre-gap length 0:00:01.56
Peak level 97.2 %
Extraction speed 1.7 X
Track quality 100.0 %
Test CRC E7F64E3A
Copy CRC E7F64E3A
Track not present in AccurateRip database
Copy OK
Track 4
Filename C:\EAC Rips\Natural Four - Can This Be Real - The Complete Curtom Recordings [FLAC]\Disc Two\04 - While You're Away.wav
Pre-gap length 0:00:01.73
Peak level 97.2 %
Extraction speed 1.8 X
Track quality 100.0 %
Test CRC 091B0C88
Copy CRC 091B0C88
Track not present in AccurateRip database
Copy OK
Track 5
Filename C:\EAC Rips\Natural Four - Can This Be Real - The Complete Curtom Recordings [FLAC]\Disc Two\05 - It's The Music.wav
Pre-gap length 0:00:02.37
Peak level 97.2 %
Extraction speed 1.9 X
Track quality 100.0 %
Test CRC 70CBAE27
Copy CRC 70CBAE27
Track not present in AccurateRip database
Copy OK
Track 6
Filename C:\EAC Rips\Natural Four - Can This Be Real - The Complete Curtom Recordings [FLAC]\Disc Two\06 - Free.wav
Pre-gap length 0:00:01.36
Peak level 97.2 %
Extraction speed 1.6 X
Track quality 99.9 %
Test CRC 40619246
Copy CRC 40619246
Track not present in AccurateRip database
Copy OK
Track 7
Filename C:\EAC Rips\Natural Four - Can This Be Real - The Complete Curtom Recordings [FLAC]\Disc Two\07 - I Think I Found That Girl.wav
Pre-gap length 0:00:01.80
Peak level 97.2 %
Extraction speed 2.0 X
Track quality 100.0 %
Test CRC F6D4CF4B
Copy CRC F6D4CF4B
Track not present in AccurateRip database
Copy OK
Track 8
Filename C:\EAC Rips\Natural Four - Can This Be Real - The Complete Curtom Recordings [FLAC]\Disc Two\08 - Night Chaser.wav
Pre-gap length 0:00:01.73
Peak level 97.2 %
Extraction speed 2.1 X
Track quality 100.0 %
Test CRC 16C9EE76
Copy CRC 16C9EE76
Track not present in AccurateRip database
Copy OK
Track 9
Filename C:\EAC Rips\Natural Four - Can This Be Real - The Complete Curtom Recordings [FLAC]\Disc Two\09 - The Pacifiers.wav
Pre-gap length 0:00:02.30
Peak level 97.2 %
Extraction speed 2.0 X
Track quality 99.9 %
Test CRC C8F32796
Copy CRC C8F32796
Track not present in AccurateRip database
Copy OK
Track 10
Filename C:\EAC Rips\Natural Four - Can This Be Real - The Complete Curtom Recordings [FLAC]\Disc Two\10 - How Have You Been.wav
Pre-gap length 0:00:01.66
Peak level 96.5 %
Extraction speed 2.3 X
Track quality 100.0 %
Test CRC 3A4EE316
Copy CRC 3A4EE316
Track not present in AccurateRip database
Copy OK
Track 11
Filename C:\EAC Rips\Natural Four - Can This Be Real - The Complete Curtom Recordings [FLAC]\Disc Two\11 - Get It Over With.wav
Pre-gap length 0:00:02.00
Peak level 97.2 %
Extraction speed 2.3 X
Track quality 100.0 %
Test CRC F8C3EC5E
Copy CRC F8C3EC5E
Track not present in AccurateRip database
Copy OK
Track 12
Filename C:\EAC Rips\Natural Four - Can This Be Real - The Complete Curtom Recordings [FLAC]\Disc Two\12 - Nothing Beats A Failure (But A Try).wav
Pre-gap length 0:00:01.16
Peak level 97.2 %
Extraction speed 2.3 X
Track quality 100.0 %
Test CRC 328D9DC2
Copy CRC 328D9DC2
Track not present in AccurateRip database
Copy OK
Track 13
Filename C:\EAC Rips\Natural Four - Can This Be Real - The Complete Curtom Recordings [FLAC]\Disc Two\13 - It's The Music (instrumental).wav
Pre-gap length 0:00:01.49
Peak level 97.2 %
Extraction speed 2.5 X
Track quality 100.0 %
Test CRC FC616480
Copy CRC FC616480
Track not present in AccurateRip database
Copy OK
None of the tracks are present in the AccurateRip database
No errors occurred
End of status report
==== Log checksum 578EE176AA750168E1234BFDA124C58DF88AB5BF2B4CCD0B0DC4034EB5AF3974 ====
 
Содержание индексной карты (.CUE)
REM GENRE Soul
REM DISCID A90A230D
REM COMMENT "ExactAudioCopy v1.0b3"
PERFORMER "Natural Four"
TITLE "Can This Be Real? The Complete Curtom Recordings Disc Two"
FILE "01 - What Do You Do.wav" WAVE
TRACK 01 AUDIO
TITLE "What Do You Do?"
PERFORMER "Natural Four"
INDEX 01 00:00:00
TRACK 02 AUDIO
TITLE "Give This Love A Try"
PERFORMER "Natural Four"
INDEX 00 02:52:45
FILE "02 - Give This Love A Try.wav" WAVE
INDEX 01 00:00:00
TRACK 03 AUDIO
TITLE "What's Happening Here?"
PERFORMER "Natural Four"
INDEX 00 03:42:10
FILE "03 - What's Happening Here.wav" WAVE
INDEX 01 00:00:00
TRACK 04 AUDIO
TITLE "While You're Away"
PERFORMER "Natural Four"
INDEX 00 04:31:15
FILE "04 - While You're Away.wav" WAVE
INDEX 01 00:00:00
TRACK 05 AUDIO
TITLE "It's The Music"
PERFORMER "Natural Four"
INDEX 00 03:16:05
FILE "05 - It's The Music.wav" WAVE
INDEX 01 00:00:00
TRACK 06 AUDIO
TITLE "Free"
PERFORMER "Natural Four"
INDEX 00 03:13:60
FILE "06 - Free.wav" WAVE
INDEX 01 00:00:00
TRACK 07 AUDIO
TITLE "I Think I Found That Girl"
PERFORMER "Natural Four"
INDEX 00 02:55:63
FILE "07 - I Think I Found That Girl.wav" WAVE
INDEX 01 00:00:00
TRACK 08 AUDIO
TITLE "Night Chaser"
PERFORMER "Natural Four"
INDEX 00 03:00:67
FILE "08 - Night Chaser.wav" WAVE
INDEX 01 00:00:00
TRACK 09 AUDIO
TITLE "The Pacifiers"
PERFORMER "Natural Four"
INDEX 00 03:14:25
FILE "09 - The Pacifiers.wav" WAVE
INDEX 01 00:00:00
TRACK 10 AUDIO
TITLE "How Have You Been"
PERFORMER "Natural Four"
INDEX 00 04:14:20
FILE "10 - How Have You Been.wav" WAVE
INDEX 01 00:00:00
TRACK 11 AUDIO
TITLE "Get It Over With"
PERFORMER "Natural Four"
INDEX 00 03:06:27
FILE "11 - Get It Over With.wav" WAVE
INDEX 01 00:00:00
TRACK 12 AUDIO
TITLE "Nothing Beats A Failure (But A Try)"
PERFORMER "Natural Four"
INDEX 00 02:54:53
FILE "12 - Nothing Beats A Failure (But A Try).wav" WAVE
INDEX 01 00:00:00
TRACK 13 AUDIO
TITLE "It's The Music (instrumental)"
PERFORMER "Natural Four"
INDEX 00 02:36:18
FILE "13 - It's The Music (instrumental).wav" WAVE
INDEX 01 00:00:00
 
DR Log
foobar2000 1.1.10 / Dynamic Range Meter 1.1.1
log date: 2018-07-18 20:10:53
--------------------------------------------------------------------------------
Analyzed: Natural Four / Can This Be Real? The Complete Curtom Recordings Disc Two
--------------------------------------------------------------------------------
DR Peak RMS Duration Track
--------------------------------------------------------------------------------
DR11 -0.24 dB -13.44 dB 2:54 ?-What Do You Do?
DR14 -0.24 dB -15.69 dB 3:44 ?-Give This Love A Try
DR12 -0.24 dB -13.63 dB 4:33 ?-What's Happening Here?
DR13 -0.24 dB -16.03 dB 3:18 ?-While You're Away
DR12 -0.24 dB -13.70 dB 3:15 ?-It's The Music
DR12 -0.24 dB -14.44 dB 2:58 ?-Free
DR13 -0.24 dB -15.10 dB 3:03 ?-I Think I Found That Girl
DR12 -0.24 dB -14.48 dB 3:17 ?-Night Chaser
DR12 -0.24 dB -14.24 dB 4:16 ?-The Pacifiers
DR13 -0.30 dB -16.11 dB 3:08 ?-How Have You Been
DR13 -0.24 dB -16.06 dB 2:56 ?-Get It Over With
DR14 -0.24 dB -15.78 dB 2:38 ?-Nothing Beats A Failure (But A Try)
DR13 -0.24 dB -15.43 dB 3:17 ?-It's The Music (instrumental)
--------------------------------------------------------------------------------
Number of tracks: 13
Official DR value: DR13
Samplerate: 44100 Hz
Channels: 2
Bits per sample: 16
Bitrate: 888 kbps
Codec: FLAC
================================================================================
 
Об исполнителе (группе)

Раздаю до первых 5-ти скачавших, на раздачи не возвращаюсь...
Приватный:
Нет (DHT включён)
Размер:
606.73 Мб (636,200,387 байт) » файлов: 42
Участники:
0 раздают, 0 качают (0 участников всего)
Внешние участники:
3 раздают, 1 качают (4 участников всего) [ Обновить ]
Есть вопросы - пишите личное сообщение пользователю M0p94ok.
16:11
61
Нет комментариев. Ваш будет первым!