Поиск

(Funk / Soul) [CD] The Dazz Band - Let The Music Play - 2018 (1981), FLAC (tracks+.cue), lossless

(Funk / Soul) [CD] The Dazz Band - Let The Music Play - 2018 (1981), FLAC (tracks+.cue), lossless
Треклист:
The Dazz Band / Let The Music Play
Жанр: Funk / Soul
Носитель: CD
Страна-производитель диска (релиза): japan
Год издания: 2018 (1981)
Издатель (лейбл): Motown
Номер по каталогу: UICY-78766
Страна исполнителя (группы): usa
Аудиокодек: FLAC (*.flac)
Тип рипа: tracks+.cue
Битрейт аудио: lossless
Продолжительность: 40:49
Источник (релизер): own rip
Наличие сканов в содержимом раздачи: да
Треклист:
01 Let The Music Play (05:13)
02 Freaky Lovin' (05:24)
03 Knock! Knock! (04:48)
04 What Will I Do Without You (04:16)
05 Don't Stop (05:09)
06 This Time It's Forever (04:39)
07 Satisfying Love (04:04)
08 Everyday Love (04:13)
09 I Believe In You (02:59)
 
Лог создания рипа
Exact Audio Copy V1.0 beta 2 from 29. April 2011
Отчёт EAC об извлечении, выполненном 18. июля 2018, 14:04
The Dazz Band / Let The Music Play
Дисковод: ASUS DRW-24D5MT Adapter: 0 ID: 1
Режим чтения : Достоверность
Использование точного потока : Да
Отключение кэша аудио : Да
Использование указателей C2 : Нет
Коррекция смещения при чтении : 6
Способность читать области Lead-in и Lead-out : Нет
Заполнение пропущенных сэмплов тишиной : Да
Удаление блоков с тишиной в начале и конце : Нет
При вычислениях CRC использовались нулевые сэмплы : Да
Интерфейс : Встроенный Win32-интерфейс для Win NT/2000
Обработка зазоров : Добавлено к предыдущему треку
Выходной формат : Пользовательский кодировщик
Выбранный битрейт : 128 kBit/s
Качество : Высокий
Добавление ID3-тега : Нет
Утилита сжатия : C:\Program Files\Exact Audio Copy\FLAC\FLAC.EXE
Дополнительные параметры : -8 -V -T "ARTIST=%artist%" -T "TITLE=%title%" -T "ALBUM=%albumtitle%" -T "DATE=%year%" -T "TRACKNUMBER=%tracknr%" -T "GENRE=%genre%" -T "COMMENT=%comment%" -T "BAND=%albuminterpret%" -T "COMPOSER=%composer%" %haslyrics%--tag-from-
TOC извлечённого CD
Трек | Старт | Длительность | Начальный сектор | Конечный сектор
---------------------------------------------------------------------
1 | 0:00.00 | 5:13.57 | 0 | 23531
2 | 5:13.57 | 5:24.74 | 23532 | 47905
3 | 10:38.56 | 4:48.23 | 47906 | 69528
4 | 15:27.04 | 4:16.11 | 69529 | 88739
5 | 19:43.15 | 5:09.41 | 88740 | 111955
6 | 24:52.56 | 4:39.12 | 111956 | 132892
7 | 29:31.68 | 4:04.42 | 132893 | 151234
8 | 33:36.35 | 4:13.58 | 151235 | 170267
9 | 37:50.18 | 2:59.53 | 170268 | 183745
Трек 1
Имя файла D:\FLAC\01 Let The Music Play.wav
Длина предзазора 0:00:02.00
Пиковый уровень 96.4 %
Скорость извлечения 4.3 X
Качество трека 100.0 %
CRC теста 83B2A5E7
CRC копии 83B2A5E7
Трек не обнаружен в базе AccurateRip
Копирование... OK
Трек 2
Имя файла D:\FLAC\02 Freaky Lovin'.wav
Длина предзазора 0:00:02.38
Пиковый уровень 97.9 %
Скорость извлечения 5.0 X
Качество трека 100.0 %
CRC теста A964FFD4
CRC копии A964FFD4
Трек не обнаружен в базе AccurateRip
Копирование... OK
Трек 3
Имя файла D:\FLAC\03 Knock! Knock!.wav
Пиковый уровень 86.3 %
Скорость извлечения 5.5 X
Качество трека 100.0 %
CRC теста 6FAAC674
CRC копии 6FAAC674
Трек не обнаружен в базе AccurateRip
Копирование... OK
Трек 4
Имя файла D:\FLAC\04 What Will I Do Without You.wav
Длина предзазора 0:00:05.03
Пиковый уровень 82.3 %
Скорость извлечения 5.8 X
Качество трека 100.0 %
CRC теста 662A257F
CRC копии 662A257F
Трек не обнаружен в базе AccurateRip
Копирование... OK
Трек 5
Имя файла D:\FLAC\05 Don't Stop.wav
Длина предзазора 0:00:02.44
Пиковый уровень 99.4 %
Скорость извлечения 6.3 X
Качество трека 100.0 %
CRC теста B3A7F0FD
CRC копии B3A7F0FD
Трек не обнаружен в базе AccurateRip
Копирование... OK
Трек 6
Имя файла D:\FLAC\06 This Time It's Forever.wav
Длина предзазора 0:00:00.74
Пиковый уровень 79.5 %
Скорость извлечения 6.7 X
Качество трека 100.0 %
CRC теста B2D0DC67
CRC копии B2D0DC67
Трек не обнаружен в базе AccurateRip
Копирование... OK
Трек 7
Имя файла D:\FLAC\07 Satisfying Love.wav
Длина предзазора 0:00:01.43
Пиковый уровень 84.2 %
Скорость извлечения 6.8 X
Качество трека 100.0 %
CRC теста 15865A7D
CRC копии 15865A7D
Трек не обнаружен в базе AccurateRip
Копирование... OK
Трек 8
Имя файла D:\FLAC\08 Everyday Love.wav
Длина предзазора 0:00:01.55
Пиковый уровень 95.3 %
Скорость извлечения 7.0 X
Качество трека 100.0 %
CRC теста 660D8ED8
CRC копии 660D8ED8
Трек не обнаружен в базе AccurateRip
Копирование... OK
Трек 9
Имя файла D:\FLAC\09 I Believe In You.wav
Длина предзазора 0:00:02.10
Пиковый уровень 84.1 %
Скорость извлечения 6.8 X
Качество трека 100.0 %
CRC теста BEBEDBF2
CRC копии BEBEDBF2
Трек не обнаружен в базе AccurateRip
Копирование... OK
Ни одного трека нет в базе AccurateRip
Ошибок не произошло
Конец отчёта
---- CUETools DB Plugin V2.1.4
[CTDB TOCID: HfMyIymMQyfzi3hXLCzw0UFYWcU-] found
Submit result: HfMyIymMQyfzi3hXLCzw0UFYWcU- has been confirmed
Track | CTDB Status
1 | (1/1) Accurately ripped
2 | (1/1) Accurately ripped
3 | (1/1) Accurately ripped
4 | (1/1) Accurately ripped
5 | (1/1) Accurately ripped
6 | (1/1) Accurately ripped
7 | (1/1) Accurately ripped
8 | (1/1) Accurately ripped
9 | (1/1) Accurately ripped
==== Контрольная сумма отчёта 02001798329045A49A2CE9717690FB12A5F8E97152A0D6A919EC73BABF3C6FA1 ====
 
Содержание индексной карты (.CUE)
REM GENRE Soul
REM DATE 2018
REM DISCID 74099109
REM COMMENT "ExactAudioCopy v1.0b2"
PERFORMER "The Dazz Band"
TITLE "Let The Music Play"
FILE "01 Let The Music Play.wav" WAVE
TRACK 01 AUDIO
TITLE "Let The Music Play"
PERFORMER "The Dazz Band"
INDEX 01 00:00:00
TRACK 02 AUDIO
TITLE "Freaky Lovin'"
PERFORMER "The Dazz Band"
INDEX 00 05:11:19
FILE "02 Freaky Lovin'.wav" WAVE
INDEX 01 00:00:00
FILE "03 Knock! Knock!.wav" WAVE
TRACK 03 AUDIO
TITLE "Knock! Knock!"
PERFORMER "The Dazz Band"
INDEX 01 00:00:00
TRACK 04 AUDIO
TITLE "What Will I Do Without You"
PERFORMER "The Dazz Band"
INDEX 00 04:43:20
FILE "04 What Will I Do Without You.wav" WAVE
INDEX 01 00:00:00
TRACK 05 AUDIO
TITLE "Don't Stop"
PERFORMER "The Dazz Band"
INDEX 00 04:13:42
FILE "05 Don't Stop.wav" WAVE
INDEX 01 00:00:00
TRACK 06 AUDIO
TITLE "This Time It's Forever"
PERFORMER "The Dazz Band"
INDEX 00 05:08:42
FILE "06 This Time It's Forever.wav" WAVE
INDEX 01 00:00:00
TRACK 07 AUDIO
TITLE "Satisfying Love"
PERFORMER "The Dazz Band"
INDEX 00 04:37:44
FILE "07 Satisfying Love.wav" WAVE
INDEX 01 00:00:00
TRACK 08 AUDIO
TITLE "Everyday Love"
PERFORMER "The Dazz Band"
INDEX 00 04:02:62
FILE "08 Everyday Love.wav" WAVE
INDEX 01 00:00:00
TRACK 09 AUDIO
TITLE "I Believe In You"
PERFORMER "The Dazz Band"
INDEX 00 04:11:48
FILE "09 I Believe In You.wav" WAVE
INDEX 01 00:00:00
Доп. информация: https://www.discogs.com/The-Dazz-Band-Let-The-Music-Play/release/12136714
https://store.universal-music.co.jp/product/uicy78766/
Приватный:
Нет (DHT включён)
Размер:
244.24 Мб (256,099,257 байт) » файлов: 20
Участники:
0 раздают, 0 качают (0 участников всего)
Внешние участники:
2 раздают, 1 качают (3 участников всего) [ Обновить ]
Есть вопросы - пишите личное сообщение пользователю M0p94ok.
16:11
63
Нет комментариев. Ваш будет первым!