Поиск

(Soul, Funk, R&B) [CD] Wilson Pickett - American Soul Man - 1987 (Reissue 1994), FLAC (tracks+.cue), lossless

(Soul, Funk, R&B) [CD] Wilson Pickett - American Soul Man - 1987 (Reissue 1994), FLAC (tracks+.cue), lossless
Треклист:
Wilson Pickett / American Soul Man
Жанр: Soul, Funk, R&B
Носитель: CD
Страна-производитель диска (релиза): Australia
Год издания: 1987
Год издания CD: 1994
Издатель (лейбл): Karussell, Motown
Номер по каталогу: 550178-2
Страна исполнителя (группы): USA
Аудиокодек: FLAC (*.flac)
Тип рипа: tracks+.cue
Битрейт аудио: lossless
Продолжительность: 42:26
Источник (релизер): DP
Наличие сканов в содержимом раздачи: нет
Треклист:
1. A Thing Called Love (04:09)
2. When Your Hear Speaks (05:04)
3. Love Never Let Me Down (03:59)
4. A Man Of Value (04:06)
5. (I Wanna) Make Love To You (04:02)
6. In The Midnight Hour (06:22)
7. Don't Turn Away (04:27)
8. Just Let Her Know (04:28)
9. Can't Stop Now (04:07)
 
Лог создания рипа
Exact Audio Copy V1.3 from 2. September 2016
EAC extraction logfile from 12. July 2018, 8:38
Wilson Pickett / American Soul Man
Used drive : HL-DT-STDVDRW GX40N Adapter: 1 ID: 0
Read mode : Secure
Utilize accurate stream : Yes
Defeat audio cache : Yes
Make use of C2 pointers : No
Read offset correction : 6
Overread into Lead-In and Lead-Out : No
Fill up missing offset samples with silence : Yes
Delete leading and trailing silent blocks : No
Null samples used in CRC calculations : Yes
Used interface : Native Win32 interface for Win NT & 2000
Gap handling : Appended to previous track
Used output format : User Defined Encoder
Selected bitrate : 1024 kBit/s
Quality : High
Add ID3 tag : No
Command line compressor : C:\Program Files (x86)\Exact Audio Copy\FLAC\FLAC.EXE
Additional command line options : -8 -e -p -V -T "ARTIST=%artist%" -T "TITLE=%title%" -T "ALBUM=%albumtitle%" -T "DATE=%year%" -T "TRACKNUMBER=%tracknr%" -T "GENRE=%genre%" -T "PERFORMER=%albuminterpret%" -T "COMPOSER=%composer%" %haslyrics%--tag-from-file=LYRICS="%lyricsfile%"%haslyrics% -T "ALBUMARTIST=%albumartist%" -T "DISCNUMBER=%cdnumber%" -T "TOTALDISCS=%totalcds%" -T "TOTALTRACKS=%numtracks%" -T "COMMENT=%comment%" %source% -o %dest%
TOC of the extracted CD
Track | Start | Length | Start sector | End sector
---------------------------------------------------------
1 | 0:00.05 | 4:08.37 | 5 | 18641
2 | 4:08.42 | 5:02.35 | 18642 | 41326
3 | 9:11.02 | 4:00.73 | 41327 | 59399
4 | 13:12.00 | 4:05.25 | 59400 | 77799
5 | 17:17.25 | 4:04.17 | 77800 | 96116
6 | 21:21.42 | 7:56.70 | 96117 | 131886
7 | 29:18.37 | 4:29.10 | 131887 | 152071
8 | 33:47.47 | 4:30.18 | 152072 | 172339
9 | 38:17.65 | 4:08.00 | 172340 | 190939
Track 1
Filename X:\Music\APOLLO\Uploaded Torrents\Wilson Pickett - American Soul Man (1987) [FLAC]\01 A Thing Called Love.wav
Pre-gap length 0:00:02.06
Peak level 82.9 %
Extraction speed 1.1 X
Track quality 100.0 %
Test CRC ED387D81
Copy CRC ED387D81
Accurately ripped (confidence 3) [B8A0A610] (AR v2)
Copy OK
Track 2
Filename X:\Music\APOLLO\Uploaded Torrents\Wilson Pickett - American Soul Man (1987) [FLAC]\02 When Your Heart Speaks.wav
Pre-gap length 0:00:01.09
Peak level 68.9 %
Extraction speed 1.2 X
Track quality 99.9 %
Test CRC 2A6464DB
Copy CRC 2A6464DB
Accurately ripped (confidence 3) [03D430D2] (AR v2)
Copy OK
Track 3
Filename X:\Music\APOLLO\Uploaded Torrents\Wilson Pickett - American Soul Man (1987) [FLAC]\03 Love Never Let Me Down.wav
Peak level 79.1 %
Extraction speed 1.4 X
Track quality 100.0 %
Test CRC 66E75591
Copy CRC 66E75591
Accurately ripped (confidence 3) [D0B456A1] (AR v2)
Copy OK
Track 4
Filename X:\Music\APOLLO\Uploaded Torrents\Wilson Pickett - American Soul Man (1987) [FLAC]\04 A Man Of Value.wav
Pre-gap length 0:00:00.57
Peak level 79.0 %
Extraction speed 1.3 X
Track quality 99.9 %
Test CRC 12DB5522
Copy CRC 12DB5522
Accurately ripped (confidence 3) [D6419366] (AR v2)
Copy OK
Track 5
Filename X:\Music\APOLLO\Uploaded Torrents\Wilson Pickett - American Soul Man (1987) [FLAC]\05 (I Wanna) Make Love To You.wav
Peak level 77.2 %
Extraction speed 1.6 X
Track quality 100.0 %
Test CRC EF66C24B
Copy CRC EF66C24B
Accurately ripped (confidence 3) [FD71DAF8] (AR v2)
Copy OK
Track 6
Filename X:\Music\APOLLO\Uploaded Torrents\Wilson Pickett - American Soul Man (1987) [FLAC]\06 In The Midnight Hour.wav
Pre-gap length 0:00:00.76
Peak level 80.8 %
Extraction speed 1.8 X
Track quality 100.0 %
Test CRC BCD3314D
Copy CRC BCD3314D
Accurately ripped (confidence 3) [2F4346C9] (AR v2)
Copy OK
Track 7
Filename X:\Music\APOLLO\Uploaded Torrents\Wilson Pickett - American Soul Man (1987) [FLAC]\07 Don't Turn Away.wav
Pre-gap length 0:00:01.46
Peak level 72.6 %
Extraction speed 1.9 X
Track quality 100.0 %
Test CRC 0DD2E387
Copy CRC 0DD2E387
Accurately ripped (confidence 3) [1B060397] (AR v2)
Copy OK
Track 8
Filename X:\Music\APOLLO\Uploaded Torrents\Wilson Pickett - American Soul Man (1987) [FLAC]\08 Just Let Her Know.wav
Pre-gap length 0:00:00.20
Peak level 81.0 %
Extraction speed 1.8 X
Track quality 99.9 %
Test CRC A2FAED59
Copy CRC A2FAED59
Accurately ripped (confidence 3) [932053D2] (AR v2)
Copy OK
Track 9
Filename X:\Music\APOLLO\Uploaded Torrents\Wilson Pickett - American Soul Man (1987) [FLAC]\09 Can't Stop Now.wav
Pre-gap length 0:00:01.50
Peak level 78.1 %
Extraction speed 1.8 X
Track quality 99.9 %
Test CRC 7185F8C5
Copy CRC 7185F8C5
Accurately ripped (confidence 3) [8A4FD8EA] (AR v2)
Copy OK
All tracks accurately ripped
No errors occurred
End of status report
---- CUETools DB Plugin V2.1.6
[CTDB TOCID: 2m0lyt2M_SDY8qvWNf_tW6325Oc-] found
Submit result: 2m0lyt2M_SDY8qvWNf_tW6325Oc- has been confirmed
Track | CTDB Status
1 | (3/3) Accurately ripped
2 | (3/3) Accurately ripped
3 | (3/3) Accurately ripped
4 | (3/3) Accurately ripped
5 | (3/3) Accurately ripped
6 | (3/3) Accurately ripped
7 | (3/3) Accurately ripped
8 | (3/3) Accurately ripped
9 | (3/3) Accurately ripped
==== Log checksum 6A4D1965CC0DB2A3C159E4FD754D90135D0CF524719E685499DFCB1DF54FB418 ====
 
Содержание индексной карты (.CUE)
REM GENRE Soul
REM DISCID 7609F109
REM COMMENT "ExactAudioCopy v1.3"
CATALOG 0731455017823
PERFORMER "Wilson Pickett"
TITLE "American Soul Man"
REM COMPOSER ""
FILE "1. A Thing Called Love.wav" WAVE
TRACK 01 AUDIO
TITLE "A Thing Called Love"
PERFORMER "Wilson Pickett"
REM COMPOSER ""
PREGAP 00:00:05
INDEX 01 00:00:00
TRACK 02 AUDIO
TITLE "When Your Heart Speaks"
PERFORMER "Wilson Pickett"
REM COMPOSER ""
INDEX 00 04:07:30
FILE "2. When Your Heart Speaks.wav" WAVE
INDEX 01 00:00:00
FILE "3. Love Never Let Me Down.wav" WAVE
TRACK 03 AUDIO
TITLE "Love Never Let Me Down"
PERFORMER "Wilson Pickett"
REM COMPOSER ""
INDEX 01 00:00:00
TRACK 04 AUDIO
TITLE "A Man Of Value"
PERFORMER "Wilson Pickett"
REM COMPOSER ""
INDEX 00 04:00:30
FILE "4. A Man Of Value.wav" WAVE
INDEX 01 00:00:00
FILE "5. (I Wanna) Make Love To You.wav" WAVE
TRACK 05 AUDIO
TITLE "(I Wanna) Make Love To You"
PERFORMER "Wilson Pickett"
REM COMPOSER ""
INDEX 01 00:00:00
TRACK 06 AUDIO
TITLE "In The Midnight Hour"
PERFORMER "Wilson Pickett"
REM COMPOSER ""
INDEX 00 04:03:35
FILE "6. In The Midnight Hour.wav" WAVE
INDEX 01 00:00:00
TRACK 07 AUDIO
TITLE "Don't Turn Away"
PERFORMER "Wilson Pickett"
REM COMPOSER ""
INDEX 00 07:55:35
FILE "7. Don't Turn Away.wav" WAVE
INDEX 01 00:00:00
TRACK 08 AUDIO
TITLE "Just Let Her Know"
PERFORMER "Wilson Pickett"
REM COMPOSER ""
INDEX 00 04:28:70
FILE "8. Just Let Her Know.wav" WAVE
INDEX 01 00:00:00
TRACK 09 AUDIO
TITLE "Can't Stop Now"
PERFORMER "Wilson Pickett"
REM COMPOSER ""
INDEX 00 04:28:55
FILE "9. Can't Stop Now.wav" WAVE
INDEX 01 00:00:00
 
DR Log
foobar2000 1.1.10 / Dynamic Range Meter 1.1.1
log date: 2018-07-17 08:56:14
--------------------------------------------------------------------------------
Analyzed: Wilson Pickett / American Soul Man
--------------------------------------------------------------------------------
DR Peak RMS Duration Track
--------------------------------------------------------------------------------
DR10 -1.62 dB -14.30 dB 4:08 ?-A Thing Called Love
DR11 -3.23 dB -16.08 dB 5:02 ?-When Your Heart Speaks
DR10 -2.03 dB -15.35 dB 4:01 ?-Love Never Let Me Down
DR10 -2.05 dB -15.25 dB 4:05 ?-A Man Of Value
DR10 -2.24 dB -15.07 dB 4:04 ?-(I Wanna) Make Love To You
DR13 -1.84 dB -16.78 dB 7:57 ?-In The Midnight Hour
DR11 -2.77 dB -17.33 dB 4:29 ?-Don't Turn Away
DR11 -1.82 dB -15.90 dB 4:30 ?-Just Let Her Know
DR11 -2.15 dB -15.36 dB 4:08 ?-Can't Stop Now
--------------------------------------------------------------------------------
Number of tracks: 9
Official DR value: DR11
Samplerate: 44100 Hz
Channels: 2
Bits per sample: 16
Bitrate: 909 kbps
Codec: FLAC
================================================================================
 
Об исполнителе (группе)
If Wilson Pickett had arrived at Motown 20 years earlier, the reaction would have been frenzied. But by the time he joined them in 1987, the once-great company was in the throes of a horrible slump. Pickett's late-'80s album for them was painful. It wasn't half bad as far as production and arrangements, and Pickett's vocals were better than anticipated. But the songs sounded third-rate, and while he did get one single onto the lower rungs of the charts, "Don't Turn Away," this wasn't the Pickett everyone loved or wanted to hear.
https://en.wikipedia.org/wiki/Wilson_Pickett
https://ru.wikipedia.org/wiki/Пикетт,_Уилсон
 
Состав
Arranged By – Robert A. Martin
Arranged By [Horns] – Steve Madaio
Backing Vocals – Julia Waters, Maxine Waters
Bass – Reggie McBride
Drum Programming [Additional] – Robert Margouleff, Stephen Klong
Drums – Ollie E. Brown, Stephen Klong
Guitar – Buzzy Feiten, Gary Myrick
Horns – Robert A. Martin, Brad Silwood, Steve Madaio, The Flamingo Horns
Percussion – Stephen Klong
Programmed By [Synclavier] – Gary Barlough, Todd Yvega
Track 1, 6
Conductor [Music Director], Keyboards, Synthesizer [Bass], Saxophone [Solo] – Robert A. Martin
Track 2
Clavinet [Synclavier], French Horn, Saxophone [Tenor], Drum Programming – Robert A. Martin

Раздаю до первых 5-ти скачавших, на раздачи не возвращаюсь...
Приватный:
Нет (DHT включён)
Размер:
264.35 Мб (277,188,040 байт) » файлов: 14
Участники:
0 раздают, 0 качают (0 участников всего)
Внешние участники:
2 раздают, 1 качают (3 участников всего) [ Обновить ]
No seeders - write a personal message to user M0p94ok. Нет сидеров - пишите личное сообщение пользователю M0p94ok.
16:10
79
Нет комментариев. Ваш будет первым!