Поиск

(Funk, Soul) [CD] Ronnie Dyson - Brand New Day - 1983 (2014 Japan Edition), FLAC (tracks+.cue), lossless

(Funk, Soul) [CD] Ronnie Dyson - Brand New Day - 1983 (2014 Japan Edition), FLAC (tracks+.cue), lossless
Треклист:
Ronnie Dyson - Brand New Day
Жанр: Funk, Soul
Носитель: CD
Страна-производитель диска (релиза): Япония
Год издания: 1983 (2014)
Издатель (лейбл): Cotillion/WEA/Warner
Номер по каталогу: WPCR-27756
Страна исполнителя (группы): США
Аудиокодек: FLAC (*.flac)
Тип рипа: tracks+.cue
Битрейт аудио: lossless
Продолжительность: 37:25
Источник (релизер): redacted
Наличие сканов в содержимом раздачи: нет
Треклист:
01. All over Your Face (6:11)
02. Let the Love Begin (3:53)
03. Don't Need You Now (5:06)
04. Waiting for You (4:27)
05. Tender Lovin' Care (3:43)
06. I Need Just a Little More Lovin' (4:22)
07. I Gave You All of Me (2:54)
08. You Better Be Fierce (6:49)
 
Лог создания рипа
Exact Audio Copy V1.0 beta 3 from 29. August 2011
EAC extraction logfile from 19. September 2014, 23:30
Ronnie Dyson / Brand New Day
Used drive : TSSTcorpCDDVDW SH-224DB Adapter: 0 ID: 1
Read mode : Secure
Utilize accurate stream : Yes
Defeat audio cache : Yes
Make use of C2 pointers : No
Read offset correction : 6
Overread into Lead-In and Lead-Out : No
Fill up missing offset samples with silence : Yes
Delete leading and trailing silent blocks : No
Null samples used in CRC calculations : Yes
Used interface : Native Win32 interface for Win NT & 2000
Gap handling : Appended to previous track
Used output format : User Defined Encoder
Selected bitrate : 256 kBit/s
Quality : High
Add ID3 tag : No
Command line compressor : C:\Program Files\Exact Audio Copy\FLAC\FLAC.EXE
Additional command line options : -8 -V -T "ARTIST=%artist%" -T "TITLE=%title%" -T "ALBUM=%albumtitle%" -T "DATE=%year%" -T "TRACKNUMBER=%tracknr%" -T "TOTALTRACKS=%numtracks%" -T "GENRE=%genre%" -T "ALBUMARTIST=%albumartist%" -T "ALBUM ARTIST=%albumartist%" -T "COMMENT=EAC Secure Mode, Test & Copy, AccurateRip, FLAC -8" %source%
TOC of the extracted CD
Track | Start | Length | Start sector | End sector
---------------------------------------------------------
1 | 0:00.00 | 6:10.42 | 0 | 27791
2 | 6:10.42 | 3:53.03 | 27792 | 45269
3 | 10:03.45 | 5:06.37 | 45270 | 68256
4 | 15:10.07 | 4:26.54 | 68257 | 88260
5 | 19:36.61 | 3:43.11 | 88261 | 104996
6 | 23:19.72 | 4:21.46 | 104997 | 124617
7 | 27:41.43 | 2:53.54 | 124618 | 137646
8 | 30:35.22 | 6:49.02 | 137647 | 168323
Track 1
Filename E:\Lossless\Ronnie Dyson - Brand New Day (1983) [FLAC] {Japan WPCR-27756}\01 - All Over Your Face.wav
Pre-gap length 0:00:02.00
Peak level 100.0 %
Extraction speed 1.9 X
Track quality 100.0 %
Test CRC 217246AB
Copy CRC 217246AB
Accurately ripped (confidence 1) [F7661DA3] (AR v2)
Copy OK
Track 2
Filename E:\Lossless\Ronnie Dyson - Brand New Day (1983) [FLAC] {Japan WPCR-27756}\02 - Let The Love Begin.wav
Peak level 100.0 %
Extraction speed 1.7 X
Track quality 99.9 %
Test CRC 9D4125C0
Copy CRC 9D4125C0
Accurately ripped (confidence 1) [14EE6F82] (AR v2)
Copy OK
Track 3
Filename E:\Lossless\Ronnie Dyson - Brand New Day (1983) [FLAC] {Japan WPCR-27756}\03 - Don't Need You Now.wav
Peak level 100.0 %
Extraction speed 2.2 X
Track quality 100.0 %
Test CRC 62E59D71
Copy CRC 62E59D71
Accurately ripped (confidence 1) [33C13946] (AR v2)
Copy OK
Track 4
Filename E:\Lossless\Ronnie Dyson - Brand New Day (1983) [FLAC] {Japan WPCR-27756}\04 - Waiting For You.wav
Peak level 100.0 %
Extraction speed 2.4 X
Track quality 100.0 %
Test CRC 2B7C90DF
Copy CRC 2B7C90DF
Accurately ripped (confidence 1) [EF096000] (AR v2)
Copy OK
Track 5
Filename E:\Lossless\Ronnie Dyson - Brand New Day (1983) [FLAC] {Japan WPCR-27756}\05 - Tender Lovin' Care.wav
Peak level 99.6 %
Extraction speed 2.5 X
Track quality 100.0 %
Test CRC 1FE0C32A
Copy CRC 1FE0C32A
Accurately ripped (confidence 1) [DCFB822F] (AR v2)
Copy OK
Track 6
Filename E:\Lossless\Ronnie Dyson - Brand New Day (1983) [FLAC] {Japan WPCR-27756}\06 - I Need Just A Little More, Lovin'.wav
Peak level 100.0 %
Extraction speed 2.2 X
Track quality 99.9 %
Test CRC 6AE3F84D
Copy CRC 6AE3F84D
Accurately ripped (confidence 1) [991FFEFF] (AR v2)
Copy OK
Track 7
Filename E:\Lossless\Ronnie Dyson - Brand New Day (1983) [FLAC] {Japan WPCR-27756}\07 - I Gave You All Of Me.wav
Peak level 96.1 %
Extraction speed 2.6 X
Track quality 100.0 %
Test CRC 79A1BD5C
Copy CRC 79A1BD5C
Accurately ripped (confidence 1) [CB180761] (AR v2)
Copy OK
Track 8
Filename E:\Lossless\Ronnie Dyson - Brand New Day (1983) [FLAC] {Japan WPCR-27756}\08 - You Better Be Fierce.wav
Peak level 100.0 %
Extraction speed 2.7 X
Track quality 99.9 %
Test CRC A29E7647
Copy CRC A29E7647
Accurately ripped (confidence 1) [3048991A] (AR v2)
Copy OK
All tracks accurately ripped
No errors occurred
End of status report
==== Log checksum BF69F6385403BD9D6749A5F3E3011467F098D041D91846D2FCBB88DCAFB0EC3D ====
 
Содержание индексной карты (.CUE)
REM GENRE Soul
REM DATE 1983
REM DISCID 5F08C408
REM COMMENT "ExactAudioCopy v1.0b3"
PERFORMER "Ronnie Dyson"
TITLE "Brand New Day"
FILE "01 - All over Your Face.wav" WAVE
TRACK 01 AUDIO
TITLE "All over Your Face"
PERFORMER "Ronnie Dyson"
INDEX 01 00:00:00
FILE "02 - Let the Love Begin.wav" WAVE
TRACK 02 AUDIO
TITLE "Let the Love Begin"
PERFORMER "Ronnie Dyson"
INDEX 01 00:00:00
FILE "03 - Don't Need You Now.wav" WAVE
TRACK 03 AUDIO
TITLE "Don't Need You Now"
PERFORMER "Ronnie Dyson"
INDEX 01 00:00:00
FILE "04 - Waiting for You.wav" WAVE
TRACK 04 AUDIO
TITLE "Waiting for You"
PERFORMER "Ronnie Dyson"
INDEX 01 00:00:00
FILE "05 - Tender Lovin' Care.wav" WAVE
TRACK 05 AUDIO
TITLE "Tender Lovin' Care"
PERFORMER "Ronnie Dyson"
INDEX 01 00:00:00
FILE "06 - I Need Just a Little More Lovin'.wav" WAVE
TRACK 06 AUDIO
TITLE "I Need Just a Little More Lovin'"
PERFORMER "Ronnie Dyson"
INDEX 01 00:00:00
FILE "07 - I Gave You All of Me.wav" WAVE
TRACK 07 AUDIO
TITLE "I Gave You All of Me"
PERFORMER "Ronnie Dyson"
INDEX 01 00:00:00
FILE "08 - You Better Be Fierce.wav" WAVE
TRACK 08 AUDIO
TITLE "You Better Be Fierce"
PERFORMER "Ronnie Dyson"
INDEX 01 00:00:00
 
Отчет CUETools
[CUETools log; Date: 20.07.2018 1:15:56; Version: 2.1.5]
[CTDB TOCID: tF3rv9khSVTV_HHtvvG2TNJeaIA-] found.
Track | CTDB Status
1 | (1/1) Accurately ripped
2 | (1/1) Accurately ripped
3 | (1/1) Accurately ripped
4 | (1/1) Accurately ripped
5 | (1/1) Accurately ripped
6 | (1/1) Accurately ripped
7 | (1/1) Accurately ripped
8 | (1/1) Accurately ripped
[AccurateRip ID: 000bacee-004ca980-5f08c408] found.
Track [ CRC | V2 ] Status
01 [3b398ef7|f7661da3] (0+3/3) Accurately ripped
02 [cb31da64|14ee6f82] (0+3/3) Accurately ripped
03 [ce0819ac|33c13946] (0+3/3) Accurately ripped
04 [050c1827|ef096000] (0+3/3) Accurately ripped
05 [16e7f670|dcfb822f] (0+3/3) Accurately ripped
06 [8f1374bf|991ffeff] (0+3/3) Accurately ripped
07 [32ba99b3|cb180761] (0+3/3) Accurately ripped
08 [c9f88735|3048991a] (0+3/3) Accurately ripped
Track Peak [ CRC32 ] [W/O NULL] [ LOG ]
-- 100,0 [BF6900A1] [5E3DB712]
01 100,0 [217246AB] [F7D63C1E] CRC32
02 100,0 [9D4125C0] [C5041D82] CRC32
03 100,0 [62E59D71] [8C810CB4] CRC32
04 100,0 [2B7C90DF] [B41290D7] CRC32
05 99,6 [1FE0C32A] [BD97030D] CRC32
06 100,0 [6AE3F84D] [2C539CBF] CRC32
07 96,1 [79A1BD5C] [47DF1F4B] CRC32
08 100,0 [A29E7647] [18345901] CRC32
Приватный:
Нет (DHT включён)
Размер:
230.55 Мб (241,751,150 байт) » файлов: 15
Участники:
0 раздают, 0 качают (0 участников всего)
Внешние участники:
1 раздают, 0 качают (1 участников всего) [ Обновить ]
Есть вопросы - пишите личное сообщение пользователю M0p94ok.
16:12
52
Нет комментариев. Ваш будет первым!