Поиск

(Soul, Funk) [CD] James Robinson - Guilty (1987) - 2013 {CDSOL-5230}, FLAC (tracks+.cue), lossless

(Soul, Funk) [CD] James Robinson - Guilty (1987) - 2013 {CDSOL-5230}, FLAC (tracks+.cue), lossless
Треклист:
James Robinson - Guilty (1987)
Жанр: Soul, Funk
Носитель: CD
Страна-производитель диска (релиза): Japan
Год издания: 2013
Издатель (лейбл): Solid Records/Tabu Records
Номер по каталогу: CDSOL-5230
Аудиокодек: FLAC (*.flac)
Тип рипа: tracks+.cue
Битрейт аудио: lossless
Продолжительность: 67:29
Rip by JET 1
Наличие сканов в содержимом раздачи: да
Треклист:
01. Can We Do It Again (5:09)
02. Guilty (4:49)
03. Pretend (3:53)
04. Feel Like Going On (5:41)
05. Seems So Long (5:36)
06. The Lord's Prayer (3:16)
07. A Kind Of Love (5:09)
08. Just What I've Been Missing (5:31)
09. When You'll Be Mine (4:37)
10. You're The One I've Been Dreaming Of (5:07)
11. Can We Do It Again (12'' Ver.) (4:08)
12. Just What I've Been Missing (Breakdown Mix) (5:51)
13. Just What I've Been Missing (Short Ver.) (3:59)
14. Just What I've Been Missing (Instr. Club Remix) (4:43)
 
 
Лог создания рипа
Exact Audio Copy V1.0 beta 3 from 29. August 2011
EAC extraction logfile from 5. June 2015, 17:35
James Robinson / Guilty
Used drive : ATAPI DVD A DH16A6L-C Adapter: 2 ID: 0
Read mode : Secure
Utilize accurate stream : Yes
Defeat audio cache : Yes
Make use of C2 pointers : No
Read offset correction : 6
Overread into Lead-In and Lead-Out : No
Fill up missing offset samples with silence : Yes
Delete leading and trailing silent blocks : No
Null samples used in CRC calculations : Yes
Used interface : Native Win32 interface for Win NT & 2000
Gap handling : Appended to previous track
Used output format : User Defined Encoder
Selected bitrate : 1024 kBit/s
Quality : High
Add ID3 tag : No
Command line compressor : C:\Program Files\FLAC\flac.exe
Additional command line options : -8 -V -T "ARTIST=%artist%" -T "TITLE=%title%" -T "ALBUM=%albumtitle%" -T "DATE=%year%" -T "TRACKNUMBER=%tracknr%" -T "GENRE=%genre%" -T "PERFORMER=%albuminterpret%" -T "COMPOSER=%composer%" %haslyrics%--tag-from-file=LYRICS="%lyricsfile%"%haslyrics% -T "ALBUMARTIST=%albumartist%" -T "DISCNUMBER=%cdnumber%" -T "TOTALDISCS=%totalcds%" -T "TOTALTRACKS=%numtracks%" -T "COMMENT=%comment%" %source% -o %dest%
TOC of the extracted CD
Track | Start | Length | Start sector | End sector
---------------------------------------------------------
1 | 0:00.00 | 5:08.51 | 0 | 23150
2 | 5:08.51 | 4:49.02 | 23151 | 44827
3 | 9:57.53 | 3:53.23 | 44828 | 62325
4 | 13:51.01 | 5:40.64 | 62326 | 87889
5 | 19:31.65 | 5:35.68 | 87890 | 113082
6 | 25:07.58 | 3:15.69 | 113083 | 127776
7 | 28:23.52 | 5:08.73 | 127777 | 150949
8 | 33:32.50 | 5:31.01 | 150950 | 175775
9 | 39:03.51 | 4:37.04 | 175776 | 196554
10 | 43:40.55 | 5:07.17 | 196555 | 219596
11 | 48:47.72 | 4:07.68 | 219597 | 238189
12 | 52:55.65 | 5:50.53 | 238190 | 264492
13 | 58:46.43 | 3:59.18 | 264493 | 282435
14 | 62:45.61 | 4:42.71 | 282436 | 303656
Track 1
Filename F:\MUSIC\0\POSTS\James Robinson - Guilty (1987) [2013 Japan]\01 - Can We Do It Again.wav
Pre-gap length 0:00:02.00
Peak level 98.3 %
Extraction speed 3.4 X
Track quality 100.0 %
Test CRC D3BA70B0
Copy CRC D3BA70B0
Accurately ripped (confidence 1) [7642AC42] (AR v2)
Copy OK
Track 2
Filename F:\MUSIC\0\POSTS\James Robinson - Guilty (1987) [2013 Japan]\02 - Guilty.wav
Peak level 98.3 %
Extraction speed 3.8 X
Track quality 100.0 %
Test CRC D3DD9960
Copy CRC D3DD9960
Accurately ripped (confidence 1) [CFA721F4] (AR v2)
Copy OK
Track 3
Filename F:\MUSIC\0\POSTS\James Robinson - Guilty (1987) [2013 Japan]\03 - Pretend.wav
Peak level 98.3 %
Extraction speed 4.1 X
Track quality 100.0 %
Test CRC 64A5F464
Copy CRC 64A5F464
Accurately ripped (confidence 1) [F293484A] (AR v2)
Copy OK
Track 4
Filename F:\MUSIC\0\POSTS\James Robinson - Guilty (1987) [2013 Japan]\04 - Feel Like Going On.wav
Peak level 98.3 %
Extraction speed 5.0 X
Track quality 100.0 %
Test CRC C64111B0
Copy CRC C64111B0
Accurately ripped (confidence 1) [422B2121] (AR v2)
Copy OK
Track 5
Filename F:\MUSIC\0\POSTS\James Robinson - Guilty (1987) [2013 Japan]\05 - Seems So Long.wav
Peak level 98.3 %
Extraction speed 5.3 X
Track quality 100.0 %
Test CRC 73A5CDE6
Copy CRC 73A5CDE6
Accurately ripped (confidence 1) [568CA165] (AR v2)
Copy OK
Track 6
Filename F:\MUSIC\0\POSTS\James Robinson - Guilty (1987) [2013 Japan]\06 - The Lord's Prayer.wav
Peak level 98.2 %
Extraction speed 5.1 X
Track quality 100.0 %
Test CRC 9CE4860E
Copy CRC 9CE4860E
Accurately ripped (confidence 1) [6ACB1EDB] (AR v2)
Copy OK
Track 7
Filename F:\MUSIC\0\POSTS\James Robinson - Guilty (1987) [2013 Japan]\07 - A Kind Of Love.wav
Peak level 98.3 %
Extraction speed 5.4 X
Track quality 100.0 %
Test CRC 3C348028
Copy CRC 3C348028
Accurately ripped (confidence 1) [EDBD13B5] (AR v2)
Copy OK
Track 8
Filename F:\MUSIC\0\POSTS\James Robinson - Guilty (1987) [2013 Japan]\08 - Just What I've Been Missing.wav
Peak level 98.3 %
Extraction speed 5.1 X
Track quality 99.9 %
Test CRC CB360AE8
Copy CRC CB360AE8
Accurately ripped (confidence 1) [8A7B1FE3] (AR v2)
Copy OK
Track 9
Filename F:\MUSIC\0\POSTS\James Robinson - Guilty (1987) [2013 Japan]\09 - When You'll Be Mine.wav
Peak level 98.3 %
Extraction speed 6.3 X
Track quality 100.0 %
Test CRC D48AD342
Copy CRC D48AD342
Accurately ripped (confidence 1) [C57A7E0F] (AR v2)
Copy OK
Track 10
Filename F:\MUSIC\0\POSTS\James Robinson - Guilty (1987) [2013 Japan]\10 - You're The One I've Been Dreaming Of.wav
Peak level 98.2 %
Extraction speed 6.2 X
Track quality 100.0 %
Test CRC A4B54CD5
Copy CRC A4B54CD5
Accurately ripped (confidence 1) [E63EF423] (AR v2)
Copy OK
Track 11
Filename F:\MUSIC\0\POSTS\James Robinson - Guilty (1987) [2013 Japan]\11 - Can We Do It Again (12'' Ver.).wav
Peak level 98.3 %
Extraction speed 5.8 X
Track quality 100.0 %
Test CRC 0BE0E1FD
Copy CRC 0BE0E1FD
Accurately ripped (confidence 1) [9E029DD9] (AR v2)
Copy OK
Track 12
Filename F:\MUSIC\0\POSTS\James Robinson - Guilty (1987) [2013 Japan]\12 - Just What I've Been Missing (Breakdown Mix).wav
Peak level 98.3 %
Extraction speed 7.1 X
Track quality 100.0 %
Test CRC D40E691C
Copy CRC D40E691C
Accurately ripped (confidence 1) [207469BB] (AR v2)
Copy OK
Track 13
Filename F:\MUSIC\0\POSTS\James Robinson - Guilty (1987) [2013 Japan]\13 - Just What I've Been Missing (Short Ver.).wav
Peak level 98.3 %
Extraction speed 6.8 X
Track quality 100.0 %
Test CRC D6672895
Copy CRC D6672895
Accurately ripped (confidence 1) [496B1DC0] (AR v2)
Copy OK
Track 14
Filename F:\MUSIC\0\POSTS\James Robinson - Guilty (1987) [2013 Japan]\14 - Just What I've Been Missing (Instr. Club Remix).wav
Peak level 98.2 %
Extraction speed 7.1 X
Track quality 100.0 %
Test CRC FD50B60C
Copy CRC FD50B60C
Accurately ripped (confidence 1) [A18F5811] (AR v2)
Copy OK
All tracks accurately ripped
No errors occurred
End of status report
==== Log checksum 81C9DEFB8D2960EE151D59042A51C513A51055EB33FB0BDAD344C4C6FB45880A ====
 
Содержание индексной карты (.CUE)
REM GENRE Soul
REM DATE 2013
REM DISCID C50FD00E
REM COMMENT "ExactAudioCopy v1.0b3"
PERFORMER "James Robinson"
TITLE "Guilty"
FILE "01 - Can We Do It Again.wav" WAVE
TRACK 01 AUDIO
TITLE "Can We Do It Again"
PERFORMER "James Robinson"
INDEX 01 00:00:00
FILE "02 - Guilty.wav" WAVE
TRACK 02 AUDIO
TITLE "Guilty"
PERFORMER "James Robinson"
INDEX 01 00:00:00
FILE "03 - Pretend.wav" WAVE
TRACK 03 AUDIO
TITLE "Pretend"
PERFORMER "James Robinson"
INDEX 01 00:00:00
FILE "04 - Feel Like Going On.wav" WAVE
TRACK 04 AUDIO
TITLE "Feel Like Going On"
PERFORMER "James Robinson"
INDEX 01 00:00:00
FILE "05 - Seems So Long.wav" WAVE
TRACK 05 AUDIO
TITLE "Seems So Long"
PERFORMER "James Robinson"
INDEX 01 00:00:00
FILE "06 - The Lord's Prayer.wav" WAVE
TRACK 06 AUDIO
TITLE "The Lord's Prayer"
PERFORMER "James Robinson"
INDEX 01 00:00:00
FILE "07 - A Kind Of Love.wav" WAVE
TRACK 07 AUDIO
TITLE "A Kind Of Love"
PERFORMER "James Robinson"
INDEX 01 00:00:00
FILE "08 - Just What I've Been Missing.wav" WAVE
TRACK 08 AUDIO
TITLE "Just What I've Been Missing"
PERFORMER "James Robinson"
INDEX 01 00:00:00
FILE "09 - When You'll Be Mine.wav" WAVE
TRACK 09 AUDIO
TITLE "When You'll Be Mine"
PERFORMER "James Robinson"
INDEX 01 00:00:00
FILE "10 - You're The One I've Been Dreaming Of.wav" WAVE
TRACK 10 AUDIO
TITLE "You're The One I've Been Dreaming Of"
PERFORMER "James Robinson"
INDEX 01 00:00:00
FILE "11 - Can We Do It Again (12'' Ver.).wav" WAVE
TRACK 11 AUDIO
TITLE "Can We Do It Again (12'' Ver.)"
PERFORMER "James Robinson"
INDEX 01 00:00:00
FILE "12 - Just What I've Been Missing (Breakdown Mix).wav" WAVE
TRACK 12 AUDIO
TITLE "Just What I've Been Missing (Breakdown Mix)"
PERFORMER "James Robinson"
INDEX 01 00:00:00
FILE "13 - Just What I've Been Missing (Short Ver.).wav" WAVE
TRACK 13 AUDIO
TITLE "Just What I've Been Missing (Short Ver.)"
PERFORMER "James Robinson"
INDEX 01 00:00:00
FILE "14 - Just What I've Been Missing (Instr. Club Remix).wav" WAVE
TRACK 14 AUDIO
TITLE "Just What I've Been Missing (Instr. Club Remix)"
PERFORMER "James Robinson"
INDEX 01 00:00:00
Приватный:
Нет (DHT включён)
Размер:
673.43 Мб (706,141,984 байт) » файлов: 35
Участники:
0 раздают, 0 качают (0 участников всего)
Внешние участники:
1 раздают, 0 качают (1 участников всего) [ Обновить ]
Есть вопросы - пишите личное сообщение пользователю M0p94ok.
06:22
71
Нет комментариев. Ваш будет первым!