Поиск

(Funk, Soul) [CD] Workshy - Smile Again - 2007 {Promo CD}, FLAC (tracks+.cue), lossless

(Funk, Soul) [CD] Workshy - Smile Again - 2007 {Promo CD}, FLAC (tracks+.cue), lossless
Треклист:
Workshy - Smile Again
Жанр: Funk, Soul
Носитель: CD
Страна-производитель диска (релиза): Japan
Год издания: 2007
Издатель (лейбл): Imperial Records
Номер по каталогу: TECI-24448
Аудиокодек: FLAC (*.flac)
Тип рипа: tracks+.cue
Битрейт аудио: lossless
Продолжительность: 38:54
Rip by JET 1
Наличие сканов в содержимом раздачи: да
Треклист:
01. Hello It's Me (3:25)
02. Smile (4:22)
03. Public Eye (3:34)
04. I Wonder (3:16)
05. Out of the Cold (4:23)
06. Call on Me (4:01)
07. Breakthrough (3:44)
08. Every Day's a Holiday (5:07)
09. The One You Love (3:48)
10. Start Again (3:15)
 
 
Лог создания рипа
Exact Audio Copy V1.0 beta 3 from 29. August 2011
EAC extraction logfile from 4. June 2015, 16:46
Workshy / Smile Again
Used drive : GENERIC CDRCB05 Adapter: 4 ID: 0
Read mode : Secure
Utilize accurate stream : Yes
Defeat audio cache : Yes
Make use of C2 pointers : No
Read offset correction : 102
Overread into Lead-In and Lead-Out : No
Fill up missing offset samples with silence : Yes
Delete leading and trailing silent blocks : No
Null samples used in CRC calculations : Yes
Used interface : Native Win32 interface for Win NT & 2000
Gap handling : Appended to previous track
Used output format : User Defined Encoder
Selected bitrate : 1024 kBit/s
Quality : High
Add ID3 tag : No
Command line compressor : C:\Program Files\FLAC\flac.exe
Additional command line options : -8 -V -T "ARTIST=%artist%" -T "TITLE=%title%" -T "ALBUM=%albumtitle%" -T "DATE=%year%" -T "TRACKNUMBER=%tracknr%" -T "GENRE=%genre%" -T "PERFORMER=%albuminterpret%" -T "COMPOSER=%composer%" %haslyrics%--tag-from-file=LYRICS="%lyricsfile%"%haslyrics% -T "ALBUMARTIST=%albumartist%" -T "DISCNUMBER=%cdnumber%" -T "TOTALDISCS=%totalcds%" -T "TOTALTRACKS=%numtracks%" -T "COMMENT=%comment%" %source% -o %dest%
TOC of the extracted CD
Track | Start | Length | Start sector | End sector
---------------------------------------------------------
1 | 0:00.00 | 3:25.15 | 0 | 15389
2 | 3:25.15 | 4:21.45 | 15390 | 35009
3 | 7:46.60 | 3:33.63 | 35010 | 51047
4 | 11:20.48 | 3:15.70 | 51048 | 65742
5 | 14:36.43 | 4:22.39 | 65743 | 85431
6 | 18:59.07 | 4:01.12 | 85432 | 103518
7 | 23:00.19 | 3:43.74 | 103519 | 120317
8 | 26:44.18 | 5:06.67 | 120318 | 143334
9 | 31:51.10 | 3:48.05 | 143335 | 160439
10 | 35:39.15 | 3:14.68 | 160440 | 175057
Track 1
Filename F:\MUSIC\0\POSTS\Workshy - Smile Again (2007)\01 - Hello It's Me.wav
Pre-gap length 0:00:02.00
Peak level 96.5 %
Extraction speed 2.0 X
Track quality 99.9 %
Test CRC 5CD4D64D
Copy CRC 5CD4D64D
Track not present in AccurateRip database
Copy OK
Track 2
Filename F:\MUSIC\0\POSTS\Workshy - Smile Again (2007)\02 - Smile.wav
Pre-gap length 0:00:01.00
Peak level 96.5 %
Extraction speed 2.3 X
Track quality 99.9 %
Test CRC 1CFEF3DD
Copy CRC 1CFEF3DD
Track not present in AccurateRip database
Copy OK
Track 3
Filename F:\MUSIC\0\POSTS\Workshy - Smile Again (2007)\03 - Public Eye.wav
Pre-gap length 0:00:01.00
Peak level 96.5 %
Extraction speed 2.8 X
Track quality 100.0 %
Test CRC 9B2061D9
Copy CRC 9B2061D9
Track not present in AccurateRip database
Copy OK
Track 4
Filename F:\MUSIC\0\POSTS\Workshy - Smile Again (2007)\04 - I Wonder.wav
Peak level 96.5 %
Extraction speed 2.9 X
Track quality 100.0 %
Test CRC 7877AFFE
Copy CRC 7877AFFE
Track not present in AccurateRip database
Copy OK
Track 5
Filename F:\MUSIC\0\POSTS\Workshy - Smile Again (2007)\05 - Out of the Cold.wav
Peak level 96.5 %
Extraction speed 3.2 X
Track quality 100.0 %
Test CRC 86603EDA
Copy CRC 86603EDA
Track not present in AccurateRip database
Copy OK
Track 6
Filename F:\MUSIC\0\POSTS\Workshy - Smile Again (2007)\06 - Call on Me.wav
Pre-gap length 0:00:01.00
Peak level 96.5 %
Extraction speed 3.3 X
Track quality 100.0 %
Test CRC B1589586
Copy CRC B1589586
Track not present in AccurateRip database
Copy OK
Track 7
Filename F:\MUSIC\0\POSTS\Workshy - Smile Again (2007)\07 - Breakthrough.wav
Pre-gap length 0:00:01.00
Peak level 96.5 %
Extraction speed 3.5 X
Track quality 100.0 %
Test CRC 6B620F7D
Copy CRC 6B620F7D
Track not present in AccurateRip database
Copy OK
Track 8
Filename F:\MUSIC\0\POSTS\Workshy - Smile Again (2007)\08 - Every Day's a Holiday.wav
Peak level 96.5 %
Extraction speed 3.8 X
Track quality 100.0 %
Test CRC 36A69AC8
Copy CRC 36A69AC8
Track not present in AccurateRip database
Copy OK
Track 9
Filename F:\MUSIC\0\POSTS\Workshy - Smile Again (2007)\09 - The One You Love.wav
Peak level 96.5 %
Extraction speed 3.3 X
Track quality 99.9 %
Test CRC 313BC55E
Copy CRC 313BC55E
Track not present in AccurateRip database
Copy OK
Track 10
Filename F:\MUSIC\0\POSTS\Workshy - Smile Again (2007)\10 - Start Again.wav
Pre-gap length 0:00:01.00
Peak level 96.5 %
Extraction speed 3.3 X
Track quality 99.9 %
Test CRC 5E6A16F4
Copy CRC 5E6A16F4
Track not present in AccurateRip database
Copy OK
None of the tracks are present in the AccurateRip database
No errors occurred
End of status report
==== Log checksum E996A1DDBB563C2DCF1646DDBF96FB201AF2B6B4E6510319947C9938374D0351 ====
 
Содержание индексной карты (.CUE)
REM GENRE Jazz
REM DATE 2007
REM DISCID 7C091E0A
REM COMMENT "ExactAudioCopy v1.0b3"
PERFORMER "Workshy"
TITLE "Smile Again"
FILE "01 - Hello It's Me.wav" WAVE
TRACK 01 AUDIO
TITLE "Hello It's Me"
PERFORMER "Workshy"
INDEX 01 00:00:00
TRACK 02 AUDIO
TITLE "Smile"
PERFORMER "Workshy"
INDEX 00 03:24:15
FILE "02 - Smile.wav" WAVE
INDEX 01 00:00:00
TRACK 03 AUDIO
TITLE "Public Eye"
PERFORMER "Workshy"
INDEX 00 04:20:45
FILE "03 - Public Eye.wav" WAVE
INDEX 01 00:00:00
FILE "04 - I Wonder.wav" WAVE
TRACK 04 AUDIO
TITLE "I Wonder"
PERFORMER "Workshy"
INDEX 01 00:00:00
FILE "05 - Out of the Cold.wav" WAVE
TRACK 05 AUDIO
TITLE "Out of the Cold"
PERFORMER "Workshy"
INDEX 01 00:00:00
TRACK 06 AUDIO
TITLE "Call on Me"
PERFORMER "Workshy"
INDEX 00 04:21:39
FILE "06 - Call on Me.wav" WAVE
INDEX 01 00:00:00
TRACK 07 AUDIO
TITLE "Breakthrough"
PERFORMER "Workshy"
INDEX 00 04:00:12
FILE "07 - Breakthrough.wav" WAVE
INDEX 01 00:00:00
FILE "08 - Every Day's a Holiday.wav" WAVE
TRACK 08 AUDIO
TITLE "Every Day's a Holiday"
PERFORMER "Workshy"
INDEX 01 00:00:00
FILE "09 - The One You Love.wav" WAVE
TRACK 09 AUDIO
TITLE "The One You Love"
PERFORMER "Workshy"
INDEX 01 00:00:00
TRACK 10 AUDIO
TITLE "Start Again"
PERFORMER "Workshy"
INDEX 00 03:47:05
FILE "10 - Start Again.wav" WAVE
INDEX 01 00:00:00
Приватный:
Нет (DHT включён)
Размер:
300.68 Мб (315,289,567 байт) » файлов: 19
Участники:
0 раздают, 0 качают (0 участников всего)
Внешние участники:
3 раздают, 1 качают (4 участников всего) [ Обновить ]
Есть вопросы - пишите личное сообщение пользователю M0p94ok.
06:21
58
Нет комментариев. Ваш будет первым!