Поиск

(Funk, Soul, isco) [CDM] Anita Ward - Ring My Bell (1990 Mega Remix) (Maxi CD Single) - 1990, FLAC (tracks+.cue), lossless

(Funk, Soul, isco) [CDM] Anita Ward - Ring My Bell (1990 Mega Remix) (Maxi CD Single) - 1990, FLAC (tracks+.cue), lossless
Треклист:
Anita Ward - Ring My Bell (1990 Mega Remix)
Жанр: Funk, Soul, Disco
Носитель: CDM
Страна-производитель диска (релиза): Germany
Год издания: 1990
Издатель (лейбл): BCM Records
Номер по каталогу: BCM 20487
Аудиокодек: FLAC (*.flac)
Тип рипа: tracks+.cue
Битрейт аудио: lossless
Продолжительность: 00:18:22
Источник (релизер): own rip
Наличие сканов в содержимом раздачи: да

1. Anita Ward - Ring My Bell (1990 Mega Remix 7'' Version) (3:50)
2. Anita Ward - Ring My Bell (1990 Mega Remix 12'' Version) (6:26)
3. Anita Ward - Ring My Bell (1979 Original 12'' Version) (8:06)
 
Лог создания рипа
Exact Audio Copy V1.0 beta 3 from 29. August 2011
EAC extraction logfile from 29. May 2015, 23:01
Anita Ward / Ring My Bell (1990 Mega Remix) [CDM]
Used drive : TSSTcorpCDDVDW SN-208BB Adapter: 0 ID: 0
Read mode : Secure
Utilize accurate stream : Yes
Defeat audio cache : Yes
Make use of C2 pointers : No
Read offset correction : 6
Overread into Lead-In and Lead-Out : No
Fill up missing offset samples with silence : Yes
Delete leading and trailing silent blocks : No
Null samples used in CRC calculations : Yes
Used interface : Native Win32 interface for Win NT & 2000
Gap handling : Appended to previous track
Used output format : User Defined Encoder
Selected bitrate : 1024 kBit/s
Quality : High
Add ID3 tag : No
Command line compressor : C:\Program Files (x86)\Exact Audio Copy\Flac\flac.exe
Additional command line options : -8 -V -T "artist=%artist%" -T "title=%title%" -T "album=%albumtitle%" -T "date=%year%" -T "tracknumber=%tracknr%" -T "genre=%genre%" %source%
TOC of the extracted CD
Track | Start | Length | Start sector | End sector
---------------------------------------------------------
1 | 0:00.00 | 3:49.60 | 0 | 17234
2 | 3:49.60 | 6:26.50 | 17235 | 46234
3 | 10:16.35 | 8:05.65 | 46235 | 82674
Track 1
Filename E:\Torrent\Anita Ward - Ring My Bell (1990 Mega Remix)\01 Ring My Bell (1990 Mega Remix 7'' Version).wav
Pre-gap length 0:00:02.00
Peak level 69.3 %
Extraction speed 1.6 X
Track quality 100.0 %
Test CRC 80EBD198
Copy CRC 80EBD198
Accurately ripped (confidence 6) [AD8C2966] (AR v2)
Copy OK
Track 2
Filename E:\Torrent\Anita Ward - Ring My Bell (1990 Mega Remix)\02 Ring My Bell (1990 Mega Remix 12'' Version).wav
Peak level 87.1 %
Extraction speed 2.0 X
Track quality 100.0 %
Test CRC F89BC179
Copy CRC F89BC179
Accurately ripped (confidence 6) [81D147DB] (AR v2)
Copy OK
Track 3
Filename E:\Torrent\Anita Ward - Ring My Bell (1990 Mega Remix)\03 Ring My Bell (1979 Original 12'' Version).wav
Peak level 95.5 %
Extraction speed 2.3 X
Track quality 100.0 %
Test CRC D9DFCF50
Copy CRC D9DFCF50
Accurately ripped (confidence 6) [0B59903A] (AR v2)
Copy OK
All tracks accurately ripped
No errors occurred
End of status report
 
Содержание индексной карты (.CUE)
REM GENRE R&B*
REM DATE 1990
REM DISCID 17044E03
REM COMMENT "ExactAudioCopy v1.0b3"
CATALOG 0000000000000
PERFORMER "Anita Ward"
TITLE "Ring My Bell (1990 Mega Remix) [CDM]"
FILE "01 Ring My Bell (1990 Mega Remix 7'' Version).wav" WAVE
TRACK 01 AUDIO
TITLE "Ring My Bell (1990 Mega Remix 7'' Version)"
PERFORMER "Anita Ward"
INDEX 01 00:00:00
FILE "02 Ring My Bell (1990 Mega Remix 12'' Version).wav" WAVE
TRACK 02 AUDIO
TITLE "Ring My Bell (1990 Mega Remix 12'' Version)"
PERFORMER "Anita Ward"
INDEX 01 00:00:00
FILE "03 Ring My Bell (1979 Original 12'' Version).wav" WAVE
TRACK 03 AUDIO
TITLE "Ring My Bell (1979 Original 12'' Version)"
PERFORMER "Anita Ward"
INDEX 01 00:00:00
Приватный:
Нет (DHT включён)
Размер:
121.03 Мб (126,906,808 байт) » файлов: 11
Участники:
0 раздают, 0 качают (0 участников всего)
Внешние участники:
3 раздают, 1 качают (4 участников всего) [ Обновить ]
Есть вопросы - пишите личное сообщение пользователю M0p94ok.
06:20
69
Нет комментариев. Ваш будет первым!