Поиск

(Soul) [CD] Sabrina Starke - Bags & Suitcases - 2010, FLAC (tracks+.cue), lossless

(Soul) [CD] Sabrina Starke - Bags & Suitcases - 2010, FLAC (tracks+.cue), lossless
Треклист:
Sabrina Starke - Bags & Suitcases Жанр: Soul
Носитель: CD
Год издания: 2010
Издатель (лейбл): Blue Note
Номер по каталогу: 50999 9091722
Аудиокодек: FLAC (*.flac)
Тип рипа: tracks+.cue
Битрейт аудио: lossless
Продолжительность: 46:05
Rip by JET 1
Наличие сканов в содержимом раздачи: да
Треклист:
01. Brand New (3:51)
02. Different People (3:43)
03. Another Shade (3:36)
04. Sunny Days (3:29)
05. Can't Keep Running Away (3:24)
06. Jasmine (4:07)
07. If Morning Comes (4:00)
08. Bags & Suitcases (3:08)
09. Happy (3:37)
10. Down The Road (4:14)
11. For Love / In The Moment (5:26)
12. So Magical (3:29)
 
 
Лог создания рипа
Exact Audio Copy V1.0 beta 3 from 29. August 2011
EAC extraction logfile from 3. June 2015, 19:51
Sabrina Starke / Bags & Suitcases
Used drive : ATAPI DVD A DH16A6L-C Adapter: 2 ID: 0
Read mode : Secure
Utilize accurate stream : Yes
Defeat audio cache : Yes
Make use of C2 pointers : No
Read offset correction : 6
Overread into Lead-In and Lead-Out : No
Fill up missing offset samples with silence : Yes
Delete leading and trailing silent blocks : No
Null samples used in CRC calculations : Yes
Used interface : Native Win32 interface for Win NT & 2000
Gap handling : Appended to previous track
Used output format : User Defined Encoder
Selected bitrate : 1024 kBit/s
Quality : High
Add ID3 tag : No
Command line compressor : C:\Program Files\FLAC\flac.exe
Additional command line options : -8 -V -T "ARTIST=%artist%" -T "TITLE=%title%" -T "ALBUM=%albumtitle%" -T "DATE=%year%" -T "TRACKNUMBER=%tracknr%" -T "GENRE=%genre%" -T "PERFORMER=%albuminterpret%" -T "COMPOSER=%composer%" %haslyrics%--tag-from-file=LYRICS="%lyricsfile%"%haslyrics% -T "ALBUMARTIST=%albumartist%" -T "DISCNUMBER=%cdnumber%" -T "TOTALDISCS=%totalcds%" -T "TOTALTRACKS=%numtracks%" -T "COMMENT=%comment%" %source% -o %dest%
TOC of the extracted CD
Track | Start | Length | Start sector | End sector
---------------------------------------------------------
1 | 0:00.00 | 3:51.10 | 0 | 17334
2 | 3:51.10 | 3:42.67 | 17335 | 34051
3 | 7:34.02 | 3:35.53 | 34052 | 50229
4 | 11:09.55 | 3:29.29 | 50230 | 65933
5 | 14:39.09 | 3:24.00 | 65934 | 81233
6 | 18:03.09 | 4:07.09 | 81234 | 99767
7 | 22:10.18 | 3:59.61 | 99768 | 117753
8 | 26:10.04 | 3:08.01 | 117754 | 131854
9 | 29:18.05 | 3:37.34 | 131855 | 148163
10 | 32:55.39 | 4:13.50 | 148164 | 167188
11 | 37:09.14 | 5:26.15 | 167189 | 191653
12 | 42:35.29 | 3:29.16 | 191654 | 207344
Track 1
Filename F:\MUSIC\0\POSTS\Sabrina Starke - Bags & Suitcases (2010)\01 - Sabrina Starke - Brand New.wav
Pre-gap length 0:00:02.00
Peak level 99.9 %
Extraction speed 3.3 X
Track quality 100.0 %
Test CRC 5130B182
Copy CRC 5130B182
Accurately ripped (confidence 13) [F8FDDC40] (AR v2)
Copy OK
Track 2
Filename F:\MUSIC\0\POSTS\Sabrina Starke - Bags & Suitcases (2010)\02 - Sabrina Starke - Different People.wav
Peak level 99.9 %
Extraction speed 3.6 X
Track quality 100.0 %
Test CRC 874CB58A
Copy CRC 874CB58A
Accurately ripped (confidence 13) [4B384E4F] (AR v2)
Copy OK
Track 3
Filename F:\MUSIC\0\POSTS\Sabrina Starke - Bags & Suitcases (2010)\03 - Sabrina Starke - Another Shade.wav
Peak level 99.9 %
Extraction speed 3.8 X
Track quality 100.0 %
Test CRC 99F11EDD
Copy CRC 99F11EDD
Accurately ripped (confidence 12) [42EAEF18] (AR v2)
Copy OK
Track 4
Filename F:\MUSIC\0\POSTS\Sabrina Starke - Bags & Suitcases (2010)\04 - Sabrina Starke - Sunny Days.wav
Peak level 99.9 %
Extraction speed 4.1 X
Track quality 100.0 %
Test CRC 3ECC00DA
Copy CRC 3ECC00DA
Accurately ripped (confidence 14) [C1371C30] (AR v2)
Copy OK
Track 5
Filename F:\MUSIC\0\POSTS\Sabrina Starke - Bags & Suitcases (2010)\05 - Sabrina Starke - Can't Keep Running Away.wav
Peak level 99.9 %
Extraction speed 4.4 X
Track quality 100.0 %
Test CRC E376CA10
Copy CRC E376CA10
Accurately ripped (confidence 13) [A884A83C] (AR v2)
Copy OK
Track 6
Filename F:\MUSIC\0\POSTS\Sabrina Starke - Bags & Suitcases (2010)\06 - Sabrina Starke - Jasmine.wav
Peak level 99.9 %
Extraction speed 3.7 X
Track quality 99.9 %
Test CRC CF2BF256
Copy CRC CF2BF256
Accurately ripped (confidence 13) [F1ABE20D] (AR v2)
Copy OK
Track 7
Filename F:\MUSIC\0\POSTS\Sabrina Starke - Bags & Suitcases (2010)\07 - Sabrina Starke - If Morning Comes.wav
Peak level 99.9 %
Extraction speed 4.9 X
Track quality 100.0 %
Test CRC BE4A6362
Copy CRC BE4A6362
Accurately ripped (confidence 14) [ED4605DD] (AR v2)
Copy OK
Track 8
Filename F:\MUSIC\0\POSTS\Sabrina Starke - Bags & Suitcases (2010)\08 - Sabrina Starke - Bags & Suitcases.wav
Peak level 99.9 %
Extraction speed 5.1 X
Track quality 100.0 %
Test CRC D4E4CA4A
Copy CRC D4E4CA4A
Accurately ripped (confidence 12) [4DB597C9] (AR v2)
Copy OK
Track 9
Filename F:\MUSIC\0\POSTS\Sabrina Starke - Bags & Suitcases (2010)\09 - Sabrina Starke - Happy.wav
Peak level 99.9 %
Extraction speed 4.3 X
Track quality 99.9 %
Test CRC 77DA0BE1
Copy CRC 77DA0BE1
Accurately ripped (confidence 13) [4BACFC16] (AR v2)
Copy OK
Track 10
Filename F:\MUSIC\0\POSTS\Sabrina Starke - Bags & Suitcases (2010)\10 - Sabrina Starke - Down The Road.wav
Peak level 99.9 %
Extraction speed 4.1 X
Track quality 99.9 %
Test CRC 224E8A35
Copy CRC 224E8A35
Accurately ripped (confidence 13) [05603C2B] (AR v2)
Copy OK
Track 11
Filename F:\MUSIC\0\POSTS\Sabrina Starke - Bags & Suitcases (2010)\11 - For Love - In The Moment.wav
Peak level 99.9 %
Extraction speed 5.2 X
Track quality 99.9 %
Test CRC F972A1F1
Copy CRC F972A1F1
Accurately ripped (confidence 14) [479E4F83] (AR v2)
Copy OK
Track 12
Filename F:\MUSIC\0\POSTS\Sabrina Starke - Bags & Suitcases (2010)\12 - Sabrina Starke - So Magical.wav
Peak level 99.9 %
Extraction speed 4.0 X
Track quality 99.9 %
Test CRC BC48B99D
Copy CRC BC48B99D
Accurately ripped (confidence 14) [54144A8C] (AR v2)
Copy OK
All tracks accurately ripped
No errors occurred
End of status report
==== Log checksum 671D5AA8396734091BD6F1F8B1B1A90FA26C500B65191414CB93122ACEEF2D1E ====
 
Содержание индексной карты (.CUE)
REM GENRE Jazz
REM DATE 2010
REM DISCID 9F0ACC0C
REM COMMENT "ExactAudioCopy v1.0b3"
PERFORMER "Sabrina Starke"
TITLE "Bags & Suitcases"
FILE "01. Brand New.wav" WAVE
TRACK 01 AUDIO
TITLE "Brand New"
PERFORMER "Sabrina Starke"
INDEX 01 00:00:00
FILE "02. Different People.wav" WAVE
TRACK 02 AUDIO
TITLE "Different People"
PERFORMER "Sabrina Starke"
INDEX 01 00:00:00
FILE "03. Another Shade.wav" WAVE
TRACK 03 AUDIO
TITLE "Another Shade"
PERFORMER "Sabrina Starke"
INDEX 01 00:00:00
FILE "04. Sunny Days.wav" WAVE
TRACK 04 AUDIO
TITLE "Sunny Days"
PERFORMER "Sabrina Starke"
INDEX 01 00:00:00
FILE "05. Can't Keep Running Away.wav" WAVE
TRACK 05 AUDIO
TITLE "Can't Keep Running Away"
PERFORMER "Sabrina Starke"
INDEX 01 00:00:00
FILE "06. Jasmine.wav" WAVE
TRACK 06 AUDIO
TITLE "Jasmine"
PERFORMER "Sabrina Starke"
INDEX 01 00:00:00
FILE "07. If Morning Comes.wav" WAVE
TRACK 07 AUDIO
TITLE "If Morning Comes"
PERFORMER "Sabrina Starke"
INDEX 01 00:00:00
FILE "08. Bags & Suitcases.wav" WAVE
TRACK 08 AUDIO
TITLE "Bags & Suitcases"
PERFORMER "Sabrina Starke"
INDEX 01 00:00:00
FILE "09. Happy.wav" WAVE
TRACK 09 AUDIO
TITLE "Happy"
PERFORMER "Sabrina Starke"
INDEX 01 00:00:00
FILE "10. Down The Road.wav" WAVE
TRACK 10 AUDIO
TITLE "Down The Road"
PERFORMER "Sabrina Starke"
INDEX 01 00:00:00
FILE "11. For Love - In The Moment.wav" WAVE
TRACK 11 AUDIO
TITLE "For Love / In The Moment"
PERFORMER "For Love"
INDEX 01 00:00:00
FILE "12. So Magical.wav" WAVE
TRACK 12 AUDIO
TITLE "So Magical"
PERFORMER "Sabrina Starke"
INDEX 01 00:00:00
Приватный:
Нет (DHT включён)
Размер:
424.53 Мб (445,155,760 байт) » файлов: 22
Участники:
0 раздают, 0 качают (0 участников всего)
Внешние участники:
3 раздают, 1 качают (4 участников всего) [ Обновить ]
Есть вопросы - пишите личное сообщение пользователю M0p94ok.
06:20
80
Нет комментариев. Ваш будет первым!