Поиск

(Funk, Soul) [CD] Rhythm Machine - Rhythm Machine (1976) - 2006, FLAC (tracks+.cue), lossless

(Funk, Soul) [CD] Rhythm Machine - Rhythm Machine (1976) - 2006, FLAC (tracks+.cue), lossless
Треклист:
Rhythm Machine - Rhythm Machine (1976)
Жанр: Funk, Soul
Носитель: CD
Страна-производитель диска (релиза): Japan
Год издания: 2006
Издатель (лейбл): Dizzare
Номер по каталогу: DIZ-016
Аудиокодек: FLAC (*.flac)
Тип рипа: tracks+.cue
Битрейт аудио: lossless
Продолжительность: 42:35
Rip by JET 1
Наличие сканов в содержимом раздачи: да
Треклист:
01. You Got Action, You Got Me (5:18)
02. Lil's Place (3:21)
03. Put A Smile On Time (3:55)
04. Thought My Love Was Fine (9:09)
05. Brenda And Me (8:35)
06. Everybody's Chippin (4:16)
07. You Make Me Feel Right, Think Right, Do Right (4:15)
08. Can't Do Without You (3:45)
 
 
Лог создания рипа
Exact Audio Copy V1.0 beta 3 from 29. August 2011
EAC extraction logfile from 4. June 2015, 3:29
Rhythm Machine / Rhythm Machine
Used drive : ATAPI DVD A DH16A6L-C Adapter: 2 ID: 0
Read mode : Secure
Utilize accurate stream : Yes
Defeat audio cache : Yes
Make use of C2 pointers : No
Read offset correction : 6
Overread into Lead-In and Lead-Out : No
Fill up missing offset samples with silence : Yes
Delete leading and trailing silent blocks : No
Null samples used in CRC calculations : Yes
Used interface : Native Win32 interface for Win NT & 2000
Gap handling : Appended to previous track
Used output format : User Defined Encoder
Selected bitrate : 1024 kBit/s
Quality : High
Add ID3 tag : No
Command line compressor : C:\Program Files\FLAC\flac.exe
Additional command line options : -8 -V -T "ARTIST=%artist%" -T "TITLE=%title%" -T "ALBUM=%albumtitle%" -T "DATE=%year%" -T "TRACKNUMBER=%tracknr%" -T "GENRE=%genre%" -T "PERFORMER=%albuminterpret%" -T "COMPOSER=%composer%" %haslyrics%--tag-from-file=LYRICS="%lyricsfile%"%haslyrics% -T "ALBUMARTIST=%albumartist%" -T "DISCNUMBER=%cdnumber%" -T "TOTALDISCS=%totalcds%" -T "TOTALTRACKS=%numtracks%" -T "COMMENT=%comment%" %source% -o %dest%
TOC of the extracted CD
Track | Start | Length | Start sector | End sector
---------------------------------------------------------
1 | 0:00.00 | 5:18.07 | 0 | 23856
2 | 5:18.07 | 3:20.71 | 23857 | 38927
3 | 8:39.03 | 3:54.67 | 38928 | 56544
4 | 12:33.70 | 9:09.34 | 56545 | 97753
5 | 21:43.29 | 8:34.56 | 97754 | 136359
6 | 30:18.10 | 4:16.05 | 136360 | 155564
7 | 34:34.15 | 4:15.17 | 155565 | 174706
8 | 38:49.32 | 3:45.36 | 174707 | 191617
Track 1
Filename F:\MUSIC\0\POSTS\Rhythm Machine - Rhythm Machine (1976) [2006 Japan]\01 - You Got Action, You Got Me.wav
Pre-gap length 0:00:02.00
Peak level 97.7 %
Extraction speed 1.5 X
Track quality 99.7 %
Test CRC 7F98A4C8
Copy CRC 7F98A4C8
Accurately ripped (confidence 5) [94BB432E] (AR v2)
Copy OK
Track 2
Filename F:\MUSIC\0\POSTS\Rhythm Machine - Rhythm Machine (1976) [2006 Japan]\02 - Lil's Place.wav
Pre-gap length 0:00:02.00
Peak level 97.7 %
Extraction speed 0.6 X
Track quality 99.3 %
Test CRC BC33D5C4
Copy CRC 67C1A0BB
Accurately ripped (confidence 5) [38864EAA] (AR v2)
Copy OK
Track 3
Filename F:\MUSIC\0\POSTS\Rhythm Machine - Rhythm Machine (1976) [2006 Japan]\03 - Put A Smile On Time.wav
Pre-gap length 0:00:02.00
Peak level 97.7 %
Extraction speed 0.4 X
Track quality 99.1 %
Test CRC 4FB2CB42
Copy CRC 2E11ACCE
Accurately ripped (confidence 5) [6E358A30] (AR v2)
Copy OK
Track 4
Filename F:\MUSIC\0\POSTS\Rhythm Machine - Rhythm Machine (1976) [2006 Japan]\04 - Thought My Love Was Fine.wav
Pre-gap length 0:00:02.00
Peak level 97.7 %
Extraction speed 0.8 X
Track quality 99.4 %
Test CRC 6302AB8E
Copy CRC 6302AB8E
Accurately ripped (confidence 5) [DACA0681] (AR v2)
Copy OK
Track 5
Filename F:\MUSIC\0\POSTS\Rhythm Machine - Rhythm Machine (1976) [2006 Japan]\05 - Brenda And Me.wav
Pre-gap length 0:00:02.00
Peak level 97.7 %
Extraction speed 1.1 X
Track quality 99.5 %
Test CRC A9A2EEE1
Copy CRC A9A2EEE1
Accurately ripped (confidence 5) [ACA5161D] (AR v2)
Copy OK
Track 6
Filename F:\MUSIC\0\POSTS\Rhythm Machine - Rhythm Machine (1976) [2006 Japan]\06 - Everybody's Chippin.wav
Pre-gap length 0:00:02.00
Peak level 97.7 %
Extraction speed 1.1 X
Track quality 99.4 %
Test CRC CFDB759B
Copy CRC CFDB759B
Accurately ripped (confidence 5) [CBD7777A] (AR v2)
Copy OK
Track 7
Filename F:\MUSIC\0\POSTS\Rhythm Machine - Rhythm Machine (1976) [2006 Japan]\07 - You Make Me Feel Right, Think Right, Do Right.wav
Pre-gap length 0:00:02.00
Peak level 97.7 %
Extraction speed 1.3 X
Track quality 99.6 %
Test CRC 23ACDD92
Copy CRC 23ACDD92
Accurately ripped (confidence 5) [9BE23E44] (AR v2)
Copy OK
Track 8
Filename F:\MUSIC\0\POSTS\Rhythm Machine - Rhythm Machine (1976) [2006 Japan]\08 - Can't Do Without You.wav
Pre-gap length 0:00:02.00
Peak level 97.7 %
Extraction speed 2.7 X
Track quality 99.9 %
Test CRC 97EB7716
Copy CRC 97EB7716
Accurately ripped (confidence 5) [6F4972C3] (AR v2)
Copy OK
All tracks accurately ripped
No errors occurred
End of status report
==== Log checksum F96C5F23A201A06FCD2CAD47021DE30C1E06101D19F5317382A77C1F8ABCC5FA ====
 
Содержание индексной карты (.CUE)
REM GENRE Funk
REM DATE 1976
REM DISCID 4C09FA08
REM COMMENT "ExactAudioCopy v1.0b3"
PERFORMER "Rhythm Machine"
TITLE "Rhythm Machine"
FILE "01 - You Got Action, You Got Me.wav" WAVE
TRACK 01 AUDIO
TITLE "You Got Action, You Got Me"
PERFORMER "Rhythm Machine"
INDEX 01 00:00:00
TRACK 02 AUDIO
TITLE "Lil's Place"
PERFORMER "Rhythm Machine"
INDEX 00 05:16:07
FILE "02 - Lil's Place.wav" WAVE
INDEX 01 00:00:00
TRACK 03 AUDIO
TITLE "Put A Smile On Time"
PERFORMER "Rhythm Machine"
INDEX 00 03:18:71
FILE "03 - Put A Smile On Time.wav" WAVE
INDEX 01 00:00:00
TRACK 04 AUDIO
TITLE "Thought My Love Was Fine"
PERFORMER "Rhythm Machine"
INDEX 00 03:52:67
FILE "04 - Thought My Love Was Fine.wav" WAVE
INDEX 01 00:00:00
TRACK 05 AUDIO
TITLE "Brenda And Me"
PERFORMER "Rhythm Machine"
INDEX 00 09:07:34
FILE "05 - Brenda And Me.wav" WAVE
INDEX 01 00:00:00
TRACK 06 AUDIO
TITLE "Everybody's Chippin"
PERFORMER "Rhythm Machine"
INDEX 00 08:32:56
FILE "06 - Everybody's Chippin.wav" WAVE
INDEX 01 00:00:00
TRACK 07 AUDIO
TITLE "You Make Me Feel Right, Think Right, Do Right"
PERFORMER "Rhythm Machine"
INDEX 00 04:14:05
FILE "07 - You Make Me Feel Right, Think Right, Do Right.wav" WAVE
INDEX 01 00:00:00
TRACK 08 AUDIO
TITLE "Can't Do Without You"
PERFORMER "Rhythm Machine"
INDEX 00 04:13:17
FILE "08 - Can't Do Without You.wav" WAVE
INDEX 01 00:00:00
Приватный:
Нет (DHT включён)
Размер:
361.65 Мб (379,219,777 байт) » файлов: 25
Участники:
0 раздают, 0 качают (0 участников всего)
Внешние участники:
3 раздают, 1 качают (4 участников всего) [ Обновить ]
Есть вопросы - пишите личное сообщение пользователю M0p94ok.
06:19
65
Нет комментариев. Ваш будет первым!