Поиск

(Funk/Rhythm & Soul/Jazz) [CD] Bluey - Life Between The Notes - 2015, FLAC (image+.cue), lossless

(Funk/Rhythm & Soul/Jazz) [CD] Bluey - Life Between The Notes - 2015, FLAC (image+.cue), lossless
Треклист:
Bluey / Life Between The Notes
Жанр: Funk/Rhythm & Soul/Jazz
Носитель: CD
Страна-производитель диска (релиза): England
Год издания: 2015
Издатель (лейбл): Dome Records Ltd/Bluey Music Ltd
Номер по каталогу: DOME CD 331
Аудиокодек: FLAC (*.flac)
Тип рипа: image+.cue
Битрейт аудио: lossless
Продолжительность: 57'36''
Источник (релизер): RedHotBlues
Наличие сканов в содержимом раздачи: да
Треклист:
CD: Bluey - Life Between The Notes
01. Dance To My Drums [0:01:33.42]
02. Life Between The Notes [0:05:12.23]
03. Hold On [0:05:23.72]
04. Saints And Sinners [0:04:49.57]
05. Trippin' On This Feelin' [0:04:25.13]
06. I've Got A Weakness For You Love [0:04:34.19]
07. Tomorrow Never Lies [0:04:49.49]
08. Columbus Avenue [0:04:56.51]
09. Caught Up In The Grey [0:03:58.45]
10. Been There Before [0:04:06.17]
11. More Than Getting By [0:03:07.23]
12. The Poetry Of Life [0:04:48.10]
13. Sunships On The Shores Of Mars [0:05:48.52]
 
Лог создания рипа
Exact Audio Copy V1.0 beta 4 from 7. December 2014
Отчёт EAC об извлечении, выполненном 2. июня 2015, 23:30
Bluey / Life Between The Notes
Дисковод: ATAPI iHAS122 E Adapter: 1 ID: 1
Режим чтения : Достоверность
Использование точного потока : Да
Отключение кэша аудио : Да
Использование указателей C2 : Нет
Коррекция смещения при чтении : 6
Способность читать области Lead-in и Lead-out : Нет
Заполнение пропущенных сэмплов тишиной : Да
Удаление блоков с тишиной в начале и конце : Нет
При вычислениях CRC использовались нулевые сэмплы : Да
Интерфейс : Встроенный Win32-интерфейс для Win NT/2000
Выходной формат : Пользовательский кодировщик
Выбранный битрейт : 768 kBit/s
Качество : Высокий
Добавление ID3-тега : Нет
Утилита сжатия : C:\Program Files\Exact Audio Copy\FLAC\FLAC.EXE
Дополнительные параметры : -6 -V -T "ARTIST=%artist%" -T "TITLE=%title%" -T "ALBUM=%albumtitle%" -T "DATE=%year%" -T "TRACKNUMBER=%tracknr%" -T "GENRE=%genre%" -T "COMMENT=%comment%" -T "BAND=%albuminterpret%" -T "ALBUMARTIST=%albuminterpret%" -T "COMPOSER=%composer%" %haslyrics%--tag-from-file=LYRICS="%lyricsfile%"%haslyrics% -T "DISCNUMBER=%cdnumber%" -T "TOTALDISCS=%totalcds%" -T "TOTALTRACKS=%numtracks%" %hascover%--picture="%coverfile%"%hascover% %source% -o %dest%
TOC извлечённого CD
Трек | Старт | Длительность | Начальный сектор | Конечный сектор
---------------------------------------------------------------------
1 | 0:00.00 | 1:33.42 | 0 | 7016
2 | 1:33.42 | 5:12.23 | 7017 | 30439
3 | 6:45.65 | 5:23.72 | 30440 | 54736
4 | 12:09.62 | 4:49.57 | 54737 | 76468
5 | 16:59.44 | 4:25.13 | 76469 | 96356
6 | 21:24.57 | 4:34.19 | 96357 | 116925
7 | 25:59.01 | 4:49.49 | 116926 | 138649
8 | 30:48.50 | 4:56.51 | 138650 | 160900
9 | 35:45.26 | 3:58.45 | 160901 | 178795
10 | 39:43.71 | 4:06.17 | 178796 | 197262
11 | 43:50.13 | 3:07.23 | 197263 | 211310
12 | 46:57.36 | 4:48.10 | 211311 | 232920
13 | 51:45.46 | 5:48.52 | 232921 | 259072
Характеристики диапазона извлечения и сообщения об ошибках
Выбранный диапазон
Имя файла C:\Users\Евгений\Desktop\Bluey - Life Between The Notes - 2015 - 57'36''\Bluey - Life Between The Notes.wav
Пиковый уровень 98.8 %
Скорость извлечения 3.4 X
Качество диапазона 100.0 %
CRC теста 29005D91
CRC копии 29005D91
Копирование... OK
Ошибок не произошло
Конец отчёта
---- CUETools DB Plugin V2.1.4
[CTDB TOCID: j37Yo97ifPM0thE5dlv.WQH7w7w-] disk not present in database
Submit result: j37Yo97ifPM0thE5dlv.WQH7w7w- has been uploaded
==== Контрольная сумма отчёта B9405243302532166A9C55FC4A2CE525967A3E29618E3949E0FC4870B648E3E2 ====
 
Лог проверки качества
-----------------------
DON'T MODIFY THIS FILE
-----------------------
PERFORMER: auCDtect Task Manager, ver. 1.5.1RC4 build 1.5.1.5
Copyright (c) 2008-2010 y-soft. All rights reserved
http://y-soft.org
ANALYZER: auCDtect: CD records authenticity detector, version 0.8.2
Copyright (c) 2004 Oleg Berngardt. All rights reserved.
Copyright (c) 2004 Alexander Djourik. All rights reserved.
FILE: Bluey - Life Between The Notes.flac
Size: 394687242 Hash: 805A32279F204933CFFE2A327A4899BF Accuracy: -m0
Conclusion: CDDA 99%
Signature: 2E72FB019412CAA9FE646B4227EC331E48DA42F5
 
Скриншот спектра частот
Доп. информация: С имеющимся параллельным релизом
http://rutracker.org/forum/viewtopic.php?t=5004699
идентичности не наблюдалось - издания
разные, соответственно и ТОСы разные.
 
matrix
Приватный:
Нет (DHT включён)
Размер:
480.57 Мб (503,910,792 байт) » файлов: 14
Участники:
0 раздают, 0 качают (0 участников всего)
Внешние участники:
1 раздают, 0 качают (1 участников всего) [ Обновить ]
Есть вопросы - пишите личное сообщение пользователю M0p94ok.
06:23
66
Нет комментариев. Ваш будет первым!