Поиск

(Funk\Soul\Disco) [CD] MFSB - The Best Of MFSB: Love Is The Message - 1995, FLAC (tracks+.cue), lossless

(Funk\Soul\Disco) [CD] MFSB - The Best Of MFSB: Love Is The Message - 1995, FLAC (tracks+.cue), lossless
Треклист:
MFSB / The Best Of MFSB: Love Is The Message
Жанр: Funk\Soul\Disco
Носитель: CD
Страна-производитель диска (релиза): USA
Год издания: 1995
Издатель (лейбл): Legacy
Номер по каталогу: ZK 66689
Страна исполнителя (группы): USA
Аудиокодек: FLAC (*.flac)
Тип рипа: tracks+.cue
Битрейт аудио: lossless
Продолжительность: 1:16:50
Источник (релизер): solange
Наличие сканов в содержимом раздачи: да
Треклист:
01. Interlude 1
02. Love Is The Message
03. Poinciana
04. Freddie's Dead
05. My One And Only Love
06. Sexy
07. Something For Nothing
08. Zack's Fanfare (I Hear Music)
09. Back Stabber's
10. Bitter Sweet
11. T.S.O.P. (The Sound of Philadelphia)
12. Cheaper To Keep Her
13. My Mood
14. T.L.C. (Tender Lovin' Care)
15. Philadelphia Freedom
16. Smile Happy
 
Лог создания рипа
Exact Audio Copy V0.99 prebeta 5 from 4. May 2009
EAC extraction logfile from 31. October 2009, 12:42
MFSB / The Best Of MFSB - Love Is The Message
Used drive : SONY DVD RW DW-G120A Adapter: 0 ID: 0
Read mode : Secure
Utilize accurate stream : Yes
Defeat audio cache : Yes
Make use of C2 pointers : No
Read offset correction : 6
Overread into Lead-In and Lead-Out : No
Fill up missing offset samples with silence : Yes
Delete leading and trailing silent blocks : No
Null samples used in CRC calculations : Yes
Used interface : Native Win32 interface for Win NT & 2000
Gap handling : Appended to previous track
Used output format : Internal WAV Routines
Sample format : 44.100 Hz; 16 Bit; Stereo
TOC of the extracted CD
Track | Start | Length | Start sector | End sector
---------------------------------------------------------
1 | 0:00.00 | 0:51.70 | 0 | 3894
2 | 0:51.70 | 6:36.15 | 3895 | 33609
3 | 7:28.10 | 5:52.40 | 33610 | 60049
4 | 13:20.50 | 7:10.55 | 60050 | 92354
5 | 20:31.30 | 4:34.37 | 92355 | 112941
6 | 25:05.67 | 3:33.40 | 112942 | 128956
7 | 28:39.32 | 2:58.48 | 128957 | 142354
8 | 31:38.05 | 0:50.10 | 142355 | 146114
9 | 32:28.15 | 6:29.60 | 146115 | 175349
10 | 38:58.00 | 5:24.50 | 175350 | 199699
11 | 44:22.50 | 5:48.40 | 199700 | 225839
12 | 50:11.15 | 6:54.30 | 225840 | 256919
13 | 57:05.45 | 4:10.50 | 256920 | 275719
14 | 61:16.20 | 3:42.12 | 275720 | 292381
15 | 64:58.32 | 6:00.63 | 292382 | 319444
16 | 70:59.20 | 5:50.67 | 319445 | 345761
Track 1
Filename O:\Temp\MFSB - 1995 - The Best Of MFSB - Love Is The Message [FLAC]\MFSB - 01 - Interlude 1.wav
Pre-gap length 0:00:02.00
Peak level 100.0 %
Track quality 100.0 %
Test CRC 4B66808A
Copy CRC 4B66808A
Accurately ripped (confidence 2) [E87AB282]
Copy OK
Track 2
Filename O:\Temp\MFSB - 1995 - The Best Of MFSB - Love Is The Message [FLAC]\MFSB - 02 - Love Is The Message.wav
Peak level 100.0 %
Track quality 100.0 %
Test CRC CA2BAD3E
Copy CRC CA2BAD3E
Accurately ripped (confidence 2) [5DB23A31]
Copy OK
Track 3
Filename O:\Temp\MFSB - 1995 - The Best Of MFSB - Love Is The Message [FLAC]\MFSB - 03 - Poinciana.wav
Pre-gap length 0:00:00.32
Peak level 100.0 %
Track quality 100.0 %
Test CRC 37D0C0C1
Copy CRC 37D0C0C1
Accurately ripped (confidence 2) [CB86CF82]
Copy OK
Track 4
Filename O:\Temp\MFSB - 1995 - The Best Of MFSB - Love Is The Message [FLAC]\MFSB - 04 - Freddie's Dead.wav
Peak level 100.0 %
Track quality 100.0 %
Test CRC 48E6EDB9
Copy CRC 48E6EDB9
Accurately ripped (confidence 2) [46237130]
Copy OK
Track 5
Filename O:\Temp\MFSB - 1995 - The Best Of MFSB - Love Is The Message [FLAC]\MFSB - 05 - My One And Only Love.wav
Pre-gap length 0:00:00.01
Peak level 84.1 %
Track quality 100.0 %
Test CRC FB56226B
Copy CRC FB56226B
Accurately ripped (confidence 2) [CCE0D374]
Copy OK
Track 6
Filename O:\Temp\MFSB - 1995 - The Best Of MFSB - Love Is The Message [FLAC]\MFSB - 06 - Sexy.wav
Peak level 89.1 %
Track quality 99.9 %
Test CRC B5026BD7
Copy CRC B5026BD7
Accurately ripped (confidence 2) [96A9CE3F]
Copy OK
Track 7
Filename O:\Temp\MFSB - 1995 - The Best Of MFSB - Love Is The Message [FLAC]\MFSB - 07 - Something For Nothing.wav
Peak level 99.4 %
Track quality 99.9 %
Test CRC 40056104
Copy CRC 40056104
Accurately ripped (confidence 2) [669FF59B]
Copy OK
Track 8
Filename O:\Temp\MFSB - 1995 - The Best Of MFSB - Love Is The Message [FLAC]\MFSB - 08 - Zack's Fanfare (I Hear Music).wav
Peak level 91.8 %
Track quality 99.7 %
Test CRC B43DBF91
Copy CRC B43DBF91
Accurately ripped (confidence 2) [11F92F91]
Copy OK
Track 9
Filename O:\Temp\MFSB - 1995 - The Best Of MFSB - Love Is The Message [FLAC]\MFSB - 09 - Back Stabber's.wav
Peak level 100.0 %
Track quality 100.0 %
Test CRC C483BF8F
Copy CRC C483BF8F
Accurately ripped (confidence 2) [30DD95B9]
Copy OK
Track 10
Filename O:\Temp\MFSB - 1995 - The Best Of MFSB - Love Is The Message [FLAC]\MFSB - 10 - Bitter Sweet.wav
Pre-gap length 0:00:00.04
Peak level 96.5 %
Track quality 100.0 %
Test CRC 266E0897
Copy CRC 266E0897
Accurately ripped (confidence 2) [6B845443]
Copy OK
Track 11
Filename O:\Temp\MFSB - 1995 - The Best Of MFSB - Love Is The Message [FLAC]\MFSB - 11 - T.S.O.P. (The Sound of Philadelphia).wav
Pre-gap length 0:00:00.25
Peak level 88.6 %
Track quality 100.0 %
Test CRC 892D6D03
Copy CRC 892D6D03
Accurately ripped (confidence 2) [13046C3E]
Copy OK
Track 12
Filename O:\Temp\MFSB - 1995 - The Best Of MFSB - Love Is The Message [FLAC]\MFSB - 12 - Cheaper To Keep Her.wav
Peak level 97.7 %
Track quality 99.9 %
Test CRC DD71D33D
Copy CRC DD71D33D
Accurately ripped (confidence 2) [99F97EA8]
Copy OK
Track 13
Filename O:\Temp\MFSB - 1995 - The Best Of MFSB - Love Is The Message [FLAC]\MFSB - 13 - My Mood.wav
Peak level 89.1 %
Track quality 100.0 %
Test CRC 3FDF8CA7
Copy CRC 3FDF8CA7
Accurately ripped (confidence 2) [DB3D03B0]
Copy OK
Track 14
Filename O:\Temp\MFSB - 1995 - The Best Of MFSB - Love Is The Message [FLAC]\MFSB - 14 - T.L.C. (Tender Lovin' Care).wav
Pre-gap length 0:00:00.38
Peak level 99.9 %
Track quality 99.9 %
Test CRC A89046FA
Copy CRC A89046FA
Accurately ripped (confidence 2) [3ED44B5B]
Copy OK
Track 15
Filename O:\Temp\MFSB - 1995 - The Best Of MFSB - Love Is The Message [FLAC]\MFSB - 15 - Philadelphia Freedom.wav
Peak level 100.0 %
Track quality 100.0 %
Test CRC 469D6796
Copy CRC 469D6796
Accurately ripped (confidence 2) [A574D652]
Copy OK
Track 16
Filename O:\Temp\MFSB - 1995 - The Best Of MFSB - Love Is The Message [FLAC]\MFSB - 16 - Smile Happy.wav
Peak level 99.9 %
Track quality 100.0 %
Test CRC 8C4C51B4
Copy CRC 8C4C51B4
Accurately ripped (confidence 2) [C6B05BC4]
Copy OK
All tracks accurately ripped
No errors occurred
End of status report
 
Содержание индексной карты (.CUE)
REM GENRE R&B
REM DATE 1995
REM DISCID BA120210
REM COMMENT "ExactAudioCopy v0.99pb5"
FILE "MFSB - 01 - Interlude 1.flac" WAVE
TRACK 01 AUDIO
INDEX 01 00:00:00
FILE "MFSB - 02 - Love Is The Message.flac" WAVE
TRACK 02 AUDIO
INDEX 01 00:00:00
TRACK 03 AUDIO
INDEX 00 06:35:66
FILE "MFSB - 03 - Poinciana.flac" WAVE
INDEX 01 00:00:00
FILE "MFSB - 04 - Freddie's Dead.flac" WAVE
TRACK 04 AUDIO
INDEX 01 00:00:00
TRACK 05 AUDIO
INDEX 00 07:10:54
FILE "MFSB - 05 - My One And Only Love.flac" WAVE
INDEX 01 00:00:00
FILE "MFSB - 06 - Sexy.flac" WAVE
TRACK 06 AUDIO
INDEX 01 00:00:00
FILE "MFSB - 07 - Something For Nothing.flac" WAVE
TRACK 07 AUDIO
INDEX 01 00:00:00
FILE "MFSB - 08 - Zack's Fanfare (I Hear Music).flac" WAVE
TRACK 08 AUDIO
INDEX 01 00:00:00
FILE "MFSB - 09 - Back Stabber's.flac" WAVE
TRACK 09 AUDIO
INDEX 01 00:00:00
TRACK 10 AUDIO
INDEX 00 06:29:57
FILE "MFSB - 10 - Bitter Sweet.flac" WAVE
INDEX 01 00:00:00
TRACK 11 AUDIO
INDEX 00 05:24:31
FILE "MFSB - 11 - T.S.O.P. (The Sound of Philadelphia).flac" WAVE
INDEX 01 00:00:00
FILE "MFSB - 12 - Cheaper To Keep Her.flac" WAVE
TRACK 12 AUDIO
INDEX 01 00:00:00
FILE "MFSB - 13 - My Mood.flac" WAVE
TRACK 13 AUDIO
INDEX 01 00:00:00
TRACK 14 AUDIO
INDEX 00 04:10:21
FILE "MFSB - 14 - T.L.C. (Tender Lovin' Care).flac" WAVE
INDEX 01 00:00:00
FILE "MFSB - 15 - Philadelphia Freedom.flac" WAVE
TRACK 15 AUDIO
INDEX 01 00:00:00
FILE "MFSB - 16 - Smile Happy.flac" WAVE
TRACK 16 AUDIO
INDEX 01 00:00:00
Приватный:
Нет (DHT включён)
Размер:
572.56 Мб (600,375,190 байт) » файлов: 26
Участники:
0 раздают, 0 качают (0 участников всего)
Внешние участники:
--- [ Обновить ]
Есть вопросы - пишите личное сообщение пользователю M0p94ok.
06:23
64
Нет комментариев. Ваш будет первым!