Поиск

(R&B, soul, funk) Roger (Roger Troutman, and with The Human Body) - дискография 1976-1991 (7CD), FLAC (tracks+.cue), lossless

(R&B, soul, funk) Roger (Roger Troutman, and with The Human Body) - дискография 1976-1991 (7CD), FLAC (tracks+.cue), lossless
Треклист:
Roger (Roger Troutman, and with The Human Body) - дискография 1976-1991 (7CD)
Жанр: R&B, soul, funk
Носитель: CD
Год издания: 1976-1991
Страна исполнителя (группы): US
 
 
 
 
 
 
 
 
 
 
 
 
 
 
 
 
 
 
 
 
 
 
Studio Albums
 
1976. Roger & The Human Body - Introducing Roger
Страна-производитель диска: Japan
Год первого выпуска: 1976
Год настоящего издания: 2015
Издатель (лейбл): KTI
Номер по каталогу: KTIC-1005
Format: CD, Album, Limited Edition, Reissue, Paper Sleeve
Аудиокодек: FLAC (*.flac)
Тип рипа: tracks+.cue
Битрейт аудио: lossless
Продолжительность: 00:49:16
Источник (релизер): lectro.ws
Наличие сканов в содержимом раздачи: нет CD
Треклист:
01. Freedom (Pts. I & II) (05:57)
02. Truth Be Known (03:58)
03. Brother Lester (02:54)
04. Bearings Straight (Pts. I & II) (06:57)
05. Nature's Song (08:03)
06. Hey Mama (05:26)
07. Been This Way Before (08:24)
08. Take A Break (03:33)
Bonus Track
09. Love TKO (04:02)
 
Лог создания рипа
Exact Audio Copy V1.0 beta 3 from 29. August 2011
EAC extraction logfile from 3. April 2015, 17:36
Roger & The Human Body / Introducing Roger
Used drive : TSSTcorpCDDVDW TS-L633C Adapter: 1 ID: 0
Read mode : Secure
Utilize accurate stream : Yes
Defeat audio cache : Yes
Make use of C2 pointers : No
Read offset correction : 6
Overread into Lead-In and Lead-Out : No
Fill up missing offset samples with silence : Yes
Delete leading and trailing silent blocks : No
Null samples used in CRC calculations : Yes
Used interface : Native Win32 interface for Win NT & 2000
Gap handling : Appended to previous track
Used output format : User Defined Encoder
Selected bitrate : 768 kBit/s
Quality : High
Add ID3 tag : No
Command line compressor : C:\Program Files (x86)\Exact Audio Copy\FLAC\FLAC.EXE
Additional command line options : -6 -V -T "ARTIST=%artist%" -T "TITLE=%title%" -T "ALBUM=%albumtitle%" -T "DATE=%year%" -T "TRACKNUMBER=%tracknr%" -T "GENRE=%genre%" -T "COMMENT=%comment%" -T "BAND=%albuminterpret%" -T "ALBUMARTIST=%albuminterpret%" -T "COMPOSER=%composer%" %haslyrics%--tag-from-file=LYRICS="%lyricsfile%"%haslyrics% -T "DISCNUMBER=%cdnumber%" -T "TOTALDISCS=%totalcds%" -T "TOTALTRACKS=%numtracks%" %hascover%--picture="%coverfile%"%hascover% %source% -o %dest%
TOC of the extracted CD
Track | Start | Length | Start sector | End sector
---------------------------------------------------------
1 | 0:00.00 | 5:57.69 | 0 | 26843
2 | 5:57.69 | 3:58.41 | 26844 | 44734
3 | 9:56.35 | 2:54.49 | 44735 | 57833
4 | 12:51.09 | 6:57.25 | 57834 | 89133
5 | 19:48.34 | 8:02.72 | 89134 | 125355
6 | 27:51.31 | 5:26.07 | 125356 | 149812
7 | 33:17.38 | 8:24.10 | 149813 | 187622
8 | 41:41.48 | 3:33.17 | 187623 | 203614
9 | 45:14.65 | 4:02.00 | 203615 | 221764
Track 1
Filename C:\Users\Ciph Dizzle\Desktop\CD [FLAC]\Roger & The Human Body\Introducing Roger (1976) [FLAC]\01 - Roger & The Human Body - Freedom- Pts. I & II.wav
Pre-gap length 0:00:02.00
Peak level 93.9 %
Extraction speed 2.0 X
Track quality 99.9 %
Test CRC 58F26CB1
Copy CRC 58F26CB1
Track not present in AccurateRip database
Copy OK
Track 2
Filename C:\Users\Ciph Dizzle\Desktop\CD [FLAC]\Roger & The Human Body\Introducing Roger (1976) [FLAC]\02 - Roger & The Human Body - Truth Be Known.wav
Peak level 92.1 %
Extraction speed 2.5 X
Track quality 100.0 %
Test CRC 86AC077C
Copy CRC 86AC077C
Track not present in AccurateRip database
Copy OK
Track 3
Filename C:\Users\Ciph Dizzle\Desktop\CD [FLAC]\Roger & The Human Body\Introducing Roger (1976) [FLAC]\03 - Roger & The Human Body - Brother Lester.wav
Peak level 93.9 %
Extraction speed 2.5 X
Track quality 100.0 %
Test CRC 5DD486D8
Copy CRC 5DD486D8
Track not present in AccurateRip database
Copy OK
Track 4
Filename C:\Users\Ciph Dizzle\Desktop\CD [FLAC]\Roger & The Human Body\Introducing Roger (1976) [FLAC]\04 - Roger & The Human Body - Bearings Straight- Pts. I & II.wav
Peak level 96.4 %
Extraction speed 2.7 X
Track quality 99.9 %
Test CRC 4DCC518F
Copy CRC 4DCC518F
Track not present in AccurateRip database
Copy OK
Track 5
Filename C:\Users\Ciph Dizzle\Desktop\CD [FLAC]\Roger & The Human Body\Introducing Roger (1976) [FLAC]\05 - Roger & The Human Body - Nature's Song.wav
Peak level 99.9 %
Extraction speed 3.4 X
Track quality 100.0 %
Test CRC 0B6FB5DF
Copy CRC 0B6FB5DF
Track not present in AccurateRip database
Copy OK
Track 6
Filename C:\Users\Ciph Dizzle\Desktop\CD [FLAC]\Roger & The Human Body\Introducing Roger (1976) [FLAC]\06 - Roger & The Human Body - Hey Mama.wav
Peak level 91.1 %
Extraction speed 3.6 X
Track quality 100.0 %
Test CRC D11B466D
Copy CRC D11B466D
Track not present in AccurateRip database
Copy OK
Track 7
Filename C:\Users\Ciph Dizzle\Desktop\CD [FLAC]\Roger & The Human Body\Introducing Roger (1976) [FLAC]\07 - Roger & The Human Body - Been This Way Before.wav
Peak level 96.2 %
Extraction speed 4.0 X
Track quality 100.0 %
Test CRC 4150BD48
Copy CRC 4150BD48
Track not present in AccurateRip database
Copy OK
Track 8
Filename C:\Users\Ciph Dizzle\Desktop\CD [FLAC]\Roger & The Human Body\Introducing Roger (1976) [FLAC]\08 - Roger & The Human Body - Take A Break.wav
Peak level 90.1 %
Extraction speed 3.8 X
Track quality 100.0 %
Test CRC 961F6515
Copy CRC 961F6515
Track not present in AccurateRip database
Copy OK
Track 9
Filename C:\Users\Ciph Dizzle\Desktop\CD [FLAC]\Roger & The Human Body\Introducing Roger (1976) [FLAC]\09 - Roger & The Human Body - Love T.K.O. (Bonus Track).wav
Peak level 93.6 %
Extraction speed 3.2 X
Track quality 99.9 %
Test CRC 27B30AF4
Copy CRC 27B30AF4
Track not present in AccurateRip database
Copy OK
None of the tracks are present in the AccurateRip database
No errors occurred
End of status report
==== Log checksum 70F1417A6631BA9E98D79B69D7995260DD9C6645BFBAFB6F0C9C936BB9CFC9DB ====
 
Содержание индексной карты (.CUE)
REM GENRE Funk
REM DATE 1976
REM DISCID 8C0B8C09
REM COMMENT "ExactAudioCopy v1.0b3"
CATALOG 4988044015579
PERFORMER "Roger & The Human Body"
TITLE "Introducing Roger"
FILE "01 - Freedom- Pts. I & II.wav" WAVE
TRACK 01 AUDIO
TITLE "Freedom- Pts. I & II"
PERFORMER "Roger & The Human Body"
INDEX 01 00:00:00
FILE "02 - Truth Be Known.wav" WAVE
TRACK 02 AUDIO
TITLE "Truth Be Known"
PERFORMER "Roger & The Human Body"
INDEX 01 00:00:00
FILE "03 - Brother Lester.wav" WAVE
TRACK 03 AUDIO
TITLE "Brother Lester"
PERFORMER "Roger & The Human Body"
INDEX 01 00:00:00
FILE "04 - Bearings Straight- Pts. I & II.wav" WAVE
TRACK 04 AUDIO
TITLE "Bearings Straight- Pts. I & II"
PERFORMER "Roger & The Human Body"
INDEX 01 00:00:00
FILE "05 - Nature's Song.wav" WAVE
TRACK 05 AUDIO
TITLE "Nature's Song"
PERFORMER "Roger & The Human Body"
INDEX 01 00:00:00
FILE "06 - Hey Mama.wav" WAVE
TRACK 06 AUDIO
TITLE "Hey Mama"
PERFORMER "Roger & The Human Body"
INDEX 01 00:00:00
FILE "07 - Been This Way Before.wav" WAVE
TRACK 07 AUDIO
TITLE "Been This Way Before"
PERFORMER "Roger & The Human Body"
INDEX 01 00:00:00
FILE "08 - Take A Break.wav" WAVE
TRACK 08 AUDIO
TITLE "Take A Break"
PERFORMER "Roger & The Human Body"
INDEX 01 00:00:00
FILE "09 - Love T.K.O. (Bonus Track).wav" WAVE
TRACK 09 AUDIO
TITLE "Love T.K.O. (Bonus Track)"
PERFORMER "Roger & The Human Body"
INDEX 01 00:00:00
 
1976. Roger & The Human Body - Truth Be Known
Страна-производитель диска: Germany
Год первого выпуска: 1976
Год настоящего издания: 1993
Издатель (лейбл): Soulciety Records
Номер по каталогу: ME 012/93
Format: CD, Album, Reissue
Аудиокодек: FLAC (*.flac)
Тип рипа: tracks+.cue
Битрейт аудио: lossless
Продолжительность: 00:45:39
Источник (релизер): What.CD
Наличие сканов в содержимом раздачи: да
Треклист:
01. Freedom (Pts. I & II) (06:21)
02. Truth Be Known (03:56)
03. Brother Lester (02:49)
04. Bearings Straight (Pts. I & II) (06:54)
05. Nature's Song (07:55)
06. Hey Mama (05:20)
07. Been This Way Before (06:15)
08. Take A Break (04:32)
 
Лог создания рипа
Exact Audio Copy V0.99 prebeta 5 from 4. May 2009
EAC extraction logfile from 21. November 2010, 2:42
The Human Body / Truth Be Known
Used drive : LITE-ON LTR-40125S Adapter: 1 ID: 0
Read mode : Secure
Utilize accurate stream : Yes
Defeat audio cache : Yes
Make use of C2 pointers : No
Read offset correction : 12
Overread into Lead-In and Lead-Out : No
Fill up missing offset samples with silence : Yes
Delete leading and trailing silent blocks : No
Null samples used in CRC calculations : Yes
Used interface : Native Win32 interface for Win NT & 2000
Gap handling : Appended to previous track
Used output format : User Defined Encoder
Selected bitrate : 320 kBit/s
Quality : High
Add ID3 tag : No
Command line compressor : C:\Programme\Exact Audio Copy\Flac\flac.exe
Additional command line options : -V -8 -T "artist=%a" -T "title=%t" -T "album=%g" -T "date=%y" -T "tracknumber=%n" -T "genre=%m" %s
TOC of the extracted CD
Track | Start | Length | Start sector | End sector
---------------------------------------------------------
1 | 0:00.00 | 6:17.05 | 0 | 28279
2 | 6:17.05 | 3:56.13 | 28280 | 45992
3 | 10:13.18 | 2:54.55 | 45993 | 59097
4 | 13:07.73 | 7:09.40 | 59098 | 91312
5 | 20:17.38 | 7:59.50 | 91313 | 127287
6 | 28:17.13 | 5:26.62 | 127288 | 151799
7 | 33:44.00 | 8:23.43 | 151800 | 189567
8 | 42:07.43 | 3:31.35 | 189568 | 205427
Track 1
Filename M:\EAC\The Human Body - Truth Be Known (1976) [FLAC]\01 - Freedom.wav
Pre-gap length 0:00:02.00
Peak level 82.4 %
Track quality 100.0 %
Test CRC A2A0462C
Copy CRC A2A0462C
Track not present in AccurateRip database
Copy OK
Track 2
Filename M:\EAC\The Human Body - Truth Be Known (1976) [FLAC]\02 - Truth Be Known.wav
Pre-gap length 0:00:03.69
Peak level 60.3 %
Track quality 100.0 %
Test CRC 9C35C44F
Copy CRC 9C35C44F
Track not present in AccurateRip database
Copy OK
Track 3
Filename M:\EAC\The Human Body - Truth Be Known (1976) [FLAC]\03 - Brother Lester.wav
Peak level 54.8 %
Track quality 100.0 %
Test CRC C0290EFD
Copy CRC C0290EFD
Accurately ripped (confidence 2) [EBEE4C68]
Copy OK
Track 4
Filename M:\EAC\The Human Body - Truth Be Known (1976) [FLAC]\04 - Bearing Straight.wav
Pre-gap length 0:00:05.01
Peak level 65.1 %
Track quality 100.0 %
Test CRC 2DE385B4
Copy CRC 2DE385B4
Accurately ripped (confidence 2) [CC7A03E3]
Copy OK
Track 5
Filename M:\EAC\The Human Body - Truth Be Known (1976) [FLAC]\05 - Nature's Song.wav
Pre-gap length 0:00:04.06
Peak level 57.1 %
Track quality 100.0 %
Test CRC CE3FD2F6
Copy CRC CE3FD2F6
Track not present in AccurateRip database
Copy OK
Track 6
Filename M:\EAC\The Human Body - Truth Be Known (1976) [FLAC]\06 - Hey Mama.wav
Pre-gap length 0:00:03.85
Peak level 57.8 %
Track quality 100.0 %
Test CRC 34C5F450
Copy CRC 34C5F450
Accurately ripped (confidence 2) [F125E916]
Copy OK
Track 7
Filename M:\EAC\The Human Body - Truth Be Known (1976) [FLAC]\07 - Been This Way Before.wav
Pre-gap length 0:00:03.65
Peak level 67.3 %
Track quality 100.0 %
Test CRC B4A0110C
Copy CRC B4A0110C
Accurately ripped (confidence 2) [D7B73801]
Copy OK
Track 8
Filename M:\EAC\The Human Body - Truth Be Known (1976) [FLAC]\08 - Take A Break.wav
Pre-gap length 0:00:04.10
Peak level 51.6 %
Track quality 100.0 %
Test CRC 8701978D
Copy CRC 8701978D
Accurately ripped (confidence 2) [BC4E1134]
Copy OK
5 track(s) accurately ripped
3 track(s) not present in the AccurateRip database
Some tracks could not be verified as accurate
No errors occurred
End of status report
 
Содержание индексной карты (.CUE)
REM GENRE Funk
REM DATE 1976
REM DISCID 7B0AB308
REM COMMENT "ExactAudioCopy v0.99pb5"
PERFORMER "Roger & The Human Body"
TITLE "Truth Be Known"
FILE "01 - Freedom.wav" WAVE
TRACK 01 AUDIO
TITLE "Freedom"
PERFORMER "Roger & The Human Body"
INDEX 01 00:00:00
TRACK 02 AUDIO
TITLE "Truth Be Known"
PERFORMER "Roger & The Human Body"
INDEX 00 06:13:28
FILE "02 - Truth Be Known.wav" WAVE
INDEX 01 00:00:00
FILE "03 - Brother Lester.wav" WAVE
TRACK 03 AUDIO
TITLE "Brother Lester"
PERFORMER "Roger & The Human Body"
INDEX 01 00:00:00
TRACK 04 AUDIO
TITLE "Bearing Straight"
PERFORMER "Roger & The Human Body"
INDEX 00 02:49:54
FILE "04 - Bearing Straight.wav" WAVE
INDEX 01 00:00:00
TRACK 05 AUDIO
TITLE "Nature's Song"
PERFORMER "Roger & The Human Body"
INDEX 00 07:05:35
FILE "05 - Nature's Song.wav" WAVE
INDEX 01 00:00:00
TRACK 06 AUDIO
TITLE "Hey Mama"
PERFORMER "Roger & The Human Body"
INDEX 00 07:55:61
FILE "06 - Hey Mama.wav" WAVE
INDEX 01 00:00:00
TRACK 07 AUDIO
TITLE "Been This Way Before"
PERFORMER "Roger & The Human Body"
INDEX 00 05:23:13
FILE "07 - Been This Way Before.wav" WAVE
INDEX 01 00:00:00
TRACK 08 AUDIO
TITLE "Take A Break"
PERFORMER "Roger & The Human Body"
INDEX 00 08:19:35
FILE "08 - Take A Break.wav" WAVE
INDEX 01 00:00:00
 
1981. Roger - The Many Facets Of Roger
Страна-производитель диска: US
Год первого выпуска: 1981
Год настоящего издания: 2002
Издатель (лейбл): Rhino Records
Номер по каталогу: R2 78329
Format: CD, Album
Аудиокодек: FLAC (*.flac)
Тип рипа: tracks+.cue
Битрейт аудио: lossless
Продолжительность: 00:53:29
Источник (релизер): What.CD
Наличие сканов в содержимом раздачи: да
Треклист:
01. I Heard It Through the Grapevine (10:50)
02. So Ruff, So Tuff (04:52)
03. Chunk of Sugar (05:32)
04. Do It Roger (08:15)
05. Maxx Axe (08:21)
06. Blue (A Tribute to the Blues) (03:25)
07. I Heard It Through the Grapevine, Pt. 1 (Single Version) (04:01)
08. Do It Roger (Single Version) (04:01)
09. Superman (04:08)
 
Лог создания рипа
Exact Audio Copy V0.99 prebeta 4 from 23. January 2008
EAC extraction logfile from 14. March 2010, 19:48
Roger / The Many Facets Of Roger
Used drive : PIONEER DVD-RW DVR-115D Adapter: 0 ID: 0
Read mode : Secure
Utilize accurate stream : Yes
Defeat audio cache : Yes
Make use of C2 pointers : No
Read offset correction : 48
Overread into Lead-In and Lead-Out : No
Fill up missing offset samples with silence : Yes
Delete leading and trailing silent blocks : No
Null samples used in CRC calculations : Yes
Used interface : Native Win32 interface for Win NT & 2000
Gap handling : Appended to previous track
Used output format : User Defined Encoder
Selected bitrate : 160 kBit/s
Quality : High
Add ID3 tag : No
Command line compressor : C:\Program Files\FLAC\flac.exe
Additional command line options : -8 -V -T "ARTIST=%a" -T "TITLE=%t" -T "ALBUM=%g" -T "DATE=%y" -T "TRACKNUMBER=%n" -T "GENRE=%m" -T "COMMENT=EAC FLAC -8" %s
TOC of the extracted CD
Track | Start | Length | Start sector | End sector
---------------------------------------------------------
1 | 0:00.00 | 10:50.60 | 0 | 48809
2 | 10:50.60 | 4:52.45 | 48810 | 70754
3 | 15:43.30 | 5:32.17 | 70755 | 95671
4 | 21:15.47 | 8:15.25 | 95672 | 132821
5 | 29:30.72 | 8:21.03 | 132822 | 170399
6 | 37:52.00 | 3:25.32 | 170400 | 185806
7 | 41:17.32 | 4:01.25 | 185807 | 203906
8 | 45:18.57 | 4:01.40 | 203907 | 222021
9 | 49:20.22 | 4:08.60 | 222022 | 240681
Track 1
Filename E:\Lossless\Roger - The Many Facets Of Roger (1981) [FLAC]\01 - I Heard It Through The Grapevine.wav
Pre-gap length 0:00:02.00
Peak level 91.1 %
Track quality 100.0 %
Test CRC C670819C
Copy CRC C670819C
Track not present in AccurateRip database
Copy OK
Track 2
Filename E:\Lossless\Roger - The Many Facets Of Roger (1981) [FLAC]\02 - So Ruff, So Tuff.wav
Pre-gap length 0:00:06.70
Peak level 95.4 %
Track quality 100.0 %
Test CRC 37461611
Copy CRC 37461611
Track not present in AccurateRip database
Copy OK
Track 3
Filename E:\Lossless\Roger - The Many Facets Of Roger (1981) [FLAC]\03 - A Chunk Of Sugar.wav
Pre-gap length 0:00:04.04
Peak level 99.9 %
Track quality 100.0 %
Test CRC 9CB6D537
Copy CRC 9CB6D537
Track not present in AccurateRip database
Copy OK
Track 4
Filename E:\Lossless\Roger - The Many Facets Of Roger (1981) [FLAC]\04 - Do It Roger.wav
Pre-gap length 0:00:03.56
Peak level 99.9 %
Track quality 100.0 %
Test CRC 65387747
Copy CRC 65387747
Track not present in AccurateRip database
Copy OK
Track 5
Filename E:\Lossless\Roger - The Many Facets Of Roger (1981) [FLAC]\05 - Maxx Axe.wav
Pre-gap length 0:00:03.46
Peak level 99.9 %
Track quality 100.0 %
Test CRC 99FF7DEC
Copy CRC 99FF7DEC
Track not present in AccurateRip database
Copy OK
Track 6
Filename E:\Lossless\Roger - The Many Facets Of Roger (1981) [FLAC]\06 - Blue (A Tribute To The Blues).wav
Pre-gap length 0:00:05.04
Peak level 99.9 %
Track quality 100.0 %
Test CRC 4BA5591D
Copy CRC 4BA5591D
Track not present in AccurateRip database
Copy OK
Track 7
Filename E:\Lossless\Roger - The Many Facets Of Roger (1981) [FLAC]\07 - I Heard It Through The Grapevine (Part 1) (Single Version).wav
Pre-gap length 0:00:02.09
Peak level 91.1 %
Track quality 100.0 %
Test CRC 3E466F5F
Copy CRC 3E466F5F
Track not present in AccurateRip database
Copy OK
Track 8
Filename E:\Lossless\Roger - The Many Facets Of Roger (1981) [FLAC]\08 - Do It Roger (Single Version).wav
Pre-gap length 0:00:01.73
Peak level 99.9 %
Track quality 100.0 %
Test CRC 3AD39A1F
Copy CRC 3AD39A1F
Track not present in AccurateRip database
Copy OK
Track 9
Filename E:\Lossless\Roger - The Many Facets Of Roger (1981) [FLAC]\09 - Superman.wav
Pre-gap length 0:00:01.86
Peak level 99.9 %
Track quality 100.0 %
Test CRC 81DDD105
Copy CRC 81DDD105
Track not present in AccurateRip database
Copy OK
None of the tracks are present in the AccurateRip database
No errors occurred
End of status report
 
Содержание индексной карты (.CUE)
REM GENRE Funk
REM DATE 1981
REM DISCID 860C8909
REM COMMENT "ExactAudioCopy v0.99pb4"
PERFORMER "Roger"
TITLE "The Many Facets Of Roger"
FILE "01 - I Heard It Through The Grapevine.wav" WAVE
TRACK 01 AUDIO
TITLE "I Heard It Through The Grapevine"
PERFORMER "Roger"
INDEX 01 00:00:00
TRACK 02 AUDIO
TITLE "So Ruff, So Tuff"
PERFORMER "Roger"
INDEX 00 10:44:07
FILE "02 - So Ruff, So Tuff.wav" WAVE
INDEX 01 00:00:00
TRACK 03 AUDIO
TITLE "A Chunk Of Sugar"
PERFORMER "Roger"
INDEX 00 04:48:42
FILE "03 - A Chunk Of Sugar.wav" WAVE
INDEX 01 00:00:00
TRACK 04 AUDIO
TITLE "Do It Roger"
PERFORMER "Roger"
INDEX 00 05:28:50
FILE "04 - Do It Roger.wav" WAVE
INDEX 01 00:00:00
TRACK 05 AUDIO
TITLE "Maxx Axe"
PERFORMER "Roger"
INDEX 00 08:11:65
FILE "05 - Maxx Axe.wav" WAVE
INDEX 01 00:00:00
TRACK 06 AUDIO
TITLE "Blue (A Tribute To The Blues)"
PERFORMER "Roger"
INDEX 00 08:16:00
FILE "06 - Blue (A Tribute To The Blues).wav" WAVE
INDEX 01 00:00:00
TRACK 07 AUDIO
TITLE "I Heard It Through The Grapevine (Part 1) (Single Version)"
PERFORMER "Roger"
INDEX 00 03:23:25
FILE "07 - I Heard It Through The Grapevine.wav" WAVE
INDEX 01 00:00:00
TRACK 08 AUDIO
TITLE "Do It Roger (Single Version)"
PERFORMER "Roger"
INDEX 00 03:59:45
FILE "08 - Do It Roger (Single Version).wav" WAVE
INDEX 01 00:00:00
TRACK 09 AUDIO
TITLE "Superman"
PERFORMER "Roger"
INDEX 00 03:59:50
FILE "09 - Superman.wav" WAVE
INDEX 01 00:00:00
 
1984. Roger - The Saga Continues
Страна-производитель диска: US
Год первого выпуска: 1984
Год настоящего издания: 2008
Издатель (лейбл): Wounded Bird Records
Номер по каталогу: WOU 3975
Format: CD, Album
Аудиокодек: FLAC (*.flac)
Тип рипа: tracks+.cue
Битрейт аудио: lossless
Продолжительность: 00:40:39
Источник (релизер): What.CD
Наличие сканов в содержимом раздачи: front, back
Треклист:
01. In the Mix (06:24)
02. Play Your Guitar, Brother Roger (04:28)
03. The Break Song (05:51)
04. I Keep Trying (03:52)
05. Midnight Hour (feat. The Mighty Clouds of Joy) (07:00)
06. Bucket of Blood (04:14)
07. T C Song (04:34)
08. Girl, Cut It Out (feat. Wanda Rash) (04:13)
 
Лог создания рипа
Exact Audio Copy V0.99 prebeta 5 from 4. May 2009
EAC extraction logfile from 20. April 2010, 20:34
Roger / The Saga Continues...
Used drive : LITE-ON DVDRW LH-20A1H Adapter: 0 ID: 1
Read mode : Secure
Utilize accurate stream : Yes
Defeat audio cache : Yes
Make use of C2 pointers : No
Read offset correction : 6
Overread into Lead-In and Lead-Out : No
Fill up missing offset samples with silence : Yes
Delete leading and trailing silent blocks : No
Null samples used in CRC calculations : Yes
Used interface : Native Win32 interface for Win NT & 2000
Gap handling : Appended to previous track
Used output format : User Defined Encoder
Selected bitrate : 768 kBit/s
Quality : High
Add ID3 tag : No
Command line compressor : C:\Program Files (x86)\Exact Audio Copy\FLAC\FLAC.EXE
Additional command line options : -8 -V -T "ARTIST=%a" -T "TITLE=%t" -T "ALBUM=%g" -T "DATE=%y" -T "TRACKNUMBER=%n" -T "GENRE=%m" -T "COMMENT=%e" %s -o %d
TOC of the extracted CD
Track | Start | Length | Start sector | End sector
---------------------------------------------------------
1 | 0:00.00 | 6:24.73 | 0 | 28872
2 | 6:24.73 | 4:28.67 | 28873 | 49039
3 | 10:53.65 | 5:51.03 | 49040 | 75367
4 | 16:44.68 | 3:52.01 | 75368 | 92768
5 | 20:36.69 | 7:00.20 | 92769 | 124288
6 | 27:37.14 | 4:14.45 | 124289 | 143383
7 | 31:51.59 | 4:34.45 | 143384 | 163978
8 | 36:26.29 | 4:13.42 | 163979 | 182995
Track 1
Filename E:\Music\Work in progress\- - Rip Music Folder\Roger - The Saga Continues... (1984) [FLAC]\01 In The Mix.wav
Pre-gap length 0:00:02.00
Peak level 95.9 %
Track quality 100.0 %
Test CRC 8F42BE7F
Copy CRC 8F42BE7F
Track not present in AccurateRip database
Copy OK
Track 2
Filename E:\Music\Work in progress\- - Rip Music Folder\Roger - The Saga Continues... (1984) [FLAC]\02 Play Your Guitar, Brother Roger.wav
Pre-gap length 0:00:02.00
Peak level 95.6 %
Track quality 100.0 %
Test CRC AE8FC7A4
Copy CRC AE8FC7A4
Track not present in AccurateRip database
Copy OK
Track 3
Filename E:\Music\Work in progress\- - Rip Music Folder\Roger - The Saga Continues... (1984) [FLAC]\03 The Break Song.wav
Pre-gap length 0:00:02.00
Peak level 96.4 %
Track quality 100.0 %
Test CRC 84C8858C
Copy CRC 84C8858C
Track not present in AccurateRip database
Copy OK
Track 4
Filename E:\Music\Work in progress\- - Rip Music Folder\Roger - The Saga Continues... (1984) [FLAC]\04 I Keep Trying.wav
Pre-gap length 0:00:02.00
Peak level 96.4 %
Track quality 100.0 %
Test CRC B5D6AA82
Copy CRC B5D6AA82
Track not present in AccurateRip database
Copy OK
Track 5
Filename E:\Music\Work in progress\- - Rip Music Folder\Roger - The Saga Continues... (1984) [FLAC]\05 Midnight Hour.wav
Pre-gap length 0:00:02.00
Peak level 96.0 %
Track quality 100.0 %
Test CRC 23FF7A4D
Copy CRC 23FF7A4D
Track not present in AccurateRip database
Copy OK
Track 6
Filename E:\Music\Work in progress\- - Rip Music Folder\Roger - The Saga Continues... (1984) [FLAC]\06 Bucket of Blood.wav
Pre-gap length 0:00:02.00
Peak level 96.1 %
Track quality 100.0 %
Test CRC 33CBF40C
Copy CRC 33CBF40C
Track not present in AccurateRip database
Copy OK
Track 7
Filename E:\Music\Work in progress\- - Rip Music Folder\Roger - The Saga Continues... (1984) [FLAC]\07 TC Song.wav
Pre-gap length 0:00:02.00
Peak level 96.4 %
Track quality 99.9 %
Test CRC 77D4EFC2
Copy CRC 77D4EFC2
Track not present in AccurateRip database
Copy OK
Track 8
Filename E:\Music\Work in progress\- - Rip Music Folder\Roger - The Saga Continues... (1984) [FLAC]\08 Girl, Cut It Out.wav
Pre-gap length 0:00:02.00
Peak level 96.4 %
Track quality 100.0 %
Test CRC EA65534E
Copy CRC EA65534E
Track not present in AccurateRip database
Copy OK
None of the tracks are present in the AccurateRip database
No errors occurred
End of status report
 
Содержание индексной карты (.CUE)
REM GENRE Funk
REM DATE 1984
REM DISCID 6E098708
REM COMMENT "ExactAudioCopy v0.99pb5"
PERFORMER "Roger"
TITLE "The Saga Continues"
FILE "01 In The Mix.wav" WAVE
TRACK 01 AUDIO
TITLE "In The Mix"
PERFORMER "Roger"
INDEX 01 00:00:00
TRACK 02 AUDIO
TITLE "Play Your Guitar, Brother Roger"
PERFORMER "Roger"
INDEX 00 06:22:73
FILE "02 Play Your Guitar, Brother Roger.wav" WAVE
INDEX 01 00:00:00
TRACK 03 AUDIO
TITLE "The Break Song"
PERFORMER "Roger"
INDEX 00 04:26:67
FILE "03 The Break Song.wav" WAVE
INDEX 01 00:00:00
TRACK 04 AUDIO
TITLE "I Keep Trying"
PERFORMER "Roger"
INDEX 00 05:49:03
FILE "04 I Keep Trying.wav" WAVE
INDEX 01 00:00:00
TRACK 05 AUDIO
TITLE "Midnight Hour"
PERFORMER "Roger"
INDEX 00 03:50:01
FILE "05 Midnight Hour.wav" WAVE
INDEX 01 00:00:00
TRACK 06 AUDIO
TITLE "Bucket of Blood"
PERFORMER "Roger"
INDEX 00 06:58:20
FILE "06 Bucket of Blood.wav" WAVE
INDEX 01 00:00:00
TRACK 07 AUDIO
TITLE "TC Song"
PERFORMER "Roger"
INDEX 00 04:12:45
FILE "07 TC Song.wav" WAVE
INDEX 01 00:00:00
TRACK 08 AUDIO
TITLE "Girl, Cut It Out"
PERFORMER "Roger"
INDEX 00 04:32:45
FILE "08 Girl, Cut It Out.wav" WAVE
INDEX 01 00:00:00
 
1987. Roger - Unlimited!
Страна-производитель диска: US
Год первого выпуска: 1987
Год настоящего издания: 1987
Издатель (лейбл): Reprise Records
Номер по каталогу: 9 25496-2
Format: CD, Album
Аудиокодек: FLAC (*.flac)
Тип рипа: tracks+.cue
Битрейт аудио: lossless
Продолжительность: 00:46:44
Источник (релизер): What.CD
Наличие сканов в содержимом раздачи: да
Треклист:
01. I Want To Be Your Man (04:14)
02. Night And Day (04:19)
03. Been This Way Before (Rap) (05:11)
04. Composition To Commemorate (May 30, 1918) (04:48)
05. Papa's Got A Brand New Bag (03:45)
06. Thrill Seekers (04:50)
07. Tender Moments (04:19)
08. If You're Serious (04:24)
09. Private Lover (04:03)
10. I Really Want To Be Your Man (03:44)
11. Bedistgutarist-A-Rown (03:13)
 
Лог создания рипа
Exact Audio Copy V0.99 prebeta 5 from 4. May 2009
EAC extraction logfile from 8. June 2009, 21:05
Roger / Unlimited!
Used drive : TSSTcorpCD/DVDW SH-S182D Adapter: 3 ID: 0
Read mode : Secure
Utilize accurate stream : Yes
Defeat audio cache : Yes
Make use of C2 pointers : No
Read offset correction : 6
Overread into Lead-In and Lead-Out : No
Fill up missing offset samples with silence : Yes
Delete leading and trailing silent blocks : No
Null samples used in CRC calculations : Yes
Used interface : Installed external ASPI interface
Gap handling : Appended to previous track
Used output format : User Defined Encoder
Selected bitrate : 320 kBit/s
Quality : High
Add ID3 tag : No
Command line compressor : C:\Program Files\Exact Audio Copy\Flac\flac.exe
Additional command line options : -8 -A tukey(0.25) -A gauss(0.1875) -b 4096 -V -T "artist=%a" -T "title=%t" -T "album=%g" -T "date=%y" -T "tracknumber=%n" -T "genre=%m" %s
TOC of the extracted CD
Track | Start | Length | Start sector | End sector
---------------------------------------------------------
1 | 0:00.32 | 4:11.25 | 32 | 18881
2 | 4:11.57 | 4:18.15 | 18882 | 38246
3 | 8:29.72 | 5:10.60 | 38247 | 61556
4 | 13:40.57 | 4:47.13 | 61557 | 83094
5 | 18:27.70 | 3:47.15 | 83095 | 100134
6 | 22:15.10 | 4:50.40 | 100135 | 121924
7 | 27:05.50 | 4:19.10 | 121925 | 141359
8 | 31:24.60 | 4:20.47 | 141360 | 160906
9 | 35:45.32 | 4:04.20 | 160907 | 179226
10 | 39:49.52 | 3:44.53 | 179227 | 196079
11 | 43:34.30 | 3:10.15 | 196080 | 210344
Track 1
Filename H:\Roger - Unlimited!\01 - Roger - I Want To Be Your Man.wav
Pre-gap length 0:00:02.42
Peak level 81.0 %
Track quality 100.0 %
Test CRC D2D11E9F
Copy CRC D2D11E9F
Cannot be verified as accurate (confidence 3) [52DF99CE], AccurateRip returned [3820D47A]
Copy OK
Track 2
Filename H:\Roger - Unlimited!\02 - Roger - Night And Day.wav
Pre-gap length 0:00:00.16
Peak level 79.0 %
Track quality 100.0 %
Test CRC 2921DA14
Copy CRC 2921DA14
Cannot be verified as accurate (confidence 2) [E2991723], AccurateRip returned [A108651F]
Copy OK
Track 3
Filename H:\Roger - Unlimited!\03 - Roger - Been This Way Before (Rap).wav
Pre-gap length 0:00:00.16
Peak level 78.6 %
Track quality 99.9 %
Test CRC FC740A07
Copy CRC FC740A07
Cannot be verified as accurate (confidence 2) [0FC0A024], AccurateRip returned [6EB8C3CC]
Copy OK
Track 4
Filename H:\Roger - Unlimited!\04 - Roger - Composition To Commemorate (May 30, 1918).wav
Pre-gap length 0:00:00.20
Peak level 97.4 %
Track quality 100.0 %
Test CRC CC752018
Copy CRC CC752018
Cannot be verified as accurate (confidence 2) [D1D8D487], AccurateRip returned [C8EC4FB3]
Copy OK
Track 5
Filename H:\Roger - Unlimited!\05 - Roger - Papa's Got A Brand New Bag.wav
Pre-gap length 0:00:00.17
Peak level 79.4 %
Track quality 100.0 %
Test CRC D08F462F
Copy CRC D08F462F
Cannot be verified as accurate (confidence 2) [43A21D9A], AccurateRip returned [F27BC756]
Copy OK
Track 6
Filename H:\Roger - Unlimited!\06 - Roger - Thrill Seekers.wav
Pre-gap length 0:00:00.17
Peak level 85.3 %
Track quality 99.9 %
Test CRC 8E90D623
Copy CRC 8E90D623
Cannot be verified as accurate (confidence 2) [727A1DF5], AccurateRip returned [D330CD71]
Copy OK
Track 7
Filename H:\Roger - Unlimited!\07 - Roger - Tender Moments.wav
Pre-gap length 0:00:00.17
Peak level 88.0 %
Track quality 100.0 %
Test CRC 64EF0EF0
Copy CRC 64EF0EF0
Cannot be verified as accurate (confidence 2) [11307452], AccurateRip returned [E1146906]
Copy OK
Track 8
Filename H:\Roger - Unlimited!\08 - Roger - If You're Serious.wav
Pre-gap length 0:00:00.17
Peak level 89.1 %
Track quality 100.0 %
Test CRC 9334EA35
Copy CRC 9334EA35
Cannot be verified as accurate (confidence 2) [43BC52AC], AccurateRip returned [3960696C]
Copy OK
Track 9
Filename H:\Roger - Unlimited!\09 - Roger - Private Lover.wav
Pre-gap length 0:00:00.16
Peak level 87.0 %
Track quality 100.0 %
Test CRC 736F742E
Copy CRC 736F742E
Cannot be verified as accurate (confidence 2) [27AA7B85], AccurateRip returned [47EBCEAD]
Copy OK
Track 10
Filename H:\Roger - Unlimited!\10 - Roger - I Really Want To Be Your Man.wav
Pre-gap length 0:00:00.16
Peak level 76.1 %
Track quality 100.0 %
Test CRC B317B50C
Copy CRC B317B50C
Cannot be verified as accurate (confidence 3) [9FDEDE89], AccurateRip returned [B7B8621D]
Copy OK
Track 11
Filename H:\Roger - Unlimited!\11 - Roger - Bedistgutarist-A-Rown.wav
Pre-gap length 0:00:00.17
Peak level 75.0 %
Track quality 100.0 %
Test CRC 9907473C
Copy CRC 9907473C
Cannot be verified as accurate (confidence 2) [108BB240], AccurateRip returned [B2153D01]
Copy OK
No tracks could be verified as accurate
You may have a different pressing from the one(s) in the database
No errors occurred
End of status report
 
Содержание индексной карты (.CUE)
REM GENRE R&B
REM DATE 1987
REM DISCID 8B0AF40B
REM COMMENT "ExactAudioCopy v0.99pb5"
PERFORMER "Roger"
TITLE "Unlimited!"
FILE "01 - Roger - I Want To Be Your Man.wav" WAVE
TRACK 01 AUDIO
TITLE "I Want To Be Your Man"
PERFORMER "Roger"
PREGAP 00:00:32
INDEX 01 00:00:00
TRACK 02 AUDIO
TITLE "Night And Day"
PERFORMER "Roger"
INDEX 00 04:11:13
FILE "02 - Roger - Night And Day.wav" WAVE
INDEX 01 00:00:00
TRACK 03 AUDIO
TITLE "Been This Way Before (Rap)"
PERFORMER "Roger"
INDEX 00 04:18:03
FILE "03 - Roger - Been This Way Before (Rap).wav" WAVE
INDEX 01 00:00:00
TRACK 04 AUDIO
TITLE "Composition To Commemorate (May 30, 1918)"
PERFORMER "Roger"
INDEX 00 05:10:45
FILE "04 - Roger - Composition To Commemorate.wav" WAVE
INDEX 01 00:00:00
TRACK 05 AUDIO
TITLE "Papa's Got A Brand New Bag"
PERFORMER "Roger"
INDEX 00 04:47:00
FILE "05 - Roger - Papa's Got A Brand New Bag.wav" WAVE
INDEX 01 00:00:00
TRACK 06 AUDIO
TITLE "Thrill Seekers"
PERFORMER "Roger"
INDEX 00 03:47:02
FILE "06 - Roger - Thrill Seekers.wav" WAVE
INDEX 01 00:00:00
TRACK 07 AUDIO
TITLE "Tender Moments"
PERFORMER "Roger"
INDEX 00 04:50:27
FILE "07 - Roger - Tender Moments.wav" WAVE
INDEX 01 00:00:00
TRACK 08 AUDIO
TITLE "If You're Serious"
PERFORMER "Roger"
INDEX 00 04:18:72
FILE "08 - Roger - If You're Serious.wav" WAVE
INDEX 01 00:00:00
TRACK 09 AUDIO
TITLE "Private Lover"
PERFORMER "Roger"
INDEX 00 04:20:35
FILE "09 - Roger - Private Lover.wav" WAVE
INDEX 01 00:00:00
TRACK 10 AUDIO
TITLE "I Really Want To Be Your Man"
PERFORMER "Roger"
INDEX 00 04:04:08
FILE "10 - Roger - I Really Want To Be Your Man.wav" WAVE
INDEX 01 00:00:00
TRACK 11 AUDIO
TITLE "Bedistgutarist-A-Rown"
PERFORMER "Roger"
INDEX 00 03:44:40
FILE "11 - Roger - Bedistgutarist-A-Rown.wav" WAVE
INDEX 01 00:00:00
 
Об альбоме (сборнике)
 
1991. Roger - Bridging The Gap
Страна-производитель диска: US
Год первого выпуска: 1991
Год настоящего издания: 1991
Издатель (лейбл): Reprise Records
Номер по каталогу: 9 26524-2
Format: CD, Album
Аудиокодек: FLAC (*.flac)
Тип рипа: tracks+.cue
Битрейт аудио: lossless
Продолжительность: 00:53:34
Источник (релизер): What.CD
Наличие сканов в содержимом раздачи: да
Треклист:
01. (Everybody) Get Up (04:37)
02. Take Me Back (05:33)
03. Curiosity (06:40)
04. You Should Be Mine (06:01)
05. Emotions (06:09)
06. Break Through (05:23)
07. Love Incorporated (04:52)
08. Victim Of Love (05:59)
09. Who-La-Boola (04:37)
10. Hurry Up (03:39)
 
Лог создания рипа
EAC extraction logfile from 18. September 2008, 1:39 for CD
Roger / Bridging the gap
Used drive : TSSTcorpCDDVDW TS-L632N Adapter: 0 ID: 0
Read mode : Secure with NO C2, accurate stream, disable cache
Read offset correction : 6
Overread into Lead-In and Lead-Out : No
Used output format : C:\Program Files\Exact Audio Copy\flac.exe (User Defined Encoder)
128 kBit/s
Additional command line options : -V -8 -T "artist=%a" -T "title=%t" -T "album=%g" -T "date=%y" -T "tracknumber=%n" -T "genre=%m" %s
Other options :
Fill up missing offset samples with silence : Yes
Delete leading and trailing silent blocks : No
Native Win32 interface for Win NT & 2000
Track 1
Filename C:\Rippar med EAC\Roger - 1991 - Bridging the gap\01 - (Everybody) Get up.wav
Pre-gap length 0:00:02.00
Peak level 94.6 %
Track quality 99.9 %
Test CRC 143A4ABE
Copy CRC 143A4ABE
Copy OK
Track 2
Filename C:\Rippar med EAC\Roger - 1991 - Bridging the gap\02 - Take me back.wav
Peak level 92.7 %
Track quality 99.9 %
Test CRC 5EAA9FB4
Copy CRC 5EAA9FB4
Copy OK
Track 3
Filename C:\Rippar med EAC\Roger - 1991 - Bridging the gap\03 - Curiosity.wav
Peak level 92.3 %
Track quality 99.9 %
Test CRC AFF9E950
Copy CRC AFF9E950
Copy OK
Track 4
Filename C:\Rippar med EAC\Roger - 1991 - Bridging the gap\04 - You should be mine.wav
Peak level 76.0 %
Track quality 99.9 %
Test CRC 7096AFB1
Copy CRC 7096AFB1
Copy OK
Track 5
Filename C:\Rippar med EAC\Roger - 1991 - Bridging the gap\05 - Emotions.wav
Peak level 94.6 %
Track quality 99.7 %
Test CRC 8B606634
Copy CRC 8B606634
Copy OK
Track 6
Filename C:\Rippar med EAC\Roger - 1991 - Bridging the gap\06 - Break through.wav
Peak level 94.6 %
Track quality 99.8 %
Test CRC F18C80A8
Copy CRC F18C80A8
Copy OK
Track 7
Filename C:\Rippar med EAC\Roger - 1991 - Bridging the gap\07 - Love incorporated.wav
Peak level 93.7 %
Track quality 99.8 %
Test CRC 46D9BA7E
Copy CRC 46D9BA7E
Copy OK
Track 8
Filename C:\Rippar med EAC\Roger - 1991 - Bridging the gap\08 - Victim of love.wav
Peak level 94.6 %
Track quality 99.8 %
Test CRC 2798F4EB
Copy CRC 2798F4EB
Copy OK
Track 9
Filename C:\Rippar med EAC\Roger - 1991 - Bridging the gap\09 - Who-la-boola.wav
Peak level 94.6 %
Track quality 99.5 %
Test CRC 4EDA78D5
Copy CRC 4EDA78D5
Copy OK
Track 10
Filename C:\Rippar med EAC\Roger - 1991 - Bridging the gap\10 - Hurry up.wav
Peak level 94.6 %
Track quality 99.4 %
Test CRC EA008E28
Copy CRC EA008E28
Copy OK
No errors occured
End of status report
 
Содержание индексной карты (.CUE)
REM GENRE R&B
REM DATE 1991
REM DISCID 7D0C8E0A
REM COMMENT "ExactAudioCopy v0.95b4"
PERFORMER "Roger"
TITLE "Bridging the gap"
FILE "01 - (Everybody) Get up.wav" WAVE
TRACK 01 AUDIO
TITLE "(Everybody) Get up"
PERFORMER "Roger"
INDEX 01 00:00:00
FILE "02 - Take me back.wav" WAVE
TRACK 02 AUDIO
TITLE "Take me back"
PERFORMER "Roger"
INDEX 01 00:00:00
FILE "03 - Curiosity.wav" WAVE
TRACK 03 AUDIO
TITLE "Curiosity"
PERFORMER "Roger"
INDEX 01 00:00:00
FILE "04 - You should be mine.wav" WAVE
TRACK 04 AUDIO
TITLE "You should be mine"
PERFORMER "Roger"
INDEX 01 00:00:00
FILE "05 - Emotions.wav" WAVE
TRACK 05 AUDIO
TITLE "Emotions"
PERFORMER "Roger"
INDEX 01 00:00:00
FILE "06 - Break through.wav" WAVE
TRACK 06 AUDIO
TITLE "Break through"
PERFORMER "Roger"
INDEX 01 00:00:00
FILE "07 - Love incorporated.wav" WAVE
TRACK 07 AUDIO
TITLE "Love incorporated"
PERFORMER "Roger"
INDEX 01 00:00:00
FILE "08 - Victim of love.wav" WAVE
TRACK 08 AUDIO
TITLE "Victim of love"
PERFORMER "Roger"
INDEX 01 00:00:00
FILE "09 - Who-la-boola.wav" WAVE
TRACK 09 AUDIO
TITLE "Who-la-boola"
PERFORMER "Roger"
INDEX 01 00:00:00
FILE "10 - Hurry up.wav" WAVE
TRACK 10 AUDIO
TITLE "Hurry up"
PERFORMER "Roger"
INDEX 01 00:00:00
 
Об альбоме (сборнике)
EP
 
1991. Roger - (Everybody) Get Up
Страна-производитель диска: US
Год первого выпуска: 1991
Год настоящего издания: 1991
Издатель (лейбл): Reprise Records
Номер по каталогу: 9 40259-2
Format: CD, Maxi-Single
Аудиокодек: FLAC (*.flac)
Тип рипа: tracks+.cue
Битрейт аудио: lossless
Продолжительность: 00:38:50
Источник (релизер): What.CD
Наличие сканов в содержимом раздачи: front
Треклист:
01. (Everybody) Get Up (Roger's Zapp To The Future Mix) (04:42)
02. (Everybody) Get Up (EPMD Diesel Remix) (04:25)
03. (Everybody) Get Up (Roger's Zapp To The Future In Full Effect) (07:53)
04. (Everybody) Get Up (Toke's Dub) (05:18)
05. (Everybody) Get Up (Roger's Zapp To The Future Unleaded Mix) (04:00)
06. (Everybody) Get Up (EPMD Diesel Low-Lead Mix) (03:31)
07. (Everybody) Get Up (EPMD Diesel Instrumental) (04:25)
08. (Everybody) Get Up (Album Version) (04:37)
 
Лог создания рипа
Exact Audio Copy V1.0 beta 3 from 29. August 2011
EAC extraction logfile from 23. May 2014, 1:45
Roger / (Everybody) Get Up
Used drive : PHILIPS DVD+-RW DVD8881 Adapter: 3 ID: 0
Read mode : Secure
Utilize accurate stream : Yes
Defeat audio cache : Yes
Make use of C2 pointers : No
Read offset correction : 618
Overread into Lead-In and Lead-Out : No
Fill up missing offset samples with silence : Yes
Delete leading and trailing silent blocks : No
Null samples used in CRC calculations : Yes
Used interface : Native Win32 interface for Win NT & 2000
Gap handling : Appended to previous track
Used output format : User Defined Encoder
Selected bitrate : 896 kBit/s
Quality : High
Add ID3 tag : No
Command line compressor : C:\Program Files (x86)\Exact Audio Copy\Flac\flac.exe
Additional command line options : -8 -V -T "ARTIST=%artist%" -T "TITLE=%title%" -T "ALBUM=%albumtitle%" -T "DATE=%year%" -T "TRACKNUMBER=%tracknr%" -T "GENRE=%genre%" -T "PERFORMER=%albuminterpret%" -T "COMPOSER=%composer%" %haslyrics%--tag-from-file=LYRICS="%lyricsfile%"%haslyrics% -T "ALBUMARTIST=%albumartist%" -T "DISCNUMBER=%cdnumber%" -T "TOTALDISCS=%totalcds%" -T "TOTALTRACKS=%numtracks%" -T "COMMENT=%comment%" %source% -o %dest%
TOC of the extracted CD
Track | Start | Length | Start sector | End sector
---------------------------------------------------------
1 | 0:00.32 | 4:42.20 | 32 | 21201
2 | 4:42.52 | 4:24.55 | 21202 | 41056
3 | 9:07.32 | 7:52.73 | 41057 | 76529
4 | 17:00.30 | 5:18.05 | 76530 | 100384
5 | 22:18.35 | 3:59.72 | 100385 | 118381
6 | 26:18.32 | 3:31.08 | 118382 | 134214
7 | 29:49.40 | 4:24.65 | 134215 | 154079
8 | 34:14.30 | 4:36.52 | 154080 | 174831
Track 1
Filename C:\EACrips\01 - (Everybody) Get Up (Roger's Zapp To The Future Mix).wav
Pre-gap length 0:00:02.42
Peak level 100.0 %
Extraction speed 5.3 X
Track quality 100.0 %
Test CRC B4B1C2DF
Copy CRC B4B1C2DF
Accurately ripped (confidence 1) [D96965C2] (AR v2)
Copy OK
Track 2
Filename C:\EACrips\02 - (Everybody) Get Up (EPMD Diesel Remix).wav
Pre-gap length 0:00:00.56
Peak level 100.0 %
Extraction speed 5.9 X
Track quality 100.0 %
Test CRC F423A332
Copy CRC F423A332
Accurately ripped (confidence 1) [6701DD0B] (AR v2)
Copy OK
Track 3
Filename C:\EACrips\03 - (Everybody) Get Up (Roger's Zapp To The Future In Full Effect).wav
Pre-gap length 0:00:00.66
Peak level 100.0 %
Extraction speed 6.9 X
Track quality 100.0 %
Test CRC 92DF3671
Copy CRC 92DF3671
Accurately ripped (confidence 1) [A40CD3AC] (AR v2)
Copy OK
Track 4
Filename C:\EACrips\04 - (Everybody) Get Up (Toke's Dub).wav
Pre-gap length 0:00:00.73
Peak level 90.1 %
Extraction speed 6.4 X
Track quality 99.9 %
Test CRC 6FABC94E
Copy CRC 6FABC94E
Accurately ripped (confidence 1) [EFB8F430] (AR v2)
Copy OK
Track 5
Filename C:\EACrips\05 - (Everybody) Get Up (Roger's Zapp To The Future Unleaded Mix).wav
Pre-gap length 0:00:01.00
Peak level 100.0 %
Extraction speed 7.6 X
Track quality 100.0 %
Test CRC 07F4E0DE
Copy CRC 07F4E0DE
Accurately ripped (confidence 1) [69589922] (AR v2)
Copy OK
Track 6
Filename C:\EACrips\06 - (Everybody) Get Up (EPMD Diesel Low-Lead Mix).wav
Pre-gap length 0:00:00.73
Peak level 100.0 %
Extraction speed 7.8 X
Track quality 100.0 %
Test CRC F957CE41
Copy CRC F957CE41
Accurately ripped (confidence 1) [4C5042BB] (AR v2)
Copy OK
Track 7
Filename C:\EACrips\07 - (Everybody) Get Up (EPMD Diesel Instrumental).wav
Pre-gap length 0:00:00.66
Peak level 100.0 %
Extraction speed 8.3 X
Track quality 100.0 %
Test CRC AF78C43F
Copy CRC AF78C43F
Accurately ripped (confidence 1) [3DEF1CAC] (AR v2)
Copy OK
Track 8
Filename C:\EACrips\08 - (Everybody) Get Up (Album Version).wav
Pre-gap length 0:00:01.04
Peak level 94.6 %
Extraction speed 8.7 X
Track quality 100.0 %
Test CRC B13E080D
Copy CRC B13E080D
Accurately ripped (confidence 1) [75DA3B34] (AR v2)
Copy OK
All tracks accurately ripped
No errors occurred
End of status report
==== Log checksum 02A9AF843AA575069256D2B8425C5A5C3E72EEAB00852F2A77A5C248E4B9935B ====
 
Содержание индексной карты (.CUE)
REM GENRE Funk
REM DATE 1991
REM DISCID 5C091B08
REM COMMENT "ExactAudioCopy v1.0b3"
CATALOG 0075994025926
PERFORMER "Roger"
TITLE "(Everybody) Get Up"
FILE "01 - (Everybody) Get Up (Zapp).wav" WAVE
TRACK 01 AUDIO
TITLE "(Everybody) Get Up (Roger's Zapp To The Future Mix)"
PERFORMER "Roger"
PREGAP 00:00:32
INDEX 01 00:00:00
TRACK 02 AUDIO
TITLE "(Everybody) Get Up (EPMD Diesel Remix)"
PERFORMER "Roger"
FLAGS DCP
INDEX 00 04:41:53
FILE "02 - (Everybody) Get Up (Diesel).wav" WAVE
INDEX 01 00:00:00
TRACK 03 AUDIO
TITLE "(Everybody) Get Up (Roger's Zapp To The Future In Full Effect)"
PERFORMER "Roger"
FLAGS DCP
INDEX 00 04:24:05
FILE "03 - (Everybody) Get Up (Zapp).wav" WAVE
INDEX 01 00:00:00
TRACK 04 AUDIO
TITLE "(Everybody) Get Up (Toke's Dub)"
PERFORMER "Roger"
FLAGS DCP
INDEX 00 07:52:18
FILE "04 - (Everybody) Get Up (Toke's Dub).wav" WAVE
INDEX 01 00:00:00
TRACK 05 AUDIO
TITLE "(Everybody) Get Up (Roger's Zapp To The Future Unleaded Mix)"
PERFORMER "Roger"
FLAGS DCP
INDEX 00 05:17:05
FILE "05 - (Everybody) Get Up (Zapp Mix).wav" WAVE
INDEX 01 00:00:00
TRACK 06 AUDIO
TITLE "(Everybody) Get Up (EPMD Diesel Low-Lead Mix)"
PERFORMER "Roger"
FLAGS DCP
INDEX 00 03:59:17
FILE "06 - (Everybody) Get Up (Diesel Mix).wav" WAVE
INDEX 01 00:00:00
TRACK 07 AUDIO
TITLE "(Everybody) Get Up (EPMD Diesel Instrumental)"
PERFORMER "Roger"
FLAGS DCP
INDEX 00 03:30:33
FILE "07 - (Everybody) Get Up (Instrumental).wav" WAVE
INDEX 01 00:00:00
TRACK 08 AUDIO
TITLE "(Everybody) Get Up (Album Version)"
PERFORMER "Roger"
FLAGS DCP
INDEX 00 04:23:62
FILE "08 - (Everybody) Get Up (Album).wav" WAVE
INDEX 01 00:00:00
 
Об альбоме (сборнике)
Доп. информация: Roger (Roger Troutman) (1951-1999) - интересный блюзмэн из США. Интересная, лёгко воспринимаемая музыка, приятный лёгкий ритм-блюзовый вокал. Несколько альбомов с экспериментальным электронным сопровождением.
 
Дискография

Solo discography
1981. The Many Facets of Roger
1984. The Saga Continues
1987. Unlimited!
1991. Bridging the Gap
Singles
1981. I Heard It Through the Grapevine
1982. Do It Roger
1984. In the Mix
1984. In the Midnight Hour
1985. Girl, Cut It Out
1987. Papa's Got a Brand New Bag
1987. I Want to Be Your Man
1987. If You're Serious
1988. Thrill Seekers
1991. (Everybody) Get Up
1991. You Should Be Mine
1992. Take Me Back
Collaborations Albums
1976. Roger & The Human Body - Introducing Roger
1976. Roger & The Human Body - Truth Be Known
2002. Roger & Zapp - The Zapp & Roger Anthology We Can Make You Dance
30.10.2016 года торрент перезалит. Добавлены 5 альбомов и 1 ЕР. Получилась дискография исполнителя.
Приватный:
Нет (DHT включён)
Размер:
2.10 Гб (2,251,898,782 байт) » файлов: 122
Участники:
0 раздают, 0 качают (0 участников всего)
Внешние участники:
5 раздают, 2 качают (7 участников всего) [ Обновить ]
Есть вопросы - пишите личное сообщение пользователю M0p94ok.
06:24
76
Нет комментариев. Ваш будет первым!