Поиск

(R&B, Soul, Funk) [CD] Bobby Byrd - Got Soul: The Best of Bobby Byrd - 1995, FLAC (tracks+.cue), lossless

(R&B, Soul, Funk) [CD] Bobby Byrd - Got Soul: The Best of Bobby Byrd - 1995, FLAC (tracks+.cue), lossless
Треклист:
Bobby Byrd / Got Soul: The Best of Bobby Byrd
Жанр: R&B, Soul, Funk
Носитель: CD
Год издания: 1995
Издатель (лейбл): Polydor
Аудиокодек: FLAC (*.flac)
Тип рипа: tracks+.cue
Битрейт аудио: lossless
Продолжительность: 01:16:02
Источник (релизер): Funkback
Наличие сканов в содержимом раздачи: нет
Треклист:
1. I Know You Got Soul 4:43
2. Keep On Doin' What Your Doin' 2:49
3. I Need Help (I Can't Do It Alone), Pts. 1 & 2 5:35
4. If You Got A Love You Better (Hold On To It) 4:23
5. I'm Not To Blame 2:55
6. Hot Pants - I'm Coming, I'm Coming, I'm Coming 2:30
7. Sayin' It And Doin' It Are Two Different Things 3:13
8. You've Got To Change Your Mind (with James Brown) 3:52
9. When Something Is Wrong With My Baby 5:35
10. I'm Lonely 2:42
11. We're In Love 2:53
12. Funky Soul, Pts. 1 & 2 3:56
13. No One Like My Baby 2:12
14. Baby Baby Baby (with Anna King) 2:36
15. I Love You So 2:35
16. Hang Ups We Don't Need (The Hungry We Got To Feed) 3:02
17. Signed, Sealed & Delivered 2:16
18. If You Don't Work You Can't Eat 4:05
19. Fight Against Drug Abuse 0:32
20. I'm Just Nobody, Pts. 1 & 2 6:11
21. Never get Enough 3:18
22. I Need Help (I Can't Do It Alone) (Live in Paris) 5:23
 
Лог создания рипа
Exact Audio Copy V1.0 beta 3 from 29. August 2011
EAC extraction logfile from 21. February 2015, 12:17
Bobby Byrd / Got Soul - The Best Of Bobby Byrd
Used drive : hp CDDVDW SN-208BB Adapter: 0 ID: 1
Read mode : Secure
Utilize accurate stream : Yes
Defeat audio cache : Yes
Make use of C2 pointers : No
Read offset correction : 6
Overread into Lead-In and Lead-Out : No
Fill up missing offset samples with silence : Yes
Delete leading and trailing silent blocks : No
Null samples used in CRC calculations : Yes
Used interface : Native Win32 interface for Win NT & 2000
Gap handling : Appended to previous track
Used output format : User Defined Encoder
Selected bitrate : 1024 kBit/s
Quality : Low
Add ID3 tag : No
Command line compressor : C:\Program Files (x86)\Exact Audio Copy\flac.exe
Additional command line options : -8 -V -T "ARTIST=%artist%" -T "TITLE=%title%" -T "ALBUM=%albumtitle%" -T "DATE=%year%" -T "TRACKNUMBER=%tracknr%" -T "GENRE=%genre%" -T "PERFORMER=%albuminterpret%" -T "COMPOSER=%composer%" %haslyrics%--tag-from-file=LYRICS="%lyricsfile%"%haslyrics% -T "ALBUMARTIST=%albumartist%" -T "DISCNUMBER=%cdnumber%" -T "TOTALDISCS=%totalcds%" -T "TOTALTRACKS=%numtracks%" -T "COMMENT=%comment%" %source% -o %dest%
TOC of the extracted CD
Track | Start | Length | Start sector | End sector
---------------------------------------------------------
1 | 0:00.12 | 4:43.25 | 12 | 21261
2 | 4:43.37 | 2:49.03 | 21262 | 33939
3 | 7:32.40 | 5:35.45 | 33940 | 59109
4 | 13:08.10 | 4:23.05 | 59110 | 78839
5 | 17:31.15 | 2:55.60 | 78840 | 92024
6 | 20:27.00 | 2:30.00 | 92025 | 103274
7 | 22:57.00 | 3:13.05 | 103275 | 117754
8 | 26:10.05 | 3:52.67 | 117755 | 135221
9 | 30:02.72 | 5:35.33 | 135222 | 160379
10 | 35:38.30 | 2:42.55 | 160380 | 172584
11 | 38:21.10 | 2:53.10 | 172585 | 185569
12 | 41:14.20 | 3:56.00 | 185570 | 203269
13 | 45:10.20 | 2:12.50 | 203270 | 213219
14 | 47:22.70 | 2:36.47 | 213220 | 224966
15 | 49:59.42 | 2:35.45 | 224967 | 236636
16 | 52:35.12 | 3:02.58 | 236637 | 250344
17 | 55:37.70 | 2:16.10 | 250345 | 260554
18 | 57:54.05 | 4:05.70 | 260555 | 278999
19 | 62:00.00 | 0:32.17 | 279000 | 281416
20 | 62:32.17 | 6:11.23 | 281417 | 309264
21 | 68:43.40 | 3:18.17 | 309265 | 324131
22 | 72:01.57 | 5:22.55 | 324132 | 348336
Track 1
Filename H:\EACrips\Bobby Byrd - Got Soul The Best of Bobby Byrd (1995) [FLAC]\001 I Know You Got Soul.wav
Pre-gap length 0:00:02.16
Peak level 100.0 %
Extraction speed 2.6 X
Track quality 100.0 %
Test CRC 01D9E8A7
Copy CRC 01D9E8A7
Accurately ripped (confidence 4) [6BE5EA33] (AR v1)
Copy OK
Track 2
Filename H:\EACrips\Bobby Byrd - Got Soul The Best of Bobby Byrd (1995) [FLAC]\002 Keep On Doin' What Your Doin'.wav
Pre-gap length 0:00:02.69
Peak level 81.5 %
Extraction speed 2.6 X
Track quality 100.0 %
Test CRC 06C7B2CC
Copy CRC 06C7B2CC
Accurately ripped (confidence 4) [1E5BE4F4] (AR v1)
Copy OK
Track 3
Filename H:\EACrips\Bobby Byrd - Got Soul The Best of Bobby Byrd (1995) [FLAC]\003 I Need Help (I Can't Do It Alone), Pts. 1 & 2.wav
Pre-gap length 0:00:02.97
Peak level 80.8 %
Extraction speed 3.1 X
Track quality 100.0 %
Test CRC C4A98967
Copy CRC C4A98967
Accurately ripped (confidence 4) [DD21F0F7] (AR v1)
Copy OK
Track 4
Filename H:\EACrips\Bobby Byrd - Got Soul The Best of Bobby Byrd (1995) [FLAC]\004 If You Got A Love You Better (Hold On To It).wav
Pre-gap length 0:00:02.53
Peak level 85.8 %
Extraction speed 3.2 X
Track quality 100.0 %
Test CRC 0BCA06BA
Copy CRC 0BCA06BA
Accurately ripped (confidence 4) [9F0281CF] (AR v1)
Copy OK
Track 5
Filename H:\EACrips\Bobby Byrd - Got Soul The Best of Bobby Byrd (1995) [FLAC]\005 I'm Not To Blame.wav
Pre-gap length 0:00:02.77
Peak level 100.0 %
Extraction speed 3.2 X
Track quality 100.0 %
Test CRC 25876F03
Copy CRC 25876F03
Accurately ripped (confidence 4) [4F729C03] (AR v1)
Copy OK
Track 6
Filename H:\EACrips\Bobby Byrd - Got Soul The Best of Bobby Byrd (1995) [FLAC]\006 Hot Pants - I'm Coming, I'm Coming, I'm Coming.wav
Pre-gap length 0:00:02.66
Peak level 90.1 %
Extraction speed 3.2 X
Track quality 100.0 %
Test CRC B1156E9A
Copy CRC B1156E9A
Accurately ripped (confidence 4) [FBABC5BD] (AR v1)
Copy OK
Track 7
Filename H:\EACrips\Bobby Byrd - Got Soul The Best of Bobby Byrd (1995) [FLAC]\007 Sayin' It And Doin' It Are Two Different Things.wav
Pre-gap length 0:00:02.80
Peak level 100.0 %
Extraction speed 3.4 X
Track quality 100.0 %
Test CRC C2B7F3DD
Copy CRC C2B7F3DD
Accurately ripped (confidence 4) [E6B285A0] (AR v1)
Copy OK
Track 8
Filename H:\EACrips\Bobby Byrd - Got Soul The Best of Bobby Byrd (1995) [FLAC]\008 You've Got To Change Your Mind (with James Brown).wav
Pre-gap length 0:00:02.77
Peak level 87.0 %
Extraction speed 3.7 X
Track quality 100.0 %
Test CRC F2079574
Copy CRC F2079574
Accurately ripped (confidence 4) [2DCC8113] (AR v1)
Copy OK
Track 9
Filename H:\EACrips\Bobby Byrd - Got Soul The Best of Bobby Byrd (1995) [FLAC]\009 When Something Is Wrong With My Baby.wav
Pre-gap length 0:00:02.62
Peak level 97.7 %
Extraction speed 4.0 X
Track quality 100.0 %
Test CRC 25C1CC26
Copy CRC 25C1CC26
Accurately ripped (confidence 4) [0714B65A] (AR v1)
Copy OK
Track 10
Filename H:\EACrips\Bobby Byrd - Got Soul The Best of Bobby Byrd (1995) [FLAC]\010 I'm Lonely.wav
Pre-gap length 0:00:02.73
Peak level 95.4 %
Extraction speed 3.8 X
Track quality 100.0 %
Test CRC E226CE97
Copy CRC E226CE97
Accurately ripped (confidence 4) [9C155A09] (AR v1)
Copy OK
Track 11
Filename H:\EACrips\Bobby Byrd - Got Soul The Best of Bobby Byrd (1995) [FLAC]\011 We're In Love.wav
Pre-gap length 0:00:03.00
Peak level 90.8 %
Extraction speed 3.7 X
Track quality 100.0 %
Test CRC EFF15628
Copy CRC EFF15628
Accurately ripped (confidence 4) [B97716F6] (AR v1)
Copy OK
Track 12
Filename H:\EACrips\Bobby Byrd - Got Soul The Best of Bobby Byrd (1995) [FLAC]\012 Funky Soul, Pts. 1 & 2.wav
Pre-gap length 0:00:13.10
Peak level 100.0 %
Extraction speed 4.2 X
Track quality 100.0 %
Test CRC 265F88F5
Copy CRC 265F88F5
Accurately ripped (confidence 4) [817A8E0B] (AR v1)
Copy OK
Track 13
Filename H:\EACrips\Bobby Byrd - Got Soul The Best of Bobby Byrd (1995) [FLAC]\013 No One Like My Baby.wav
Pre-gap length 0:00:04.00
Peak level 89.2 %
Extraction speed 3.9 X
Track quality 100.0 %
Test CRC 1D8C1299
Copy CRC 1D8C1299
Accurately ripped (confidence 4) [3E3B879C] (AR v1)
Copy OK
Track 14
Filename H:\EACrips\Bobby Byrd - Got Soul The Best of Bobby Byrd (1995) [FLAC]\014 Baby Baby Baby (with Anna King).wav
Pre-gap length 0:00:02.84
Peak level 100.0 %
Extraction speed 3.9 X
Track quality 100.0 %
Test CRC 2BE5E5A7
Copy CRC 2BE5E5A7
Accurately ripped (confidence 4) [61DE328C] (AR v1)
Copy OK
Track 15
Filename H:\EACrips\Bobby Byrd - Got Soul The Best of Bobby Byrd (1995) [FLAC]\015 I Love You So.wav
Pre-gap length 0:00:02.89
Peak level 94.6 %
Extraction speed 4.1 X
Track quality 100.0 %
Test CRC A64C1588
Copy CRC A64C1588
Accurately ripped (confidence 4) [C46569A8] (AR v1)
Copy OK
Track 16
Filename H:\EACrips\Bobby Byrd - Got Soul The Best of Bobby Byrd (1995) [FLAC]\016 Hang Ups We Don't Need (The Hungry We Got To Feed).wav
Pre-gap length 0:00:02.89
Peak level 94.2 %
Extraction speed 4.3 X
Track quality 100.0 %
Test CRC D8FB441F
Copy CRC D8FB441F
Accurately ripped (confidence 3) [4BAEB93D] (AR v1)
Copy OK
Track 17
Filename H:\EACrips\Bobby Byrd - Got Soul The Best of Bobby Byrd (1995) [FLAC]\017 Signed, Sealed & Delivered.wav
Pre-gap length 0:00:02.73
Peak level 94.8 %
Extraction speed 2.9 X
Track quality 99.9 %
Test CRC C649E453
Copy CRC C649E453
Accurately ripped (confidence 4) [9C3E2CD6] (AR v1)
Copy OK
Track 18
Filename H:\EACrips\Bobby Byrd - Got Soul The Best of Bobby Byrd (1995) [FLAC]\018 If You Don't Work You Can't Eat.wav
Pre-gap length 0:00:03.73
Peak level 92.7 %
Extraction speed 4.7 X
Track quality 100.0 %
Test CRC 69D6A022
Copy CRC 69D6A022
Accurately ripped (confidence 3) [3903CC9B] (AR v1)
Copy OK
Track 19
Filename H:\EACrips\Bobby Byrd - Got Soul The Best of Bobby Byrd (1995) [FLAC]\019 Fight Against Drug Abuse.wav
Pre-gap length 0:00:02.13
Peak level 73.1 %
Extraction speed 1.2 X
Track quality 99.6 %
Test CRC 600D1F12
Copy CRC 600D1F12
Accurately ripped (confidence 4) [3E9D825B] (AR v1)
Copy OK
Track 20
Filename H:\EACrips\Bobby Byrd - Got Soul The Best of Bobby Byrd (1995) [FLAC]\020 I'm Just Nobody, Pts. 1 & 2.wav
Pre-gap length 0:00:02.62
Peak level 100.0 %
Extraction speed 5.1 X
Track quality 100.0 %
Test CRC 23D9C016
Copy CRC 23D9C016
Accurately ripped (confidence 4) [99808FFF] (AR v1)
Copy OK
Track 21
Filename H:\EACrips\Bobby Byrd - Got Soul The Best of Bobby Byrd (1995) [FLAC]\021 Never get Enough.wav
Pre-gap length 0:00:03.13
Peak level 89.1 %
Extraction speed 3.7 X
Track quality 99.9 %
Test CRC 580D94FA
Copy CRC 580D94FA
Accurately ripped (confidence 4) [54D046F2] (AR v1)
Copy OK
Track 22
Filename H:\EACrips\Bobby Byrd - Got Soul The Best of Bobby Byrd (1995) [FLAC]\022 I Need Help (I Can't Do It Alone) (Live in Paris).wav
Pre-gap length 0:00:02.69
Peak level 99.9 %
Extraction speed 4.3 X
Track quality 99.9 %
Test CRC B00F2317
Copy CRC B00F2317
Accurately ripped (confidence 4) [13BB62A4] (AR v1)
Copy OK
All tracks accurately ripped
No errors occurred
End of status report
==== Log checksum 5A06BF56BA3549D210063CED93B9EDBF2BB5DBC23EB0975DCB523C9BF05E7CA9 ====
 
Содержание индексной карты (.CUE)
REM GENRE Soul
REM DATE 1995
REM DISCID 29122416
REM COMMENT "ExactAudioCopy v1.0b3"
CATALOG 0731452798725
PERFORMER "Bobby Byrd"
TITLE "Got Soul - The Best Of Bobby Byrd"
FILE "001 I Know You Got Soul.wav" WAVE
TRACK 01 AUDIO
TITLE "I Know You Got Soul"
PERFORMER "Bobby Byrd"
ISRC USPR37105148
PREGAP 00:00:12
INDEX 01 00:00:00
TRACK 02 AUDIO
TITLE "Keep On Doin' What Your Doin'"
PERFORMER "Bobby Byrd"
ISRC USPR37206000
INDEX 00 04:40:48
FILE "002 Keep On Doin' What Your Doin'.wav" WAVE
INDEX 01 00:00:00
TRACK 03 AUDIO
TITLE "I Need Help (I Can't Do It Alone), Pts. 1 & 2"
PERFORMER "Bobby Byrd"
ISRC USPR37005156
INDEX 00 02:46:05
FILE "003 I Need Help (I Can't Do It Alone), Pts. 1 & 2.wav" WAVE
INDEX 01 00:00:00
TRACK 04 AUDIO
TITLE "If You Got A Love You Better (Hold On To It)"
PERFORMER "Bobby Byrd"
ISRC USPR37205157
INDEX 00 05:33:05
FILE "004 If You Got A Love You Better (Hold On To It).wav" WAVE
INDEX 01 00:00:00
TRACK 05 AUDIO
TITLE "I'm Not To Blame"
PERFORMER "Bobby Byrd"
ISRC USPR37005157
INDEX 00 04:20:22
FILE "005 I'm Not To Blame.wav" WAVE
INDEX 01 00:00:00
TRACK 06 AUDIO
TITLE "Hot Pants - I'm Coming, I'm Coming, I'm Coming"
PERFORMER "Bobby Byrd"
ISRC USPR37105158
INDEX 00 02:53:10
FILE "006 Hot Pants - I'm Coming, I'm Coming, I'm Coming.wav" WAVE
INDEX 01 00:00:00
TRACK 07 AUDIO
TITLE "Sayin' It And Doin' It Are Two Different Things"
PERFORMER "Bobby Byrd"
ISRC USPR37205159
INDEX 00 02:27:15
FILE "007 Sayin' It And Doin' It Are Two Different Things.wav" WAVE
INDEX 01 00:00:00
TRACK 08 AUDIO
TITLE "You've Got To Change Your Mind (with James Brown)"
PERFORMER "Bobby Byrd"
ISRC USPR36806001
INDEX 00 03:10:22
FILE "008 You've Got To Change Your Mind (with James Brown).wav" WAVE
INDEX 01 00:00:00
TRACK 09 AUDIO
TITLE "When Something Is Wrong With My Baby"
PERFORMER "Bobby Byrd"
ISRC USPR39506002
INDEX 00 03:50:20
FILE "009 When Something Is Wrong With My Baby.wav" WAVE
INDEX 01 00:00:00
TRACK 10 AUDIO
TITLE "I'm Lonely"
PERFORMER "Bobby Byrd"
ISRC USPR36406003
INDEX 00 05:32:53
FILE "010 I'm Lonely.wav" WAVE
INDEX 01 00:00:00
TRACK 11 AUDIO
TITLE "We're In Love"
PERFORMER "Bobby Byrd"
ISRC USPR36506004
INDEX 00 02:39:55
FILE "011 We're In Love.wav" WAVE
INDEX 01 00:00:00
TRACK 12 AUDIO
TITLE "Funky Soul, Pts. 1 & 2"
PERFORMER "Bobby Byrd"
ISRC USPR36706005
INDEX 00 02:40:02
FILE "012 Funky Soul, Pts. 1 & 2.wav" WAVE
INDEX 01 00:00:00
TRACK 13 AUDIO
TITLE "No One Like My Baby"
PERFORMER "Bobby Byrd"
ISRC USPR36406006
INDEX 00 03:52:00
FILE "013 No One Like My Baby.wav" WAVE
INDEX 01 00:00:00
TRACK 14 AUDIO
TITLE "Baby Baby Baby (with Anna King)"
PERFORMER "Bobby Byrd"
ISRC USPR36406007
INDEX 00 02:09:62
FILE "014 Baby Baby Baby (with Anna King).wav" WAVE
INDEX 01 00:00:00
TRACK 15 AUDIO
TITLE "I Love You So"
PERFORMER "Bobby Byrd"
ISRC USPR36406008
INDEX 00 02:33:55
FILE "015 I Love You So.wav" WAVE
INDEX 01 00:00:00
TRACK 16 AUDIO
TITLE "Hang Ups We Don't Need (The Hungry We Got To Feed)"
PERFORMER "Bobby Byrd"
ISRC USPR37006009
INDEX 00 02:32:53
FILE "016 Hang Ups We Don't Need (The Hungry We Got To Feed).wav" WAVE
INDEX 01 00:00:00
TRACK 17 AUDIO
TITLE "Signed, Sealed & Delivered"
PERFORMER "Bobby Byrd"
ISRC USPR37306010
INDEX 00 03:00:03
FILE "017 Signed, Sealed & Delivered.wav" WAVE
INDEX 01 00:00:00
TRACK 18 AUDIO
TITLE "If You Don't Work You Can't Eat"
PERFORMER "Bobby Byrd"
ISRC USPR37006011
INDEX 00 02:12:30
FILE "018 If You Don't Work You Can't Eat.wav" WAVE
INDEX 01 00:00:00
TRACK 19 AUDIO
TITLE "Fight Against Drug Abuse"
PERFORMER "Bobby Byrd"
ISRC USPR36406012
INDEX 00 04:03:60
FILE "019 Fight Against Drug Abuse.wav" WAVE
INDEX 01 00:00:00
TRACK 20 AUDIO
TITLE "I'm Just Nobody, Pts. 1 & 2"
PERFORMER "Bobby Byrd"
ISRC USPR36406012
INDEX 00 00:29:45
FILE "020 I'm Just Nobody, Pts. 1 & 2.wav" WAVE
INDEX 01 00:00:00
TRACK 21 AUDIO
TITLE "Never get Enough"
PERFORMER "Bobby Byrd"
ISRC USPR37206013
INDEX 00 06:08:13
FILE "021 Never get Enough.wav" WAVE
INDEX 01 00:00:00
TRACK 22 AUDIO
TITLE "I Need Help (I Can't Do It Alone) (Live in Paris)"
PERFORMER "Bobby Byrd"
ISRC USPR39506014
INDEX 00 03:15:40
FILE "022 I Need Help (I Can't Do It Alone) (Live in Paris).wav" WAVE
INDEX 01 00:00:00
 
Об альбоме (сборнике)
As is the case with the JB's and other James Brown protégés, Bobby Byrd's legacy is spread over numerous out-of-print, difficult-to-find vinyl records. So this 22-song retrospective, which gathers numerous singles, and a couple of previously unreleased tracks spanning 1964 to 1973, is a welcome consolidation of his most significant work into one package. Solid stuff, covering both standard soul from the '60s and hard funk (usually featuring the JB's) from the early '70s, though it sounds a lot more like a James Brown record with a different vocalist than a Bobby Byrd record that happens to benefit from James Brown's backing crew. Brown produced (and occasionally contributed to) all of the recordings here, and duets with Bobby on the 1968 single "You've Got to Change Your Mind."
 
Состав
Backing Vocals – James Brown (tracks: 1, 3, 9, 11, 16, 21)
Bass – 'Sweet' Charles Sherrell (tracks: 3, 18, 21), Bernard Odum (tracks: 10, 11, 13, 20), Bootsy Collins (tracks: 9, 17, 19, 22), Fred Thomas (2) (tracks: 1, 2, 4, 6, 7), Sam Thomas (tracks: 10, 11, 13, 20)
Drums – Clyde Stubblefield (tracks: 3, 4, 9, 18), John Jabo Starks (tracks: 1, 2, 6, 19, 21), Nat Kendrick (tracks: 10, 11, 13)
Guitar – Catfish Collins (tracks: 9, 17, 19, 22), Hearlon Cheese Martin (tracks: 1, 2, 4, 6, 7, 9, 17, 21, 22), Jimmy Nolen (tracks: 3, 7, 18, 21), Les Buie (tracks: 10, 11, 13, 20), Robert Coleman (tracks: 1, 2, 4, 6)
Keyboards – James Brown (tracks: 3, 4, 13, 16, 18)
Percussion – Johnny Griggs (tracks: 7, 19, 21)
Producer – James Brown (tracks: 1 to 4, 6 to 22)
Saxophone – Jimmy Parker (tracks: 1, 2, 4, 6, 7), Maceo Parker (tracks: 3, 10, 11), Nat Jones (tracks: 10, 11, 13), Pee Wee Ellis (tracks: 3, 8, 18), St-Clair Pinckney (tracks: 1 to 3, 6 to 11, 13, 17 to 22)
Trombone – Fred Wesley (tracks: 1 to 4, 6, 7, 17, 18, 21, 22)
Trumpet – Clayton Gunnells (tracks: 9, 17, 19, 22), Darryl Hassan Jamison (tracks: 7, 9, 17, 19, 22), Isiah Ike Oakley (tracks: 2, 4, 7, 21), Jerone Jasaan Sanford (tracks: 1, 2, 6, 21), McKinley Johnson (tracks: 10, 11, 20), Russell Crimes (tracks: 2, 4, 6, 7, 21), Waymon Reed (tracks: 3, 8, 18)
Приватный:
Нет (DHT включён)
Размер:
411.44 Мб (431,425,788 байт) » файлов: 27
Участники:
0 раздают, 0 качают (0 участников всего)
Внешние участники:
5 раздают, 1 качают (6 участников всего) [ Обновить ]
Есть вопросы - пишите личное сообщение пользователю M0p94ok.
06:25
69
Нет комментариев. Ваш будет первым!