Поиск

(Soul, Disco) [CD] George & Gwen McCrae - Together - 2014, FLAC (tracks+.cue), lossless

(Soul, Disco) [CD] George & Gwen McCrae - Together - 2014, FLAC (tracks+.cue), lossless
Треклист:
George & Gwen McCrae - Together Жанр: Soul, Disco
Носитель: CD
Страна-производитель диска (релиза): Japan
Год издания: 2014
Издатель (лейбл): Warner Japan
Номер по каталогу: WPCR-27729
Аудиокодек: FLAC (*.flac)
Тип рипа: tracks+.cue
Битрейт аудио: lossless
Продолжительность: 29:59
Rip by JET 1
Наличие сканов в содержимом раздачи: да
Треклист:
01. I'll Do The Rockin' (3:32)
02. You And I Were Made For Each Other (2:55)
03. Mechanical Body (2:56)
04. I'm Comin' At You (3:10)
05. Let's Dance, Dance, Dance (3:17)
06. Winners Together Or Losers Apart (3:53)
07. Home Sick, Love Sick (3:24)
08. The Rub (3:34)
09. Let Your Love Do The Talkin' (3:18)
 
 
Лог создания рипа
Exact Audio Copy V1.0 beta 3 from 29. August 2011
EAC extraction logfile from 12. March 2016, 16:11
George McCrae & Gwen McCrae / Together
Used drive : GENERIC CDRCB05 Adapter: 4 ID: 0
Read mode : Secure
Utilize accurate stream : Yes
Defeat audio cache : Yes
Make use of C2 pointers : No
Read offset correction : 102
Overread into Lead-In and Lead-Out : No
Fill up missing offset samples with silence : Yes
Delete leading and trailing silent blocks : No
Null samples used in CRC calculations : Yes
Used interface : Native Win32 interface for Win NT & 2000
Gap handling : Appended to previous track
Used output format : User Defined Encoder
Selected bitrate : 1024 kBit/s
Quality : High
Add ID3 tag : No
Command line compressor : C:\Program Files\FLAC\flac.exe
Additional command line options : -8 -V -T "ARTIST=%artist%" -T "TITLE=%title%" -T "ALBUM=%albumtitle%" -T "DATE=%year%" -T "TRACKNUMBER=%tracknr%" -T "GENRE=%genre%" -T "PERFORMER=%albuminterpret%" -T "COMPOSER=%composer%" %haslyrics%--tag-from-file=LYRICS="%lyricsfile%"%haslyrics% -T "ALBUMARTIST=%albumartist%" -T "DISCNUMBER=%cdnumber%" -T "TOTALDISCS=%totalcds%" -T "TOTALTRACKS=%numtracks%" -T "COMMENT=%comment%" %source% -o %dest%
TOC of the extracted CD
Track | Start | Length | Start sector | End sector
---------------------------------------------------------
1 | 0:00.00 | 3:31.69 | 0 | 15893
2 | 3:31.69 | 2:55.20 | 15894 | 29038
3 | 6:27.14 | 2:55.49 | 29039 | 42212
4 | 9:22.63 | 3:10.21 | 42213 | 56483
5 | 12:33.09 | 3:16.60 | 56484 | 71243
6 | 15:49.69 | 3:53.20 | 71244 | 88738
7 | 19:43.14 | 3:23.55 | 88739 | 104018
8 | 23:06.69 | 3:34.18 | 104019 | 120086
9 | 26:41.12 | 3:17.51 | 120087 | 134912
Track 1
Filename F:\POSTSSSSS\George & Gwen McCrae - Together (1975) [2014 Japan]\01 - I'll Do The Rockin'.wav
Pre-gap length 0:00:02.00
Peak level 100.0 %
Extraction speed 2.2 X
Track quality 100.0 %
Test CRC 4B67C614
Copy CRC 4B67C614
Accurately ripped (confidence 1) [7CC90649] (AR v2)
Copy OK
Track 2
Filename F:\POSTSSSSS\George & Gwen McCrae - Together (1975) [2014 Japan]\02 - You And I Were Made For Each Other.wav
Pre-gap length 0:00:00.45
Peak level 100.0 %
Extraction speed 2.0 X
Track quality 99.9 %
Test CRC CCA3C5D5
Copy CRC CCA3C5D5
Accurately ripped (confidence 1) [4C2D2297] (AR v2)
Copy OK
Track 3
Filename F:\POSTSSSSS\George & Gwen McCrae - Together (1975) [2014 Japan]\03 - Mechanical Body.wav
Pre-gap length 0:00:00.51
Peak level 100.0 %
Extraction speed 2.5 X
Track quality 100.0 %
Test CRC 2AF3882A
Copy CRC 2AF3882A
Accurately ripped (confidence 1) [486F6B3E] (AR v2)
Copy OK
Track 4
Filename F:\POSTSSSSS\George & Gwen McCrae - Together (1975) [2014 Japan]\04 - I'm Comin' At You.wav
Pre-gap length 0:00:00.59
Peak level 96.6 %
Extraction speed 2.7 X
Track quality 100.0 %
Test CRC EB95D9B1
Copy CRC EB95D9B1
Accurately ripped (confidence 1) [C24C28E7] (AR v2)
Copy OK
Track 5
Filename F:\POSTSSSSS\George & Gwen McCrae - Together (1975) [2014 Japan]\05 - Let's Dance, Dance, Dance.wav
Pre-gap length 0:00:00.35
Peak level 96.6 %
Extraction speed 2.8 X
Track quality 100.0 %
Test CRC A5EBFFC1
Copy CRC A5EBFFC1
Accurately ripped (confidence 1) [0CC7CA1C] (AR v2)
Copy OK
Track 6
Filename F:\POSTSSSSS\George & Gwen McCrae - Together (1975) [2014 Japan]\06 - Winners Together Or Losers Apart.wav
Pre-gap length 0:00:00.45
Peak level 96.6 %
Extraction speed 3.1 X
Track quality 100.0 %
Test CRC 10EDFD93
Copy CRC 10EDFD93
Accurately ripped (confidence 1) [04ABBC04] (AR v2)
Copy OK
Track 7
Filename F:\POSTSSSSS\George & Gwen McCrae - Together (1975) [2014 Japan]\07 - Home Sick, Love Sick.wav
Pre-gap length 0:00:00.43
Peak level 96.6 %
Extraction speed 3.3 X
Track quality 100.0 %
Test CRC A02E4E0A
Copy CRC A02E4E0A
Accurately ripped (confidence 1) [F9B46F9B] (AR v2)
Copy OK
Track 8
Filename F:\POSTSSSSS\George & Gwen McCrae - Together (1975) [2014 Japan]\08 - The Rub.wav
Pre-gap length 0:00:00.50
Peak level 96.6 %
Extraction speed 3.5 X
Track quality 100.0 %
Test CRC 846C71BA
Copy CRC 846C71BA
Accurately ripped (confidence 1) [4F844953] (AR v2)
Copy OK
Track 9
Filename F:\POSTSSSSS\George & Gwen McCrae - Together (1975) [2014 Japan]\09 - Let Your Love Do The Talkin'.wav
Pre-gap length 0:00:00.43
Peak level 96.6 %
Extraction speed 3.6 X
Track quality 100.0 %
Test CRC FBC1F31C
Copy CRC FBC1F31C
Accurately ripped (confidence 1) [77981BD1] (AR v2)
Copy OK
All tracks accurately ripped
No errors occurred
End of status report
==== Log checksum 3DAD95F9530C3DA98D51F0AD5A11E7E111DAEEA889BC5C43BCE6EAD7B5BD72CD ====
 
Содержание индексной карты (.CUE)
REM GENRE Soul
REM DATE 2014
REM DISCID 78070609
REM COMMENT "ExactAudioCopy v1.0b3"
PERFORMER " George McCrae & Gwen McCrae "
TITLE "Together"
FILE "01 - I'll Do The Rockin'.wav" WAVE
TRACK 01 AUDIO
TITLE "I'll Do The Rockin'"
PERFORMER " George McCrae & Gwen McCrae "
INDEX 01 00:00:00
TRACK 02 AUDIO
TITLE "You And I Were Made For Each Other"
PERFORMER " George McCrae & Gwen McCrae "
INDEX 00 03:31:24
FILE "02 - You And I Were Made For Each Other.wav" WAVE
INDEX 01 00:00:00
TRACK 03 AUDIO
TITLE "Mechanical Body"
PERFORMER " George McCrae & Gwen McCrae "
INDEX 00 02:54:44
FILE "03 - Mechanical Body.wav" WAVE
INDEX 01 00:00:00
TRACK 04 AUDIO
TITLE "I'm Comin' At You"
PERFORMER " George McCrae & Gwen McCrae "
INDEX 00 02:54:65
FILE "04 - I'm Comin' At You.wav" WAVE
INDEX 01 00:00:00
TRACK 05 AUDIO
TITLE "Let's Dance, Dance, Dance"
PERFORMER " George McCrae & Gwen McCrae "
INDEX 00 03:09:61
FILE "05 - Let's Dance, Dance, Dance.wav" WAVE
INDEX 01 00:00:00
TRACK 06 AUDIO
TITLE "Winners Together Or Losers Apart"
PERFORMER " George McCrae & Gwen McCrae "
INDEX 00 03:16:15
FILE "06 - Winners Together Or Losers Apart.wav" WAVE
INDEX 01 00:00:00
TRACK 07 AUDIO
TITLE "Home Sick, Love Sick"
PERFORMER " George McCrae & Gwen McCrae "
INDEX 00 03:52:52
FILE "07 - Home Sick, Love Sick.wav" WAVE
INDEX 01 00:00:00
TRACK 08 AUDIO
TITLE "The Rub"
PERFORMER " George McCrae & Gwen McCrae "
INDEX 00 03:23:05
FILE "08 - The Rub.wav" WAVE
INDEX 01 00:00:00
TRACK 09 AUDIO
TITLE "Let Your Love Do The Talkin'"
PERFORMER " George McCrae & Gwen McCrae "
INDEX 00 03:33:50
FILE "09 - Let Your Love Do The Talkin'.wav" WAVE
INDEX 01 00:00:00
Приватный:
Нет (DHT включён)
Размер:
276.82 Мб (290,264,238 байт) » файлов: 26
Участники:
0 раздают, 0 качают (0 участников всего)
Внешние участники:
2 раздают, 1 качают (3 участников всего) [ Обновить ]
Есть вопросы - пишите личное сообщение пользователю M0p94ok.
10:17
69
Нет комментариев. Ваш будет первым!