Поиск

(Funk, Soul, R&B) [CD] Al Hudson And The Soul Partners - The ATCO Years - 2015, FLAC (tracks+.cue), lossless

(Funk, Soul, R&B) [CD] Al Hudson And The Soul Partners - The ATCO Years - 2015, FLAC (tracks+.cue), lossless
Треклист:
Al Hudson And The Soul Partners - The ATCO Years Жанр: Funk, Soul, R&B
Носитель: CD
Год издания: 2015
Издатель (лейбл): Expansion Records
Номер по каталогу: EXCDM 50
Аудиокодек: FLAC (*.flac)
Тип рипа: tracks+.cue
Битрейт аудио: lossless
Продолжительность: 29:36
Rip by JET 1
Наличие сканов в содержимом раздачи: да
Треклист:
01. My Number One Need (3:09)
02. I'm About Lovin' You (2:55)
03. When You're Gone (3:40)
04. We Must Make It Happen (3:33)
05. I've Been Loving You Too Long (3:36)
06. Love Is (3:40)
07. Almost Ain't Good Enough (5:24)
08. When I'm Loving You (3:39)
 
Несколько слов на английском
Al Hudson & The Soul Partners originated in 70s Detroit, had an international chart hit with “You Can Do It” on becoming One Way with Alicia Myers in 1979, and continue to perform across the USA to this day. In January 2015 they perform in the UK, their show to include a celebration of their start at ATCO in 1975.
ATCO, a division of Atlantic was a cool label for soul with Ben E.King, Otis Redding and Donny Hathaway on the imprint when Al Hudson began his time on the imprint recording eight sides over four 7” singles. Two of these, ”I’m About Loving You” and “When You’re Gone” are especially adored by soul fans and with the rarity of the original 45s have also been issued back to back on vinyl as part of this collection. The remaining six songs have never previously been on CD and further represent the mastery of Al’s vocal skills and the depth of songwriting, arrangement, musicianship and production of the time.
 
 
Лог создания рипа
Exact Audio Copy V1.0 beta 3 from 29. August 2011
EAC extraction logfile from 11. March 2016, 1:24
Al Hudson & The Soul Partners / The ATCO Years
Used drive : GENERIC CDRCB05 Adapter: 4 ID: 0
Read mode : Secure
Utilize accurate stream : Yes
Defeat audio cache : Yes
Make use of C2 pointers : No
Read offset correction : 102
Overread into Lead-In and Lead-Out : No
Fill up missing offset samples with silence : Yes
Delete leading and trailing silent blocks : No
Null samples used in CRC calculations : Yes
Used interface : Native Win32 interface for Win NT & 2000
Gap handling : Appended to previous track
Used output format : User Defined Encoder
Selected bitrate : 1024 kBit/s
Quality : High
Add ID3 tag : No
Command line compressor : C:\Program Files\FLAC\flac.exe
Additional command line options : -8 -V -T "ARTIST=%artist%" -T "TITLE=%title%" -T "ALBUM=%albumtitle%" -T "DATE=%year%" -T "TRACKNUMBER=%tracknr%" -T "GENRE=%genre%" -T "PERFORMER=%albuminterpret%" -T "COMPOSER=%composer%" %haslyrics%--tag-from-file=LYRICS="%lyricsfile%"%haslyrics% -T "ALBUMARTIST=%albumartist%" -T "DISCNUMBER=%cdnumber%" -T "TOTALDISCS=%totalcds%" -T "TOTALTRACKS=%numtracks%" -T "COMMENT=%comment%" %source% -o %dest%
TOC of the extracted CD
Track | Start | Length | Start sector | End sector
---------------------------------------------------------
1 | 0:00.00 | 3:08.52 | 0 | 14151
2 | 3:08.52 | 2:54.53 | 14152 | 27254
3 | 6:03.30 | 3:40.02 | 27255 | 43756
4 | 9:43.32 | 3:33.35 | 43757 | 59766
5 | 13:16.67 | 3:36.00 | 59767 | 75966
6 | 16:52.67 | 3:40.23 | 75967 | 92489
7 | 20:33.15 | 5:23.59 | 92490 | 116773
8 | 25:56.74 | 3:38.54 | 116774 | 133177
Track 1
Filename F:\POSTSSSSS\Al Hudson & The Soul Partners - The ATCO Years (2015)\01 - My Number One Need.wav
Pre-gap length 0:00:02.00
Peak level 90.3 %
Extraction speed 1.4 X
Track quality 100.0 %
Test CRC 62875B63
Copy CRC 62875B63
Accurately ripped (confidence 2) [EFD9AD92] (AR v2)
Copy OK
Track 2
Filename F:\POSTSSSSS\Al Hudson & The Soul Partners - The ATCO Years (2015)\02 - I'm About Lovin' You.wav
Pre-gap length 0:00:01.38
Peak level 96.7 %
Extraction speed 1.4 X
Track quality 100.0 %
Test CRC 5705DE01
Copy CRC 5705DE01
Accurately ripped (confidence 2) [67150689] (AR v2)
Copy OK
Track 3
Filename F:\POSTSSSSS\Al Hudson & The Soul Partners - The ATCO Years (2015)\03 - When You're Gone.wav
Pre-gap length 0:00:00.70
Peak level 97.0 %
Extraction speed 1.6 X
Track quality 100.0 %
Test CRC 1EDFEE07
Copy CRC 1EDFEE07
Accurately ripped (confidence 2) [4ABD8A56] (AR v2)
Copy OK
Track 4
Filename F:\POSTSSSSS\Al Hudson & The Soul Partners - The ATCO Years (2015)\04 - We Must Make It Happen.wav
Pre-gap length 0:00:01.74
Peak level 96.7 %
Extraction speed 1.5 X
Track quality 99.9 %
Test CRC A8CCE850
Copy CRC A8CCE850
Accurately ripped (confidence 2) [3E7A48FC] (AR v2)
Copy OK
Track 5
Filename F:\POSTSSSSS\Al Hudson & The Soul Partners - The ATCO Years (2015)\05 - I've Been Loving You Too Long.wav
Pre-gap length 0:00:00.67
Peak level 96.7 %
Extraction speed 1.9 X
Track quality 100.0 %
Test CRC 67028BE8
Copy CRC 67028BE8
Accurately ripped (confidence 2) [87E61EE8] (AR v2)
Copy OK
Track 6
Filename F:\POSTSSSSS\Al Hudson & The Soul Partners - The ATCO Years (2015)\06 - Love Is.wav
Pre-gap length 0:00:01.17
Peak level 96.7 %
Extraction speed 2.0 X
Track quality 100.0 %
Test CRC 11D221C5
Copy CRC 11D221C5
Accurately ripped (confidence 2) [CB44BDBD] (AR v2)
Copy OK
Track 7
Filename F:\POSTSSSSS\Al Hudson & The Soul Partners - The ATCO Years (2015)\07 - Almost Ain't Good Enough.wav
Pre-gap length 0:00:00.47
Peak level 96.6 %
Extraction speed 2.2 X
Track quality 100.0 %
Test CRC 413045D1
Copy CRC 413045D1
Accurately ripped (confidence 2) [CAC64283] (AR v2)
Copy OK
Track 8
Filename F:\POSTSSSSS\Al Hudson & The Soul Partners - The ATCO Years (2015)\08 - When I'm Loving You.wav
Pre-gap length 0:00:00.73
Peak level 86.2 %
Extraction speed 2.2 X
Track quality 100.0 %
Test CRC 171D1A2F
Copy CRC 171D1A2F
Accurately ripped (confidence 2) [07E06C64] (AR v2)
Copy OK
All tracks accurately ripped
No errors occurred
End of status report
==== Log checksum BE6D92AC55524AB2845957FFB798B73CDCD228B054776060B8D755711EBCEE24 ====
 
Содержание индексной карты (.CUE)
REM GENRE Soul
REM DATE 2015
REM DISCID 6806EF08
REM COMMENT "ExactAudioCopy v1.0b3"
PERFORMER "Al Hudson & The Soul Partners"
TITLE "The ATCO Years"
FILE "01 - My Number One Need.wav" WAVE
TRACK 01 AUDIO
TITLE "My Number One Need"
PERFORMER "Al Hudson & The Soul Partners"
INDEX 01 00:00:00
TRACK 02 AUDIO
TITLE "I'm About Lovin' You"
PERFORMER "Al Hudson & The Soul Partners"
INDEX 00 03:07:14
FILE "02 - I'm About Lovin' You.wav" WAVE
INDEX 01 00:00:00
TRACK 03 AUDIO
TITLE "When You're Gone"
PERFORMER "Al Hudson & The Soul Partners"
INDEX 00 02:53:58
FILE "03 - When You're Gone.wav" WAVE
INDEX 01 00:00:00
TRACK 04 AUDIO
TITLE "We Must Make It Happen"
PERFORMER "Al Hudson & The Soul Partners"
INDEX 00 03:38:03
FILE "04 - We Must Make It Happen.wav" WAVE
INDEX 01 00:00:00
TRACK 05 AUDIO
TITLE "I've Been Loving You Too Long"
PERFORMER "Al Hudson & The Soul Partners"
INDEX 00 03:32:43
FILE "05 - I've Been Loving You Too Long.wav" WAVE
INDEX 01 00:00:00
TRACK 06 AUDIO
TITLE "Love Is"
PERFORMER "Al Hudson & The Soul Partners"
INDEX 00 03:34:58
FILE "06 - Love Is.wav" WAVE
INDEX 01 00:00:00
TRACK 07 AUDIO
TITLE "Almost Ain't Good Enough"
PERFORMER "Al Hudson & The Soul Partners"
INDEX 00 03:39:51
FILE "07 - Almost Ain't Good Enough.wav" WAVE
INDEX 01 00:00:00
TRACK 08 AUDIO
TITLE "When I'm Loving You"
PERFORMER "Al Hudson & The Soul Partners"
INDEX 00 05:22:61
FILE "08 - When I'm Loving You.wav" WAVE
INDEX 01 00:00:00
Приватный:
Нет (DHT включён)
Размер:
312.88 Мб (328,074,017 байт) » файлов: 21
Участники:
0 раздают, 0 качают (0 участников всего)
Внешние участники:
5 раздают, 1 качают (6 участников всего) [ Обновить ]
Есть вопросы - пишите личное сообщение пользователю M0p94ok.
10:16
87
Нет комментариев. Ваш будет первым!