Поиск

(Funk, Soul, R&B) [CD] Beggar & Co. featuring The Jazz Funk Collective - Sleeping Giants - 2012, FLAC (tracks+.cue), lossless

(Funk, Soul, R&B) [CD] Beggar & Co. featuring The Jazz Funk Collective - Sleeping Giants - 2012, FLAC (tracks+.cue), lossless
Треклист:
Beggar & Co. - Sleeping Giants Жанр: Funk, Soul, R&B
Носитель: CD
Год издания: 2012
Издатель (лейбл): Expansion Records
Номер по каталогу: EXCDP 60
Аудиокодек: FLAC (*.flac)
Тип рипа: tracks+.cue
Битрейт аудио: lossless
Продолжительность: 77:46
Rip by JET 1
Наличие сканов в содержимом раздачи: да
Треклист:
01. If You Really Love (6:27)
02. Victoria Park (7:37)
03. Summer Is Here At Last (5:50)
04. Changes (4:12)
05. Street Life (4:22)
06. Sleeping Giants (6:11)
07. Rainbows (6:04)
08. While The City Sleeps (4:47)
09. New Beginnings (5:42)
10. Rise (5:13)
11. Rise Of The Pheonix (5:02)
12. Say What (6:37)
13. Yesterday's Gone (5:11)
14. Victoria Park (Radio Version) (4:31)
 
 
Лог создания рипа
Exact Audio Copy V1.0 beta 3 from 29. August 2011
EAC extraction logfile from 11. March 2016, 0:02
Beggar & Co. / Sleeping Giants
Used drive : GENERIC CDRCB05 Adapter: 4 ID: 0
Read mode : Secure
Utilize accurate stream : Yes
Defeat audio cache : Yes
Make use of C2 pointers : No
Read offset correction : 102
Overread into Lead-In and Lead-Out : No
Fill up missing offset samples with silence : Yes
Delete leading and trailing silent blocks : No
Null samples used in CRC calculations : Yes
Used interface : Native Win32 interface for Win NT & 2000
Gap handling : Appended to previous track
Used output format : User Defined Encoder
Selected bitrate : 1024 kBit/s
Quality : High
Add ID3 tag : No
Command line compressor : C:\Program Files\FLAC\flac.exe
Additional command line options : -8 -V -T "ARTIST=%artist%" -T "TITLE=%title%" -T "ALBUM=%albumtitle%" -T "DATE=%year%" -T "TRACKNUMBER=%tracknr%" -T "GENRE=%genre%" -T "PERFORMER=%albuminterpret%" -T "COMPOSER=%composer%" %haslyrics%--tag-from-file=LYRICS="%lyricsfile%"%haslyrics% -T "ALBUMARTIST=%albumartist%" -T "DISCNUMBER=%cdnumber%" -T "TOTALDISCS=%totalcds%" -T "TOTALTRACKS=%numtracks%" -T "COMMENT=%comment%" %source% -o %dest%
TOC of the extracted CD
Track | Start | Length | Start sector | End sector
---------------------------------------------------------
1 | 0:00.00 | 6:27.01 | 0 | 29025
2 | 6:27.01 | 7:37.28 | 29026 | 63328
3 | 14:04.29 | 5:50.01 | 63329 | 89579
4 | 19:54.30 | 4:12.11 | 89580 | 108490
5 | 24:06.41 | 4:22.01 | 108491 | 128141
6 | 28:28.42 | 6:10.57 | 128142 | 155948
7 | 34:39.24 | 6:04.02 | 155949 | 183250
8 | 40:43.26 | 4:47.01 | 183251 | 204776
9 | 45:30.27 | 5:42.00 | 204777 | 230426
10 | 51:12.27 | 5:13.06 | 230427 | 253907
11 | 56:25.33 | 5:02.01 | 253908 | 276558
12 | 61:27.34 | 6:36.39 | 276559 | 306297
13 | 68:03.73 | 5:11.37 | 306298 | 329659
14 | 73:15.35 | 4:30.47 | 329660 | 349956
Track 1
Filename F:\POSTSSSSS\Beggar & Co. - Sleeping Giants (2012)\01 - If You Really Love.wav
Pre-gap length 0:00:02.00
Peak level 98.8 %
Extraction speed 1.5 X
Track quality 100.0 %
Test CRC 936D3E91
Copy CRC 936D3E91
Track not present in AccurateRip database
Copy OK
Track 2
Filename F:\POSTSSSSS\Beggar & Co. - Sleeping Giants (2012)\02 - Victoria Park.wav
Pre-gap length 0:00:02.00
Peak level 98.8 %
Extraction speed 1.8 X
Track quality 100.0 %
Test CRC 611A2A3F
Copy CRC 611A2A3F
Track not present in AccurateRip database
Copy OK
Track 3
Filename F:\POSTSSSSS\Beggar & Co. - Sleeping Giants (2012)\03 - Summer Is Here At Last.wav
Pre-gap length 0:00:02.00
Peak level 98.8 %
Extraction speed 2.0 X
Track quality 100.0 %
Test CRC 4AC8CC98
Copy CRC 4AC8CC98
Track not present in AccurateRip database
Copy OK
Track 4
Filename F:\POSTSSSSS\Beggar & Co. - Sleeping Giants (2012)\04 - Changes.wav
Pre-gap length 0:00:02.00
Peak level 98.8 %
Extraction speed 2.1 X
Track quality 100.0 %
Test CRC 77AF8C60
Copy CRC 77AF8C60
Track not present in AccurateRip database
Copy OK
Track 5
Filename F:\POSTSSSSS\Beggar & Co. - Sleeping Giants (2012)\05 - Street Life.wav
Pre-gap length 0:00:02.00
Peak level 98.8 %
Extraction speed 2.2 X
Track quality 100.0 %
Test CRC 3B6C860F
Copy CRC 3B6C860F
Track not present in AccurateRip database
Copy OK
Track 6
Filename F:\POSTSSSSS\Beggar & Co. - Sleeping Giants (2012)\06 - Sleeping Giants.wav
Pre-gap length 0:00:02.00
Peak level 100.0 %
Extraction speed 2.4 X
Track quality 100.0 %
Test CRC 69C6807D
Copy CRC 69C6807D
Track not present in AccurateRip database
Copy OK
Track 7
Filename F:\POSTSSSSS\Beggar & Co. - Sleeping Giants (2012)\07 - Rainbows.wav
Pre-gap length 0:00:02.00
Peak level 100.0 %
Extraction speed 2.5 X
Track quality 100.0 %
Test CRC BA3C2CC0
Copy CRC BA3C2CC0
Track not present in AccurateRip database
Copy OK
Track 8
Filename F:\POSTSSSSS\Beggar & Co. - Sleeping Giants (2012)\08 - While The City Sleeps.wav
Pre-gap length 0:00:02.00
Peak level 98.8 %
Extraction speed 2.5 X
Track quality 100.0 %
Test CRC 7EEB8395
Copy CRC 7EEB8395
Track not present in AccurateRip database
Copy OK
Track 9
Filename F:\POSTSSSSS\Beggar & Co. - Sleeping Giants (2012)\09 - New Beginnings.wav
Pre-gap length 0:00:02.00
Peak level 54.7 %
Extraction speed 2.7 X
Track quality 100.0 %
Test CRC 268BB8B0
Copy CRC 268BB8B0
Track not present in AccurateRip database
Copy OK
Track 10
Filename F:\POSTSSSSS\Beggar & Co. - Sleeping Giants (2012)\10 - Rise.wav
Pre-gap length 0:00:02.00
Peak level 85.3 %
Extraction speed 2.5 X
Track quality 99.9 %
Test CRC BF12FA95
Copy CRC BF12FA95
Track not present in AccurateRip database
Copy OK
Track 11
Filename F:\POSTSSSSS\Beggar & Co. - Sleeping Giants (2012)\11 - Rise Of The Pheonix.wav
Pre-gap length 0:00:02.00
Peak level 98.8 %
Extraction speed 2.9 X
Track quality 100.0 %
Test CRC AC0747B8
Copy CRC AC0747B8
Track not present in AccurateRip database
Copy OK
Track 12
Filename F:\POSTSSSSS\Beggar & Co. - Sleeping Giants (2012)\12 - Say What.wav
Pre-gap length 0:00:02.00
Peak level 98.8 %
Extraction speed 3.1 X
Track quality 100.0 %
Test CRC 2DB336F0
Copy CRC 2DB336F0
Track not present in AccurateRip database
Copy OK
Track 13
Filename F:\POSTSSSSS\Beggar & Co. - Sleeping Giants (2012)\13 - Yesterday's Gone.wav
Pre-gap length 0:00:02.00
Peak level 93.3 %
Extraction speed 3.1 X
Track quality 100.0 %
Test CRC 1F296EF1
Copy CRC 1F296EF1
Track not present in AccurateRip database
Copy OK
Track 14
Filename F:\POSTSSSSS\Beggar & Co. - Sleeping Giants (2012)\14 - Victoria Park (Radio Version).wav
Pre-gap length 0:00:02.00
Peak level 100.0 %
Extraction speed 3.1 X
Track quality 100.0 %
Test CRC 8125B8A4
Copy CRC 8125B8A4
Track not present in AccurateRip database
Copy OK
None of the tracks are present in the AccurateRip database
No errors occurred
End of status report
==== Log checksum A6639AF1FCC6E52FA617750D095FBE719F6A213F2E441FC2EE22A1A34A5914F1 ====
 
Содержание индексной карты (.CUE)
REM GENRE Funk
REM DATE 2012
REM DISCID E0123A0E
REM COMMENT "ExactAudioCopy v1.0b3"
PERFORMER "Beggar & Co."
TITLE "Sleeping Giants"
FILE "01 - If You Really Love.wav" WAVE
TRACK 01 AUDIO
TITLE "If You Really Love"
PERFORMER "Beggar & Co."
INDEX 01 00:00:00
TRACK 02 AUDIO
TITLE "Victoria Park"
PERFORMER "Beggar & Co."
INDEX 00 06:25:01
FILE "02 - Victoria Park.wav" WAVE
INDEX 01 00:00:00
TRACK 03 AUDIO
TITLE "Summer Is Here At Last"
PERFORMER "Beggar & Co."
INDEX 00 07:35:28
FILE "03 - Summer Is Here At Last.wav" WAVE
INDEX 01 00:00:00
TRACK 04 AUDIO
TITLE "Changes"
PERFORMER "Beggar & Co."
INDEX 00 05:48:01
FILE "04 - Changes.wav" WAVE
INDEX 01 00:00:00
TRACK 05 AUDIO
TITLE "Street Life"
PERFORMER "Beggar & Co."
INDEX 00 04:10:11
FILE "05 - Street Life.wav" WAVE
INDEX 01 00:00:00
TRACK 06 AUDIO
TITLE "Sleeping Giants"
PERFORMER "Beggar & Co."
INDEX 00 04:20:01
FILE "06 - Sleeping Giants.wav" WAVE
INDEX 01 00:00:00
TRACK 07 AUDIO
TITLE "Rainbows"
PERFORMER "Beggar & Co."
INDEX 00 06:08:57
FILE "07 - Rainbows.wav" WAVE
INDEX 01 00:00:00
TRACK 08 AUDIO
TITLE "While The City Sleeps"
PERFORMER "Beggar & Co."
INDEX 00 06:02:02
FILE "08 - While The City Sleeps.wav" WAVE
INDEX 01 00:00:00
TRACK 09 AUDIO
TITLE "New Beginnings"
PERFORMER "Beggar & Co."
INDEX 00 04:45:01
FILE "09 - New Beginnings.wav" WAVE
INDEX 01 00:00:00
TRACK 10 AUDIO
TITLE "Rise"
PERFORMER "Beggar & Co."
INDEX 00 05:40:00
FILE "10 - Rise.wav" WAVE
INDEX 01 00:00:00
TRACK 11 AUDIO
TITLE "Rise Of The Pheonix"
PERFORMER "Beggar & Co."
INDEX 00 05:11:06
FILE "11 - Rise Of The Pheonix.wav" WAVE
INDEX 01 00:00:00
TRACK 12 AUDIO
TITLE "Say What"
PERFORMER "Beggar & Co."
INDEX 00 05:00:01
FILE "12 - Say What.wav" WAVE
INDEX 01 00:00:00
TRACK 13 AUDIO
TITLE "Yesterday's Gone"
PERFORMER "Beggar & Co."
INDEX 00 06:34:39
FILE "13 - Yesterday's Gone.wav" WAVE
INDEX 01 00:00:00
TRACK 14 AUDIO
TITLE "Victoria Park (Radio Version)"
PERFORMER "Beggar & Co."
INDEX 00 05:09:37
FILE "14 - Victoria Park (Radio Version).wav" WAVE
INDEX 01 00:00:00
Приватный:
Нет (DHT включён)
Размер:
613.09 Мб (642,870,771 байт) » файлов: 26
Участники:
0 раздают, 0 качают (0 участников всего)
Внешние участники:
2 раздают, 1 качают (3 участников всего) [ Обновить ]
Есть вопросы - пишите личное сообщение пользователю M0p94ok.
10:16
55
Нет комментариев. Ваш будет первым!