Поиск

(Jazz-Funk) [CD] Jay Berliner - Bananas Are Not Created Equal - 1972 (2007 Japan Edition), FLAC (tracks+.cue), lossless

(Jazz-Funk) [CD] Jay Berliner - Bananas Are Not Created Equal - 1972 (2007 Japan Edition), FLAC (tracks+.cue), lossless
Треклист:
Jay Berliner - Bananas Are Not Created Equal
Жанр: Jazz-Funk
Носитель: CD
Страна-производитель диска (релиза): Япония
Год издания: 1972 (2007)
Издатель (лейбл): P-Vine Records (Return Of Jazz Funk)
Номер по каталогу: PCD-23937
Страна исполнителя (группы): США
Аудиокодек: FLAC (*.flac)
Тип рипа: tracks+.cue
Битрейт аудио: lossless
Продолжительность: 37:03
Источник (релизер): KidCanary (what)
Наличие сканов в содержимом раздачи: нет
Треклист:
01. Getting the Message (Marcus) - 4:04
02. I Just Want to Be There (Jiles-Borgie) - 3:55
03. Papa Was a Rolling Stone (Whitfield-Strong) - 5:30
04. Hey Western Union Man (Gamble-Huff-Butler) - 3:10
05. Stormy (Buie-Cobb) - 4:21
06. Use Me (Withers) - 3:07
07. We've Come Too Far to End It Now (Jones-Brown) - 4:40
08. Stickball (Marcus) - 3:58
09. I'm Still in Love with You (Green-Mitchell-Jackson) - 4:18
Состав:
Jay Berliner - electric & rhythm guitar
Gordon Edwards - Fender & acoustic bass
Jimmy Johnson - drums
Paul Griffin - piano
Ray Barretto - conga drums
Cornell Dupree - guitar
Joe Venuto - mallets, tambourine
Wade Marcus - arranger, conductor
Bob Shad - producer
 
Лог создания рипа
Exact Audio Copy V1.1 from 23. June 2015
EAC extraction logfile from 15. March 2016, 18:40
Jay Berliner / Bananas Are Not Created Equal
Used drive : ASUS DRW-24B1ST Adapter: 1 ID: 0
Read mode : Secure
Utilize accurate stream : Yes
Defeat audio cache : Yes
Make use of C2 pointers : No
Read offset correction : 6
Overread into Lead-In and Lead-Out : No
Fill up missing offset samples with silence : Yes
Delete leading and trailing silent blocks : No
Null samples used in CRC calculations : Yes
Used interface : Native Win32 interface for Win NT & 2000
Gap handling : Appended to previous track
Used output format : User Defined Encoder
Selected bitrate : 1024 kBit/s
Quality : High
Add ID3 tag : No
Command line compressor : C:\Program Files\FLAC 1.3.1\win64\flac.exe
Additional command line options : -8 -V -T "ARTIST=%artist%" -T "TITLE=%title%" -T "ALBUM=%albumtitle%" -T "DATE=%year%" -T "TRACKNUMBER=%tracknr%" -T "GENRE=%genre%" -T "PERFORMER=%albuminterpret%" -T "COMPOSER=%composer%" %haslyrics%--tag-from-file=LYRICS="%lyricsfile%"%haslyrics% -T "ALBUMARTIST=%albumartist%" -T "DISCNUMBER=%cdnumber%" -T "TOTALDISCS=%totalcds%" -T "TOTALTRACKS=%numtracks%" -T "COMMENT=%comment%" %source% -o %dest%
TOC of the extracted CD
Track | Start | Length | Start sector | End sector
---------------------------------------------------------
1 | 0:00.00 | 4:04.07 | 0 | 18306
2 | 4:04.07 | 3:54.57 | 18307 | 35913
3 | 7:58.64 | 5:30.25 | 35914 | 60688
4 | 13:29.14 | 3:09.65 | 60689 | 74928
5 | 16:39.04 | 4:21.10 | 74929 | 94513
6 | 21:00.14 | 3:06.43 | 94514 | 108506
7 | 24:06.57 | 4:39.55 | 108507 | 129486
8 | 28:46.37 | 3:57.40 | 129487 | 147301
9 | 32:44.02 | 4:18.03 | 147302 | 166654
Track 1
Filename C:\EAC Rips\01 - Getting the Message.wav
Pre-gap length 0:00:02.00
Peak level 99.9 %
Extraction speed 3.3 X
Track quality 100.0 %
Test CRC 391A766C
Copy CRC 391A766C
Track not present in AccurateRip database
Copy OK
Track 2
Filename C:\EAC Rips\02 - I Just Want to Be There.wav
Pre-gap length 0:00:01.72
Peak level 99.9 %
Extraction speed 3.7 X
Track quality 100.0 %
Test CRC E5BB0C19
Copy CRC E5BB0C19
Track not present in AccurateRip database
Copy OK
Track 3
Filename C:\EAC Rips\03 - Papa Was a Rolling Stone.wav
Pre-gap length 0:00:01.68
Peak level 89.9 %
Extraction speed 3.6 X
Track quality 99.9 %
Test CRC 04154FDE
Copy CRC 04154FDE
Track not present in AccurateRip database
Copy OK
Track 4
Filename C:\EAC Rips\04 - Hey Western Union Man.wav
Pre-gap length 0:00:01.28
Peak level 90.5 %
Extraction speed 3.3 X
Track quality 99.9 %
Test CRC 13FB441F
Copy CRC 13FB441F
Track not present in AccurateRip database
Copy OK
Track 5
Filename C:\EAC Rips\05 - Stormy.wav
Pre-gap length 0:00:01.70
Peak level 96.1 %
Extraction speed 4.7 X
Track quality 100.0 %
Test CRC 937F560A
Copy CRC 937F560A
Track not present in AccurateRip database
Copy OK
Track 6
Filename C:\EAC Rips\06 - Use Me.wav
Pre-gap length 0:00:03.00
Peak level 99.9 %
Extraction speed 3.6 X
Track quality 99.9 %
Test CRC 21A00D5A
Copy CRC 21A00D5A
Track not present in AccurateRip database
Copy OK
Track 7
Filename C:\EAC Rips\07 - We've Come Too Far to End It Now.wav
Pre-gap length 0:00:01.84
Peak level 92.9 %
Extraction speed 5.2 X
Track quality 100.0 %
Test CRC 6B5F50B0
Copy CRC 6B5F50B0
Track not present in AccurateRip database
Copy OK
Track 8
Filename C:\EAC Rips\08 - Stickball.wav
Pre-gap length 0:00:01.74
Peak level 99.9 %
Extraction speed 5.3 X
Track quality 100.0 %
Test CRC F74F4E34
Copy CRC F74F4E34
Track not present in AccurateRip database
Copy OK
Track 9
Filename C:\EAC Rips\09 - I'm Still in Love with You.wav
Pre-gap length 0:00:00.34
Peak level 99.2 %
Extraction speed 5.6 X
Track quality 100.0 %
Test CRC BB86DA31
Copy CRC BB86DA31
Track not present in AccurateRip database
Copy OK
None of the tracks are present in the AccurateRip database
No errors occurred
End of status report
---- CUETools DB Plugin V2.1.6
[CTDB TOCID: qHEHwZKgfWUlW_qwbLsUHzvhTmA-] found
Submit result: qHEHwZKgfWUlW_qwbLsUHzvhTmA- has been confirmed
Track | CTDB Status
1 | (1/1) Accurately ripped
2 | (1/1) Accurately ripped
3 | (1/1) Accurately ripped
4 | (1/1) Accurately ripped
5 | (1/1) Accurately ripped
6 | (1/1) Accurately ripped
7 | (1/1) Accurately ripped
8 | (1/1) Accurately ripped
9 | (1/1) Accurately ripped
==== Log checksum A004D751C6013BBAA461EE88AC897079B00BA917A7E67AEA5521383906DC1849 ====
 
Содержание индексной карты (.CUE)
REM GENRE Jazz
REM DATE 1972
REM DISCID 6A08AE09
REM COMMENT "ExactAudioCopy v1.1"
CATALOG 4995879239377
PERFORMER "Jay Berliner"
TITLE "Bananas Are Not Created Equal"
FILE "01 - Getting the Message.wav" WAVE
TRACK 01 AUDIO
TITLE "Getting the Message"
PERFORMER "Jay Berliner"
INDEX 01 00:00:00
TRACK 02 AUDIO
TITLE "I Just Want to Be There"
PERFORMER "Jay Berliner"
INDEX 00 04:02:28
FILE "02 - I Just Want to Be There.wav" WAVE
INDEX 01 00:00:00
TRACK 03 AUDIO
TITLE "Papa Was a Rolling Stone"
PERFORMER "Jay Berliner"
INDEX 00 03:53:06
FILE "03 - Papa Was a Rolling Stone.wav" WAVE
INDEX 01 00:00:00
TRACK 04 AUDIO
TITLE "Hey Western Union Man"
PERFORMER "Jay Berliner"
INDEX 00 05:29:04
FILE "04 - Hey Western Union Man.wav" WAVE
INDEX 01 00:00:00
TRACK 05 AUDIO
TITLE "Stormy"
PERFORMER "Jay Berliner"
INDEX 00 03:08:12
FILE "05 - Stormy.wav" WAVE
INDEX 01 00:00:00
TRACK 06 AUDIO
TITLE "Use Me"
PERFORMER "Jay Berliner"
INDEX 00 04:18:10
FILE "06 - Use Me.wav" WAVE
INDEX 01 00:00:00
TRACK 07 AUDIO
TITLE "We've Come Too Far to End It Now"
PERFORMER "Jay Berliner"
INDEX 00 03:04:55
FILE "07 - We've Come Too Far to End It Now.wav" WAVE
INDEX 01 00:00:00
TRACK 08 AUDIO
TITLE "Stickball"
PERFORMER "Jay Berliner"
INDEX 00 04:37:74
FILE "08 - Stickball.wav" WAVE
INDEX 01 00:00:00
TRACK 09 AUDIO
TITLE "I'm Still in Love with You"
PERFORMER "Jay Berliner"
INDEX 00 03:57:14
FILE "09 - I'm Still in Love with You.wav" WAVE
INDEX 01 00:00:00
 
Отчет CUETools
[CUETools log; Date: 18.03.2016 2:46:48; Version: 2.1.5]
[CTDB TOCID: qHEHwZKgfWUlW_qwbLsUHzvhTmA-] found.
Track | CTDB Status
1 | (2/2) Accurately ripped
2 | (2/2) Accurately ripped
3 | (2/2) Accurately ripped
4 | (2/2) Accurately ripped
5 | (2/2) Accurately ripped
6 | (2/2) Accurately ripped
7 | (2/2) Accurately ripped
8 | (2/2) Accurately ripped
9 | (2/2) Accurately ripped
[AccurateRip ID: 000cc2d0-005d54cb-6a08ae09] disk not present in database.
Track Peak [ CRC32 ] [W/O NULL] [ LOG ]
-- 99,9 [6CB6792C] [121DED66]
01 99,9 [391A766C] [804579D1] CRC32
02 99,9 [E5BB0C19] [80831BBE] CRC32
03 89,9 [04154FDE] [C20466EE] CRC32
04 90,5 [13FB441F] [45968A93] CRC32
05 96,1 [937F560A] [67781A1E] CRC32
06 99,9 [21A00D5A] [6501A788] CRC32
07 92,9 [6B5F50B0] [A4650D52] CRC32
08 99,9 [F74F4E34] [45161D94] CRC32
09 99,2 [BB86DA31] [D6B22EA0] CRC32
 
Об альбоме (сборнике)
The track I bring you today is something that has been marinating in my crates for a few years now.
I grabbed a copy of Jay Berliner’s ‘Bananas Are Not Created Equal’ a while back after a friend turned me on to the track you see before you today, ‘Stickball’.
I knew Berliner’s name – he is a prolific studio guitarist with a very long and prestigious resume, including stints with Charles Mingus and Van Morrison (Astral Weeks) – but had no idea he had ever done anything this funky.
Recorded in 1972, under the aegis of arranger Wade Marcus (who also wrote this tune) ‘Bananas…’ featured Berliner and a group of studio heavies working it out on a number of contemporary covers (Temptations, Al Green, Bill Withers) and a couple of excellent, funky originals.
‘Stickball’ opens with Ray Barretto’s congas and Berliner’s guitar, then joined by Cornell Dupree on electric sitar and Paul Griffin on clavinet.
The tune has a thick, jazz-funk groove, with some hot soloing (naturally) by Berliner.
The rest of the album is definitely worth checking out if you happen to find a copy out in the field.
-- Larry
Приватный:
Нет (DHT включён)
Размер:
206.68 Мб (216,718,873 байт) » файлов: 15
Участники:
0 раздают, 0 качают (0 участников всего)
Внешние участники:
2 раздают, 1 качают (3 участников всего) [ Обновить ]
No seeders - write a personal message to user M0p94ok. Нет сидеров - пишите личное сообщение пользователю M0p94ok.
10:18
67
Нет комментариев. Ваш будет первым!