Поиск

(Soul) [CD] VA - 25 №1 Hits From 25 Years vol. 1 - 1985, FLAC (tracks+.cue), lossless

(Soul) [CD] VA - 25 №1 Hits From 25 Years vol. 1 - 1985, FLAC (tracks+.cue), lossless
Треклист:
25 №1 Hits From 25 Years vol. 1
Жанр: Soul
Носитель: CD
Страна-производитель диска (релиза): Canada
Год издания: 1985
Издатель (лейбл): Motown Records Corp.
Номер по каталогу: MOTD2-6132/MD16132
Аудиокодек: FLAC (*.flac)
Тип рипа: tracks+.cue
Битрейт аудио: lossless
Продолжительность: 0:43:44.
Источник (релизер): clustert
Наличие сканов в содержимом раздачи: да
Треклист:
01. Marvelettes / Please Mr. Postman [0:02:28.45]
02. Supremes / Baby Love [0:02:37.62]
03. Temptations / My Girl [0:02:43.68]
04. Four Tops / I Can't Help Myself [0:02:42.52]
05. Supremes / You Can't Hurry Love [0:02:47.13]
06. Four Tops / Reach Out I'll Be There [0:03:00.40]
07. Marvin Gaye / I Heard It Through The Grapevine [0:03:17.15]
08. Jackson Five / I Want You Back [0:02:57.50]
09. Jackson Five / ABC [0:02:59.15]
10. Diana Ross / Ain't No Mountain High Enough [0:03:29.62]
11. Jackson Five / I'll Be There [0:03:57.28]
12. Miracles / The Tears Of A Clown [0:03:00.45]
13. Temptations / Just My Imagination (Running Away With Me) [0:03:49.25]
14. Marvin Gaye / What's Going On [0:03:52.12]
 
Лог создания рипа
Exact Audio Copy V1.0 beta 3 from 29. August 2011
Отчёт EAC об извлечении, выполненном 22. сентября 2016, 22:43
VA / 25 #1 Hits From 25 Years vol. 1
Дисковод: ASUS DRW-1814BLT Adapter: 4 ID: 0
Режим чтения : Достоверность
Использование точного потока : Да
Отключение кэша аудио : Да
Использование указателей C2 : Нет
Коррекция смещения при чтении : 6
Способность читать области Lead-in и Lead-out : Нет
Заполнение пропущенных сэмплов тишиной : Да
Удаление блоков с тишиной в начале и конце : Нет
При вычислениях CRC использовались нулевые сэмплы : Да
Интерфейс : Встроенный Win32-интерфейс для Win NT/2000
Обработка зазоров : Добавлено к предыдущему треку
Выходной формат : Пользовательский кодировщик
Выбранный битрейт : 128 kBit/s
Качество : Высокий
Добавление ID3-тега : Нет
Утилита сжатия : C:\Program Files\Exact Audio Copy\Flac\flac.exe
Дополнительные параметры : -V -8 -T "Genre=%genre%" -T "Artist=%artist%" -T "Title=%title%" -T "Album=%albumtitle%" -T "Date=%year%" -T "Tracknumber=%tracknr%" -T "Comment=EAC1.0b2 FLAC -8" %source%
TOC извлечённого CD
Трек | Старт | Длительность | Начальный сектор | Конечный сектор
---------------------------------------------------------------------
1 | 0:00.00 | 2:28.45 | 0 | 11144
2 | 2:28.45 | 2:37.62 | 11145 | 22981
3 | 5:06.32 | 2:43.68 | 22982 | 35274
4 | 7:50.25 | 2:42.52 | 35275 | 47476
5 | 10:33.02 | 2:47.13 | 47477 | 60014
6 | 13:20.15 | 3:00.40 | 60015 | 73554
7 | 16:20.55 | 3:17.15 | 73555 | 88344
8 | 19:37.70 | 2:57.50 | 88345 | 101669
9 | 22:35.45 | 2:59.15 | 101670 | 115109
10 | 25:34.60 | 3:29.62 | 115110 | 130846
11 | 29:04.47 | 3:57.28 | 130847 | 148649
12 | 33:02.00 | 3:00.45 | 148650 | 162194
13 | 36:02.45 | 3:49.25 | 162195 | 179394
14 | 39:51.70 | 3:52.12 | 179395 | 196806
Трек 1
Имя файла R:\Раздача 67\VA - 25 # 1 Hits From 25 Years vol.1 - 1985\01 Please Mr. Postman .wav
Длина предзазора 0:00:02.00
Пиковый уровень 100.0 %
Скорость извлечения 4.5 X
Качество трека 100.0 %
CRC теста 0F2F7D61
CRC копии 0F2F7D61
Точность не определена (достоверность 8) [3C8E3C0E], AccurateRip вернул [BD4F5957] (AR v2)
Копирование... OK
Трек 2
Имя файла R:\Раздача 67\VA - 25 # 1 Hits From 25 Years vol.1 - 1985\02 Baby Love .wav
Длина предзазора 0:00:02.05
Пиковый уровень 100.0 %
Скорость извлечения 4.9 X
Качество трека 100.0 %
CRC теста 5E3D53D1
CRC копии 5E3D53D1
Точность не определена (достоверность 8) [40CA0442], AccurateRip вернул [9B119B86] (AR v2)
Копирование... OK
Трек 3
Имя файла R:\Раздача 67\VA - 25 # 1 Hits From 25 Years vol.1 - 1985\03 My Girl .wav
Длина предзазора 0:00:01.45
Пиковый уровень 100.0 %
Скорость извлечения 5.3 X
Качество трека 100.0 %
CRC теста CAE1320E
CRC копии CAE1320E
Точность не определена (достоверность 8) [601BA74A], AccurateRip вернул [47548B98] (AR v2)
Копирование... OK
Трек 4
Имя файла R:\Раздача 67\VA - 25 # 1 Hits From 25 Years vol.1 - 1985\04 I Can't Help Myself .wav
Длина предзазора 0:00:01.33
Пиковый уровень 92.4 %
Скорость извлечения 4.0 X
Качество трека 99.9 %
CRC теста 9C4234D6
CRC копии 9C4234D6
Точность не определена (достоверность 8) [1D9D155F], AccurateRip вернул [5B9B932A] (AR v2)
Копирование... OK
Трек 5
Имя файла R:\Раздача 67\VA - 25 # 1 Hits From 25 Years vol.1 - 1985\05 You Can't Hurry Love .wav
Длина предзазора 0:00:01.32
Пиковый уровень 82.0 %
Скорость извлечения 5.9 X
Качество трека 100.0 %
CRC теста 2A9AAABF
CRC копии 2A9AAABF
Точность не определена (достоверность 8) [C9D5E0BE], AccurateRip вернул [9BE2371C] (AR v2)
Копирование... OK
Трек 6
Имя файла R:\Раздача 67\VA - 25 # 1 Hits From 25 Years vol.1 - 1985\06 Reach Out I'll Be There .wav
Длина предзазора 0:00:01.43
Пиковый уровень 93.9 %
Скорость извлечения 6.2 X
Качество трека 100.0 %
CRC теста 63039F2F
CRC копии 63039F2F
Точность не определена (достоверность 8) [4CE1FE30], AccurateRip вернул [17B6341A] (AR v2)
Копирование... OK
Трек 7
Имя файла R:\Раздача 67\VA - 25 # 1 Hits From 25 Years vol.1 - 1985\07 I Heard It Through The Grapevine .wav
Длина предзазора 0:00:01.38
Пиковый уровень 100.0 %
Скорость извлечения 4.9 X
Качество трека 99.9 %
CRC теста BE7312CB
CRC копии BE7312CB
Точность не определена (достоверность 8) [309CA7AF], AccurateRip вернул [B1AAF9C0] (AR v2)
Копирование... OK
Трек 8
Имя файла R:\Раздача 67\VA - 25 # 1 Hits From 25 Years vol.1 - 1985\08 I Want You Back .wav
Длина предзазора 0:00:01.58
Пиковый уровень 98.0 %
Скорость извлечения 6.9 X
Качество трека 100.0 %
CRC теста E59C670E
CRC копии E59C670E
Точность не определена (достоверность 8) [77940E99], AccurateRip вернул [85C817B3] (AR v2)
Копирование... OK
Трек 9
Имя файла R:\Раздача 67\VA - 25 # 1 Hits From 25 Years vol.1 - 1985\09 ABC .wav
Пиковый уровень 98.1 %
Скорость извлечения 7.2 X
Качество трека 100.0 %
CRC теста 1964F46E
CRC копии 1964F46E
Точность не определена (достоверность 8) [A8FF5CDB], AccurateRip вернул [FBACD94C] (AR v2)
Копирование... OK
Трек 10
Имя файла R:\Раздача 67\VA - 25 # 1 Hits From 25 Years vol.1 - 1985\10 Ain't No Mountain High Enough .wav
Длина предзазора 0:00:01.60
Пиковый уровень 100.0 %
Скорость извлечения 5.6 X
Качество трека 99.9 %
CRC теста 6B89FAC1
CRC копии 6B89FAC1
Точность не определена (достоверность 8) [11F2FFF0], AccurateRip вернул [5025B89D] (AR v2)
Копирование... OK
Трек 11
Имя файла R:\Раздача 67\VA - 25 # 1 Hits From 25 Years vol.1 - 1985\11 I'll Be There .wav
Длина предзазора 0:00:00.62
Пиковый уровень 69.5 %
Скорость извлечения 6.0 X
Качество трека 99.9 %
CRC теста ACAE347D
CRC копии ACAE347D
Точность не определена (достоверность 8) [145368F2], AccurateRip вернул [201229A9] (AR v2)
Копирование... OK
Трек 12
Имя файла R:\Раздача 67\VA - 25 # 1 Hits From 25 Years vol.1 - 1985\12 The Tears Of A Clown .wav
Длина предзазора 0:00:01.30
Пиковый уровень 100.0 %
Скорость извлечения 5.7 X
Качество трека 99.9 %
CRC теста 6485B17C
CRC копии 6485B17C
Точность не определена (достоверность 8) [DDDE7050], AccurateRip вернул [C41C22D6] (AR v2)
Копирование... OK
Трек 13
Имя файла R:\Раздача 67\VA - 25 # 1 Hits From 25 Years vol.1 - 1985\13 Just My Imagination (Running Away With Me) .wav
Длина предзазора 0:00:01.60
Пиковый уровень 87.7 %
Скорость извлечения 8.5 X
Качество трека 100.0 %
CRC теста F1219590
CRC копии F1219590
Точность не определена (достоверность 8) [03C00840], AccurateRip вернул [1168C9AF] (AR v2)
Копирование... OK
Трек 14
Имя файла R:\Раздача 67\VA - 25 # 1 Hits From 25 Years vol.1 - 1985\14 What's Going On .wav
Длина предзазора 0:00:01.43
Пиковый уровень 100.0 %
Скорость извлечения 8.8 X
Качество трека 100.0 %
CRC теста 0ABFA5A4
CRC копии 0ABFA5A4
Точность не определена (достоверность 8) [042C468B], AccurateRip вернул [062C793E] (AR v2)
Копирование... OK
Ни один трек не прошёл проверки на точность
В вашей базе может быть иной вариант штамповки диска
Ошибок не произошло
Конец отчёта
==== Контрольная сумма отчёта A377C300359296F849E0CB5A956B9245D073E1F6675782700223A5BF40CB06B8 ====
 
Содержание индексной карты (.CUE)
REM GENRE Soul
REM DATE 1985
REM DISCID C20A400E
REM COMMENT "ExactAudioCopy v1.0b3"
PERFORMER "VA"
TITLE "25 #1 Hits From 25 Years vol. 1"
FILE "01 Please Mr. Postman .wav" WAVE
TRACK 01 AUDIO
TITLE "Please Mr. Postman"
PERFORMER "Marvelettes"
INDEX 01 00:00:00
TRACK 02 AUDIO
TITLE "Baby Love"
PERFORMER "Supremes"
INDEX 00 02:26:40
FILE "02 Baby Love .wav" WAVE
INDEX 01 00:00:00
TRACK 03 AUDIO
TITLE "My Girl"
PERFORMER "Temptations"
INDEX 00 02:36:17
FILE "03 My Girl .wav" WAVE
INDEX 01 00:00:00
TRACK 04 AUDIO
TITLE "I Can't Help Myself"
PERFORMER "Four Tops"
INDEX 00 02:42:35
FILE "04 I Can't Help Myself .wav" WAVE
INDEX 01 00:00:00
TRACK 05 AUDIO
TITLE "You Can't Hurry Love"
PERFORMER "Supremes"
INDEX 00 02:41:20
FILE "05 You Can't Hurry Love .wav" WAVE
INDEX 01 00:00:00
TRACK 06 AUDIO
TITLE "Reach Out I'll Be There"
PERFORMER "Four Tops"
INDEX 00 02:45:45
FILE "06 Reach Out I'll Be There .wav" WAVE
INDEX 01 00:00:00
TRACK 07 AUDIO
TITLE "I Heard It Through The Grapevine"
PERFORMER "Marvin Gaye"
INDEX 00 02:59:02
FILE "07 I Heard It Through The Grapevine .wav" WAVE
INDEX 01 00:00:00
TRACK 08 AUDIO
TITLE "I Want You Back"
PERFORMER "Jackson Five"
INDEX 00 03:15:32
FILE "08 I Want You Back .wav" WAVE
INDEX 01 00:00:00
FILE "09 ABC .wav" WAVE
TRACK 09 AUDIO
TITLE "ABC"
PERFORMER "Jackson Five"
INDEX 01 00:00:00
TRACK 10 AUDIO
TITLE "Ain't No Mountain High Enough"
PERFORMER "Diana Ross"
INDEX 00 02:57:30
FILE "10 Ain't No Mountain High Enough .wav" WAVE
INDEX 01 00:00:00
TRACK 11 AUDIO
TITLE "I'll Be There"
PERFORMER "Jackson Five"
INDEX 00 03:29:00
FILE "11 I'll Be There .wav" WAVE
INDEX 01 00:00:00
TRACK 12 AUDIO
TITLE "The Tears Of A Clown"
PERFORMER "Miracles"
INDEX 00 03:55:73
FILE "12 The Tears Of A Clown .wav" WAVE
INDEX 01 00:00:00
TRACK 13 AUDIO
TITLE "Just My Imagination (Running Away With Me)"
PERFORMER "Temptations"
INDEX 00 02:58:60
FILE "13 Just My Imagination (Running Away With Me) .wav" WAVE
INDEX 01 00:00:00
TRACK 14 AUDIO
TITLE "What's Going On"
PERFORMER "Marvin Gaye"
INDEX 00 03:47:57
FILE "14 What's Going On .wav" WAVE
INDEX 01 00:00:00
Приватный:
Нет (DHT включён)
Размер:
271.81 Мб (285,010,881 байт) » файлов: 23
Участники:
0 раздают, 0 качают (0 участников всего)
Внешние участники:
1 раздают, 0 качают (1 участников всего) [ Обновить ]
No seeders - write a personal message to user M0p94ok. Нет сидеров - пишите личное сообщение пользователю M0p94ok.
12:01
74
Нет комментариев. Ваш будет первым!