Поиск

(Funk, Soul, Blues) [3xCD] VA - Funk (The Essential Collection) [Union Square Music |INTROTCD45) (3CD) - 2009, FLAC (tracks+.cue), lossless

(Funk, Soul, Blues) [3xCD] VA - Funk (The Essential Collection) [Union Square Music |INTROTCD45) (3CD) - 2009, FLAC (tracks+.cue), lossless
Треклист:
VA / Funk (The Essential Collection) (3CD)
Жанр: Funk, Soul, Blues
Носитель: CD
Страна-производитель диска (релиза): UK
Год издания: 2009
Издатель (лейбл): Union Square Music
Номер по каталогу: INTROTCD45
Аудиокодек: FLAC (*.flac)
Тип рипа: tracks+.cue
Битрейт аудио: lossless
Продолжительность: (01:16:02)+ (01:13:39)+(01:17:59)
Источник (релизер): Собственный рип
Наличие сканов в содержимом раздачи: да
 
Disc One:
01. The Meters - Cissy Strut [03:01]
02. Lightnin’ Rod - Sport [02:35]
03. Curtis Mayfield - Pusherman [05:02]
04. Aaron Neville - Hercules [04:13]
05. Pee Wee Ellis - Moon Walk [02:45]
06. Joe Tex - Papa Was Too [02:40]
07. Betty Harris - There’s A Break In The Road [02:44]
08. Maceo & All The Kings Men - Got To Getcha [02:47]
09. Lee Dorsey - Riverboat [02:36]
10. Funkadelic - One Nation Under A Groove [07:26]
11. Alvin Cash - Keep On Dancing [02:38]
12. Jody Gayles - You Gotta Push [02:48]
13. Gill Scott-Heron - The Bottle [05:12]
14. Bobby Womack - Across 110th Street [03:50]
15. Leroy Hutson - Blackberry Jam [04:53]
16. Linda Clifford - Runaway Love [07:05]
17. Mavis Staples - Koochie Koochie Koochie [02:46]
18. Ripple - A Funky Song [03:02]
19. The Meters - Same Old Thing [02:46]
20. Bob James - Nautilus [05:04]
 
Disc Two:
01. Skull Snaps - It’s A New Day [02:59]
02. Curtis Mayfield - A Heavy Dude [04:05]
03. Mavis Staples - Chocolate City [05:15]
04. The Natural Four - It’s The Music [03:13]
05. Charles Rouse - In A Funky Way [04:50]
06. Funkadelic - Freak Of The Week [05:32]
07. Sir Joe Quarterman & Free Soul - I Got So Much Trouble In My Mind[03:10]
08. Moody Scott - (We Gotta) Bust Outta The Ghetto [06:13]
09. oe Tex - Who Gave Birth To The Funk [03:14]
10. The Meters - Hey Last Minute [02:53]
11. Lee Dorsey - Who’s Gonna Help Brother Get Further? [03:04]
12. The Delfonics - Men Of Action [05:15]
13. Bobby Womack - You’re Welcome, Stop On By [03:43]
14. Barry White - I’ve Got The World To Hold Me Up [02:58]
15. Ava Cherry - Gimme Your Lovin’ [03:21]
16. Ann Sexton - Colour My World Blue [02:41]
17. Joe Tex - I Gotcha [02:13]
18. Fred Wesley - Bop To The Boogie [05:53]
19. Goliath - Roving Minstrel [02:57]
 
Disc Three:
01. Fred Wesley - House Party [05:41]
02. Joe Tex - Ain't Gonna Bump No More (With No Big Fat Woman)[03:24]
03. Lee Dorsey - Night People [04:21]
04. Robert Parker - Get Ta' Stepin [02:44]
05. Soul Suspects - Funky Drop [02:40]
06. Betty Harris - Ride Your Pony [03:09]
07. Five Stairsteps & Cubie - Don't Change Your Love [02:47]
08. Eddie Bo & Inez Cheatham - Lover And A Friend [02:27]
09. The Meters - Look-Ka-Py-Py [03:12]
10. Bobby Womack & JJ Johnson - Harlem Clavinette [02:11]
11. Sir Joe Quarterman & Free Soul - The Way They Do My Life[03:00]
12. The Staple Singers - Funky Love [04:45]
13. Maceo & All The Kings Men - Maceo [07:46]
14. Curtis Mayfield - Freddie's Dead [05:24]
15. The Impressions - Sooner Or Later [02:55]
16. The Ohio Players - Find Someone To Love [02:13]
17. Clemon Smith - Brother Man, Sister Ann [06:20]
18. Jackie Beavers - Singing A Funky Song (For You Baby) [02:08]
19. Kool & The Gang - Kind Of Funky [08:21]
20. Continental Showstoppers - Goo Bah [02:22]
 
logs and sheets
 
Log EAC CD 1
Exact Audio Copy V1.1 from 23. June 2015
EAC extraction logfile from 16. August 2016, 6:15
Various Artists / CD1 - Under A Groove: Killer Funky Klassiks
Used drive : Optiarc DVD RW AD-5200A Adapter: 1 ID: 0
Read mode : Secure
Utilize accurate stream : Yes
Defeat audio cache : Yes
Make use of C2 pointers : No
Read offset correction : 48
Overread into Lead-In and Lead-Out : No
Fill up missing offset samples with silence : Yes
Delete leading and trailing silent blocks : No
Null samples used in CRC calculations : Yes
Used interface : Native Win32 interface for Win NT & 2000
Gap handling : Appended to previous track
Used output format : User Defined Encoder
Selected bitrate : 32 kBit/s
Quality : High
Add ID3 tag : No
Command line compressor : C:\Program Files\Exact Audio Copy\FLAC\FLAC.EXE
Additional command line options : -6 -V -T "ARTIST=%artist%" -T "TITLE=%title%" -T "ALBUM=%albumtitle%" -T "DATE=%year%" -T "TRACKNUMBER=%tracknr%" -T "GENRE=%genre%" -T "COMMENT=%comment%" -T "BAND=%albuminterpret%" -T "ALBUMARTIST=%albuminterpret%" -T "COMPOSER=%composer%" %haslyrics%--tag-from-file=LYRICS="%lyricsfile%"%haslyrics% -T "DISCNUMBER=%cdnumber%" -T "TOTALDISCS=%totalcds%" -T "TOTALTRACKS=%numtracks%" %hascover%--picture="%coverfile%"%hascover% %source% -o %dest%
TOC of the extracted CD
Track | Start | Length | Start sector | End sector
---------------------------------------------------------
1 | 0:00.00 | 3:01.49 | 0 | 13623
2 | 3:01.49 | 2:35.50 | 13624 | 25298
3 | 5:37.24 | 5:02.10 | 25299 | 47958
4 | 10:39.34 | 4:13.20 | 47959 | 66953
5 | 14:52.54 | 2:45.06 | 66954 | 79334
6 | 17:37.60 | 2:40.27 | 79335 | 91361
7 | 20:18.12 | 2:44.57 | 91362 | 103718
8 | 23:02.69 | 2:47.11 | 103719 | 116254
9 | 25:50.05 | 2:36.06 | 116255 | 127960
10 | 28:26.11 | 7:26.37 | 127961 | 161447
11 | 35:52.48 | 2:38.71 | 161448 | 173368
12 | 38:31.44 | 2:48.10 | 173369 | 185978
13 | 41:19.54 | 5:12.56 | 185979 | 209434
14 | 46:32.35 | 3:50.53 | 209435 | 226737
15 | 50:23.13 | 4:53.60 | 226738 | 248772
16 | 55:16.73 | 7:05.33 | 248773 | 280680
17 | 62:22.31 | 2:46.24 | 280681 | 293154
18 | 65:08.55 | 3:02.59 | 293155 | 306863
19 | 68:11.39 | 2:46.56 | 306864 | 319369
20 | 70:58.20 | 5:04.15 | 319370 | 342184
Track 1
Filename E:\Рипы\VA - Funk (The Essential Collection) [lossless]-2009\01 The Meters - Cissy Strut.wav
Pre-gap length 0:00:02.00
Peak level 97.2 %
Extraction speed 2.3 X
Track quality 100.0 %
Test CRC 67B7B40C
Copy CRC 67B7B40C
Cannot be verified as accurate (confidence 2) [DA503836], AccurateRip returned [3BB627A1] (AR v2)
Copy OK
Track 2
Filename E:\Рипы\VA - Funk (The Essential Collection) [lossless]-2009\02 Lightnin’ Rod - Sport.wav
Pre-gap length 0:00:01.12
Peak level 86.7 %
Extraction speed 2.0 X
Track quality 99.9 %
Test CRC D310FD72
Copy CRC D310FD72
Cannot be verified as accurate (confidence 2) [F55360FB], AccurateRip returned [10819FB6] (AR v2)
Copy OK
Track 3
Filename E:\Рипы\VA - Funk (The Essential Collection) [lossless]-2009\03 Curtis Mayfield - Pusherman.wav
Pre-gap length 0:00:01.05
Peak level 76.2 %
Extraction speed 2.6 X
Track quality 99.9 %
Test CRC 428A1781
Copy CRC 428A1781
Cannot be verified as accurate (confidence 2) [1F5D0B61], AccurateRip returned [802B0BAB] (AR v2)
Copy OK
Track 4
Filename E:\Рипы\VA - Funk (The Essential Collection) [lossless]-2009\04 Aaron Neville - Hercules.wav
Pre-gap length 0:00:02.04
Peak level 79.7 %
Extraction speed 2.7 X
Track quality 99.9 %
Test CRC 406BB6BA
Copy CRC 406BB6BA
Cannot be verified as accurate (confidence 2) [B0C3B111], AccurateRip returned [30DC9128] (AR v2)
Copy OK
Track 5
Filename E:\Рипы\VA - Funk (The Essential Collection) [lossless]-2009\05 Pee Wee Ellis - Moon Walk.wav
Pre-gap length 0:00:01.50
Peak level 98.9 %
Extraction speed 3.0 X
Track quality 100.0 %
Test CRC 63257661
Copy CRC 63257661
Cannot be verified as accurate (confidence 2) [13E97D60], AccurateRip returned [E62A42D2] (AR v2)
Copy OK
Track 6
Filename E:\Рипы\VA - Funk (The Essential Collection) [lossless]-2009\06 Joe Tex - Papa Was Too.wav
Pre-gap length 0:00:01.22
Peak level 99.4 %
Extraction speed 2.6 X
Track quality 99.9 %
Test CRC 1E265211
Copy CRC 1E265211
Cannot be verified as accurate (confidence 2) [2D8ECDC1], AccurateRip returned [F6203199] (AR v2)
Copy OK
Track 7
Filename E:\Рипы\VA - Funk (The Essential Collection) [lossless]-2009\07 Betty Harris - There’s A Break In The Road.wav
Pre-gap length 0:00:01.27
Peak level 99.4 %
Extraction speed 3.2 X
Track quality 100.0 %
Test CRC DF8AE256
Copy CRC DF8AE256
Cannot be verified as accurate (confidence 2) [D19C3F10], AccurateRip returned [F87E74E3] (AR v2)
Copy OK
Track 8
Filename E:\Рипы\VA - Funk (The Essential Collection) [lossless]-2009\08 Maceo & All The Kings Men - Got To Getcha.wav
Pre-gap length 0:00:01.20
Peak level 86.0 %
Extraction speed 3.3 X
Track quality 100.0 %
Test CRC 5A432A00
Copy CRC 5A432A00
Cannot be verified as accurate (confidence 2) [A1DC3C9A], AccurateRip returned [48E7D26B] (AR v2)
Copy OK
Track 9
Filename E:\Рипы\VA - Funk (The Essential Collection) [lossless]-2009\09 Lee Dorsey - Riverboat.wav
Pre-gap length 0:00:00.56
Peak level 95.9 %
Extraction speed 3.4 X
Track quality 100.0 %
Test CRC 4E9F3E75
Copy CRC 4E9F3E75
Cannot be verified as accurate (confidence 2) [999510A2], AccurateRip returned [A42C142C] (AR v2)
Copy OK
Track 10
Filename E:\Рипы\VA - Funk (The Essential Collection) [lossless]-2009\10 Funkadelic - One Nation Under A Groove.wav
Pre-gap length 0:00:01.49
Peak level 85.9 %
Extraction speed 3.6 X
Track quality 99.9 %
Test CRC BE82D7C5
Copy CRC BE82D7C5
Cannot be verified as accurate (confidence 2) [6AC40DEA], AccurateRip returned [CE40A89F] (AR v2)
Copy OK
Track 11
Filename E:\Рипы\VA - Funk (The Essential Collection) [lossless]-2009\11 Alvin Cash - Keep On Dancing.wav
Pre-gap length 0:00:00.43
Peak level 90.8 %
Extraction speed 3.4 X
Track quality 100.0 %
Test CRC B8437F21
Copy CRC B8437F21
Cannot be verified as accurate (confidence 2) [B311027C], AccurateRip returned [A7566F7A] (AR v2)
Copy OK
Track 12
Filename E:\Рипы\VA - Funk (The Essential Collection) [lossless]-2009\12 Jody Gayles - You Gotta Push.wav
Pre-gap length 0:00:01.06
Peak level 93.1 %
Extraction speed 3.5 X
Track quality 100.0 %
Test CRC 19D9D858
Copy CRC 19D9D858
Cannot be verified as accurate (confidence 2) [531BCD09], AccurateRip returned [A8CEAC0D] (AR v2)
Copy OK
Track 13
Filename E:\Рипы\VA - Funk (The Essential Collection) [lossless]-2009\13 Gill Scott-Heron - The Bottle.wav
Pre-gap length 0:00:01.09
Peak level 92.0 %
Extraction speed 3.4 X
Track quality 99.9 %
Test CRC BA96DF6F
Copy CRC BA96DF6F
Cannot be verified as accurate (confidence 2) [16102CFB], AccurateRip returned [FBD086A9] (AR v2)
Copy OK
Track 14
Filename E:\Рипы\VA - Funk (The Essential Collection) [lossless]-2009\14 Bobby Womack - Across 110th Street.wav
Pre-gap length 0:00:01.14
Peak level 91.9 %
Extraction speed 3.2 X
Track quality 99.9 %
Test CRC B3FDBD7A
Copy CRC B3FDBD7A
Cannot be verified as accurate (confidence 2) [4E2F92CE], AccurateRip returned [B96C5C22] (AR v2)
Copy OK
Track 15
Filename E:\Рипы\VA - Funk (The Essential Collection) [lossless]-2009\15 Leroy Hutson - Blackberry Jam.wav
Pre-gap length 0:00:01.35
Peak level 80.7 %
Extraction speed 3.4 X
Track quality 99.9 %
Test CRC B3C95832
Copy CRC B3C95832
Cannot be verified as accurate (confidence 1) [8993EEA6], AccurateRip returned [C337B7EC] (AR v2)
Copy OK
Track 16
Filename E:\Рипы\VA - Funk (The Essential Collection) [lossless]-2009\16 Linda Clifford - Runaway Love.wav
Pre-gap length 0:00:01.20
Peak level 89.1 %
Extraction speed 4.0 X
Track quality 100.0 %
Test CRC FAD37EB0
Copy CRC FAD37EB0
Cannot be verified as accurate (confidence 2) [4E64BA81], AccurateRip returned [8CB8384A] (AR v2)
Copy OK
Track 17
Filename E:\Рипы\VA - Funk (The Essential Collection) [lossless]-2009\17 Mavis Staples - Koochie Koochie Koochie.wav
Pre-gap length 0:00:01.23
Peak level 98.1 %
Extraction speed 3.0 X
Track quality 99.9 %
Test CRC C28A8634
Copy CRC C28A8634
Cannot be verified as accurate (confidence 2) [5C101EE5], AccurateRip returned [4ACA2ED0] (AR v2)
Copy OK
Track 18
Filename E:\Рипы\VA - Funk (The Essential Collection) [lossless]-2009\18 Ripple - A Funky Song.wav
Pre-gap length 0:00:00.29
Peak level 99.1 %
Extraction speed 3.5 X
Track quality 100.0 %
Test CRC 5129B0F7
Copy CRC 5129B0F7
Cannot be verified as accurate (confidence 2) [EAD31531], AccurateRip returned [7794DFC8] (AR v2)
Copy OK
Track 19
Filename E:\Рипы\VA - Funk (The Essential Collection) [lossless]-2009\19 The Meters - Same Old Thing.wav
Pre-gap length 0:00:01.08
Peak level 96.2 %
Extraction speed 3.5 X
Track quality 100.0 %
Test CRC D4E881B6
Copy CRC D4E881B6
Cannot be verified as accurate (confidence 2) [37B2FAF8], AccurateRip returned [BF867403] (AR v2)
Copy OK
Track 20
Filename E:\Рипы\VA - Funk (The Essential Collection) [lossless]-2009\20 Bob James - Nautilus.wav
Pre-gap length 0:00:01.21
Peak level 89.7 %
Extraction speed 3.9 X
Track quality 100.0 %
Test CRC FE1C6220
Copy CRC FE1C6220
Cannot be verified as accurate (confidence 2) [FADEDD29], AccurateRip returned [4FC75F78] (AR v2)
Copy OK
No tracks could be verified as accurate
You may have a different pressing from the one(s) in the database
No errors occurred
End of status report
---- CUETools DB Plugin V2.1.6
[CTDB TOCID: iILtLmfu6W2JokcIkVjTfKot8Wo-] found
Submit result: iILtLmfu6W2JokcIkVjTfKot8Wo- has been confirmed
Track | CTDB Status
1 | (1/1) Accurately ripped
2 | (1/1) Accurately ripped
3 | (1/1) Accurately ripped
4 | (1/1) Accurately ripped
5 | (1/1) Accurately ripped
6 | (1/1) Accurately ripped
7 | (1/1) Accurately ripped
8 | (1/1) Accurately ripped
9 | (1/1) Accurately ripped
10 | (1/1) Accurately ripped
11 | (1/1) Accurately ripped
12 | (1/1) Accurately ripped
13 | (1/1) Accurately ripped
14 | (1/1) Accurately ripped
15 | (1/1) Accurately ripped
16 | (1/1) Accurately ripped
17 | (1/1) Accurately ripped
18 | (1/1) Accurately ripped
19 | (1/1) Accurately ripped
20 | (1/1) Accurately ripped
==== Log checksum 8DA1D42F1572D2FC8F108618FD03319596A521ACD95DF0B15833996EDCDA4785 ====
 
cue CD 1
REM GENRE Funk
REM DATE 2009
REM DISCID 0D11D214
REM COMMENT "ExactAudioCopy v1.1"
PERFORMER "Various Artists"
TITLE "CD1 - Under A Groove: Killer Funky Klassiks"
FILE "01 The Meters - Cissy Strut.wav" WAVE
TRACK 01 AUDIO
TITLE "Cissy Strut"
PERFORMER "The Meters"
INDEX 01 00:00:00
TRACK 02 AUDIO
TITLE "Sport"
PERFORMER "Lightnin’ Rod"
INDEX 00 03:00:37
FILE "02 Lightnin’ Rod - Sport.wav" WAVE
INDEX 01 00:00:00
TRACK 03 AUDIO
TITLE "Pusherman"
PERFORMER "Curtis Mayfield"
INDEX 00 02:34:45
FILE "03 Curtis Mayfield - Pusherman.wav" WAVE
INDEX 01 00:00:00
TRACK 04 AUDIO
TITLE "Hercules"
PERFORMER "Aaron Neville"
INDEX 00 05:00:06
FILE "04 Aaron Neville - Hercules.wav" WAVE
INDEX 01 00:00:00
TRACK 05 AUDIO
TITLE "Moon Walk"
PERFORMER "Pee Wee Ellis"
INDEX 00 04:11:45
FILE "05 Pee Wee Ellis - Moon Walk.wav" WAVE
INDEX 01 00:00:00
TRACK 06 AUDIO
TITLE "Papa Was Too"
PERFORMER "Joe Tex"
INDEX 00 02:43:59
FILE "06 Joe Tex - Papa Was Too.wav" WAVE
INDEX 01 00:00:00
TRACK 07 AUDIO
TITLE "There’s A Break In The Road"
PERFORMER "Betty Harris"
INDEX 00 02:39:00
FILE "07 Betty Harris - There’s A Break In The Road.wav" WAVE
INDEX 01 00:00:00
TRACK 08 AUDIO
TITLE "Got To Getcha"
PERFORMER "Maceo & All The Kings Men"
INDEX 00 02:43:37
FILE "08 Maceo & All The Kings Men - Got To Getcha.wav" WAVE
INDEX 01 00:00:00
TRACK 09 AUDIO
TITLE "Riverboat"
PERFORMER "Lee Dorsey"
INDEX 00 02:46:30
FILE "09 Lee Dorsey - Riverboat.wav" WAVE
INDEX 01 00:00:00
TRACK 10 AUDIO
TITLE "One Nation Under A Groove"
PERFORMER "Funkadelic"
INDEX 00 02:34:32
FILE "10 Funkadelic - One Nation Under A Groove.wav" WAVE
INDEX 01 00:00:00
TRACK 11 AUDIO
TITLE "Keep On Dancing"
PERFORMER "Alvin Cash"
INDEX 00 07:25:69
FILE "11 Alvin Cash - Keep On Dancing.wav" WAVE
INDEX 01 00:00:00
TRACK 12 AUDIO
TITLE "You Gotta Push"
PERFORMER "Jody Gayles"
INDEX 00 02:37:65
FILE "12 Jody Gayles - You Gotta Push.wav" WAVE
INDEX 01 00:00:00
TRACK 13 AUDIO
TITLE "The Bottle"
PERFORMER "Gill Scott-Heron"
INDEX 00 02:47:01
FILE "13 Gill Scott-Heron - The Bottle.wav" WAVE
INDEX 01 00:00:00
TRACK 14 AUDIO
TITLE "Across 110th Street"
PERFORMER "Bobby Womack"
INDEX 00 05:11:42
FILE "14 Bobby Womack - Across 110th Street.wav" WAVE
INDEX 01 00:00:00
TRACK 15 AUDIO
TITLE "Blackberry Jam"
PERFORMER "Leroy Hutson"
INDEX 00 03:49:18
FILE "15 Leroy Hutson - Blackberry Jam.wav" WAVE
INDEX 01 00:00:00
TRACK 16 AUDIO
TITLE "Runaway Love"
PERFORMER "Linda Clifford"
INDEX 00 04:52:40
FILE "16 Linda Clifford - Runaway Love.wav" WAVE
INDEX 01 00:00:00
TRACK 17 AUDIO
TITLE "Koochie Koochie Koochie"
PERFORMER "Mavis Staples"
INDEX 00 07:04:10
FILE "17 Mavis Staples - Koochie Koochie Koochie.wav" WAVE
INDEX 01 00:00:00
TRACK 18 AUDIO
TITLE "A Funky Song"
PERFORMER "Ripple"
INDEX 00 02:45:70
FILE "18 Ripple - A Funky Song.wav" WAVE
INDEX 01 00:00:00
TRACK 19 AUDIO
TITLE "Same Old Thing"
PERFORMER "The Meters"
INDEX 00 03:01:51
FILE "19 The Meters - Same Old Thing.wav" WAVE
INDEX 01 00:00:00
TRACK 20 AUDIO
TITLE "Nautilus"
PERFORMER "Bob James"
INDEX 00 02:45:35
FILE "20 Bob James - Nautilus.wav" WAVE
INDEX 01 00:00:00
 
Log EAC CD 2
Exact Audio Copy V1.1 from 23. June 2015
EAC extraction logfile from 16. August 2016, 7:11
Various Artists / CD2 - Trouble In The Ghetto: Life in Chocolate City
Used drive : Optiarc DVD RW AD-5200A Adapter: 1 ID: 0
Read mode : Secure
Utilize accurate stream : Yes
Defeat audio cache : Yes
Make use of C2 pointers : No
Read offset correction : 48
Overread into Lead-In and Lead-Out : No
Fill up missing offset samples with silence : Yes
Delete leading and trailing silent blocks : No
Null samples used in CRC calculations : Yes
Used interface : Native Win32 interface for Win NT & 2000
Gap handling : Appended to previous track
Used output format : User Defined Encoder
Selected bitrate : 32 kBit/s
Quality : High
Add ID3 tag : No
Command line compressor : C:\Program Files\Exact Audio Copy\FLAC\FLAC.EXE
Additional command line options : -6 -V -T "ARTIST=%artist%" -T "TITLE=%title%" -T "ALBUM=%albumtitle%" -T "DATE=%year%" -T "TRACKNUMBER=%tracknr%" -T "GENRE=%genre%" -T "COMMENT=%comment%" -T "BAND=%albuminterpret%" -T "ALBUMARTIST=%albuminterpret%" -T "COMPOSER=%composer%" %haslyrics%--tag-from-file=LYRICS="%lyricsfile%"%haslyrics% -T "DISCNUMBER=%cdnumber%" -T "TOTALDISCS=%totalcds%" -T "TOTALTRACKS=%numtracks%" %hascover%--picture="%coverfile%"%hascover% %source% -o %dest%
TOC of the extracted CD
Track | Start | Length | Start sector | End sector
---------------------------------------------------------
1 | 0:00.00 | 2:59.63 | 0 | 13487
2 | 2:59.63 | 4:05.50 | 13488 | 31912
3 | 7:05.38 | 5:15.51 | 31913 | 55588
4 | 12:21.14 | 3:13.60 | 55589 | 70123
5 | 15:34.74 | 4:50.11 | 70124 | 91884
6 | 20:25.10 | 5:32.11 | 91885 | 116795
7 | 25:57.21 | 3:10.44 | 116796 | 131089
8 | 29:07.65 | 6:13.31 | 131090 | 159095
9 | 35:21.21 | 3:14.23 | 159096 | 173668
10 | 38:35.44 | 2:53.73 | 173669 | 186716
11 | 41:29.42 | 3:04.64 | 186717 | 200580
12 | 44:34.31 | 5:15.15 | 200581 | 224220
13 | 49:49.46 | 3:43.26 | 224221 | 240971
14 | 53:32.72 | 2:58.06 | 240972 | 254327
15 | 56:31.03 | 3:21.41 | 254328 | 269443
16 | 59:52.44 | 2:41.61 | 269444 | 281579
17 | 62:34.30 | 2:13.46 | 281580 | 291600
18 | 64:48.01 | 5:53.68 | 291601 | 318143
19 | 70:41.69 | 2:57.06 | 318144 | 331424
Track 1
Filename E:\Рипы\VA - Funk (The Essential Collection) [lossless]-2009\01 Skull Snaps - It’s A New Day.wav
Pre-gap length 0:00:02.00
Peak level 98.9 %
Extraction speed 2.2 X
Track quality 100.0 %
Test CRC 4657759D
Copy CRC 4657759D
Cannot be verified as accurate (confidence 2) [F7158EE4], AccurateRip returned [2ED1730A] (AR v2)
Copy OK
Track 2
Filename E:\Рипы\VA - Funk (The Essential Collection) [lossless]-2009\02 Curtis Mayfield - A Heavy Dude.wav
Pre-gap length 0:00:00.65
Peak level 89.2 %
Extraction speed 2.3 X
Track quality 99.9 %
Test CRC 6431F512
Copy CRC 6431F512
Cannot be verified as accurate (confidence 2) [FB22FAB0], AccurateRip returned [D5F54414] (AR v2)
Copy OK
Track 3
Filename E:\Рипы\VA - Funk (The Essential Collection) [lossless]-2009\03 Mavis Staples - Chocolate City.wav
Peak level 97.7 %
Extraction speed 2.9 X
Track quality 100.0 %
Test CRC CBC27CDF
Copy CRC CBC27CDF
Cannot be verified as accurate (confidence 2) [9383CBAC], AccurateRip returned [F7F81867] (AR v2)
Copy OK
Track 4
Filename E:\Рипы\VA - Funk (The Essential Collection) [lossless]-2009\04 The Natural Four - It’s The Music.wav
Pre-gap length 0:00:00.44
Peak level 99.4 %
Extraction speed 2.9 X
Track quality 100.0 %
Test CRC 1E5B1FF6
Copy CRC 1E5B1FF6
Cannot be verified as accurate (confidence 2) [BD8954EF], AccurateRip returned [928AFF16] (AR v2)
Copy OK
Track 5
Filename E:\Рипы\VA - Funk (The Essential Collection) [lossless]-2009\05 Charles Rouse - In A Funky Way.wav
Peak level 98.2 %
Extraction speed 3.0 X
Track quality 99.9 %
Test CRC F16DB203
Copy CRC F16DB203
Cannot be verified as accurate (confidence 2) [BB805525], AccurateRip returned [9B812DE0] (AR v2)
Copy OK
Track 6
Filename E:\Рипы\VA - Funk (The Essential Collection) [lossless]-2009\06 Funkadelic - Freak Of The Week.wav
Pre-gap length 0:00:01.38
Peak level 98.3 %
Extraction speed 3.6 X
Track quality 100.0 %
Test CRC CD7962E6
Copy CRC CD7962E6
Cannot be verified as accurate (confidence 2) [92B1284E], AccurateRip returned [611A0BDA] (AR v2)
Copy OK
Track 7
Filename E:\Рипы\VA - Funk (The Essential Collection) [lossless]-2009\07 Sir Joe Quarterman & Free Soul - I Got So Much Trouble In My Mind.wav
Pre-gap length 0:00:00.64
Peak level 94.2 %
Extraction speed 3.0 X
Track quality 99.9 %
Test CRC E3A98DF5
Copy CRC E3A98DF5
Cannot be verified as accurate (confidence 2) [8BC62D4B], AccurateRip returned [EE132EE0] (AR v2)
Copy OK
Track 8
Filename E:\Рипы\VA - Funk (The Essential Collection) [lossless]-2009\08 Moody Scott - (We Gotta) Bust Outta The Ghetto.wav
Peak level 99.4 %
Extraction speed 3.8 X
Track quality 100.0 %
Test CRC 1E91F349
Copy CRC 1E91F349
Cannot be verified as accurate (confidence 2) [CD548E68], AccurateRip returned [EC4D5529] (AR v2)
Copy OK
Track 9
Filename E:\Рипы\VA - Funk (The Essential Collection) [lossless]-2009\09 oe Tex - Who Gave Birth To The Funk.wav
Pre-gap length 0:00:00.64
Peak level 99.4 %
Extraction speed 3.5 X
Track quality 100.0 %
Test CRC 2FFACE70
Copy CRC 2FFACE70
Cannot be verified as accurate (confidence 2) [A3215CE5], AccurateRip returned [6A9FA74A] (AR v2)
Copy OK
Track 10
Filename E:\Рипы\VA - Funk (The Essential Collection) [lossless]-2009\10 The Meters - Hey Last Minute.wav
Peak level 99.4 %
Extraction speed 2.9 X
Track quality 99.9 %
Test CRC 2FCDC08F
Copy CRC 2FCDC08F
Cannot be verified as accurate (confidence 2) [24BA1C75], AccurateRip returned [943BD675] (AR v2)
Copy OK
Track 11
Filename E:\Рипы\VA - Funk (The Essential Collection) [lossless]-2009\11 Lee Dorsey - Who’s Gonna Help Brother Get Further.wav
Pre-gap length 0:00:01.26
Peak level 97.7 %
Extraction speed 3.5 X
Track quality 100.0 %
Test CRC D5DD7AB8
Copy CRC D5DD7AB8
Cannot be verified as accurate (confidence 2) [E85A67AE], AccurateRip returned [834C4FE5] (AR v2)
Copy OK
Track 12
Filename E:\Рипы\VA - Funk (The Essential Collection) [lossless]-2009\12 The Delfonics - Men Of Action.wav
Peak level 69.4 %
Extraction speed 3.8 X
Track quality 100.0 %
Test CRC E94D2AEB
Copy CRC E94D2AEB
Cannot be verified as accurate (confidence 2) [538B6B05], AccurateRip returned [E8B3B905] (AR v2)
Copy OK
Track 13
Filename E:\Рипы\VA - Funk (The Essential Collection) [lossless]-2009\13 Bobby Womack - You’re Welcome, Stop On By.wav
Pre-gap length 0:00:01.02
Peak level 99.4 %
Extraction speed 3.7 X
Track quality 100.0 %
Test CRC 62755585
Copy CRC 62755585
Cannot be verified as accurate (confidence 2) [8AE29D91], AccurateRip returned [4CCB806B] (AR v2)
Copy OK
Track 14
Filename E:\Рипы\VA - Funk (The Essential Collection) [lossless]-2009\14 Barry White - I’ve Got The World To Hold Me Up.wav
Pre-gap length 0:00:01.25
Peak level 98.3 %
Extraction speed 3.6 X
Track quality 100.0 %
Test CRC 5D1F0B2B
Copy CRC 5D1F0B2B
Cannot be verified as accurate (confidence 2) [7439B322], AccurateRip returned [472EBB94] (AR v2)
Copy OK
Track 15
Filename E:\Рипы\VA - Funk (The Essential Collection) [lossless]-2009\15 Ava Cherry - Gimme Your Lovin’.wav
Pre-gap length 0:00:01.08
Peak level 98.5 %
Extraction speed 3.6 X
Track quality 100.0 %
Test CRC EB83D2F3
Copy CRC EB83D2F3
Cannot be verified as accurate (confidence 2) [E816F313], AccurateRip returned [69610D51] (AR v2)
Copy OK
Track 16
Filename E:\Рипы\VA - Funk (The Essential Collection) [lossless]-2009\16 Ann Sexton - Colour My World Blue.wav
Peak level 98.0 %
Extraction speed 3.5 X
Track quality 100.0 %
Test CRC 4864E0EE
Copy CRC 4864E0EE
Cannot be verified as accurate (confidence 2) [C5D7F5D6], AccurateRip returned [72DFB76E] (AR v2)
Copy OK
Track 17
Filename E:\Рипы\VA - Funk (The Essential Collection) [lossless]-2009\17 Joe Tex - I Gotcha.wav
Peak level 98.7 %
Extraction speed 3.3 X
Track quality 100.0 %
Test CRC A106B817
Copy CRC A106B817
Cannot be verified as accurate (confidence 2) [C8280364], AccurateRip returned [2F1385AD] (AR v2)
Copy OK
Track 18
Filename E:\Рипы\VA - Funk (The Essential Collection) [lossless]-2009\18 Fred Wesley - Bop To The Boogie.wav
Peak level 99.4 %
Extraction speed 3.6 X
Track quality 99.9 %
Test CRC D38F059A
Copy CRC D38F059A
Cannot be verified as accurate (confidence 2) [C50E2210], AccurateRip returned [7D7BEF4A] (AR v2)
Copy OK
Track 19
Filename E:\Рипы\VA - Funk (The Essential Collection) [lossless]-2009\19 Goliath - Roving Minstrel.wav
Peak level 97.8 %
Extraction speed 3.6 X
Track quality 100.0 %
Test CRC 97C8E464
Copy CRC 97C8E464
Cannot be verified as accurate (confidence 2) [441A8F0D], AccurateRip returned [3FB86028] (AR v2)
Copy OK
No tracks could be verified as accurate
You may have a different pressing from the one(s) in the database
No errors occurred
End of status report
---- CUETools DB Plugin V2.1.6
[CTDB TOCID: csU.prPt6NK_e1EHcCOUPLVjS9w-] found
Submit result: csU.prPt6NK_e1EHcCOUPLVjS9w- has been confirmed
Track | CTDB Status
1 | (1/1) Accurately ripped
2 | (1/1) Accurately ripped
3 | (1/1) Accurately ripped
4 | (1/1) Accurately ripped
5 | (1/1) Accurately ripped
6 | (1/1) Accurately ripped
7 | (1/1) Accurately ripped
8 | (1/1) Accurately ripped
9 | (1/1) Accurately ripped
10 | (1/1) Accurately ripped
11 | (1/1) Accurately ripped
12 | (1/1) Accurately ripped
13 | (1/1) Accurately ripped
14 | (1/1) Accurately ripped
15 | (1/1) Accurately ripped
16 | (1/1) Accurately ripped
17 | (1/1) Accurately ripped
18 | (1/1) Accurately ripped
19 | (1/1) Accurately ripped
==== Log checksum 7C71090B888F21F08F82301CC75C807FE5BEE26C7ED14CFDA838D095266A2CDC ====
 
cue CD 2
REM GENRE Funk
REM DATE 2009
REM DISCID 25114313
REM COMMENT "ExactAudioCopy v1.1"
PERFORMER "Various Artists"
TITLE "CD2 - Trouble In The Ghetto: Life in Chocolate City"
FILE "01 Skull Snaps - It’s A New Day.wav" WAVE
TRACK 01 AUDIO
TITLE "It’s A New Day"
PERFORMER "Skull Snaps"
INDEX 01 00:00:00
TRACK 02 AUDIO
TITLE "A Heavy Dude"
PERFORMER "Curtis Mayfield"
INDEX 00 02:58:73
FILE "02 Curtis Mayfield - A Heavy Dude.wav" WAVE
INDEX 01 00:00:00
FILE "03 Mavis Staples - Chocolate City.wav" WAVE
TRACK 03 AUDIO
TITLE "Chocolate City"
PERFORMER "Mavis Staples"
INDEX 01 00:00:00
TRACK 04 AUDIO
TITLE "It’s The Music"
PERFORMER "The Natural Four"
INDEX 00 05:15:07
FILE "04 The Natural Four - It’s The Music.wav" WAVE
INDEX 01 00:00:00
FILE "05 Charles Rouse - In A Funky Way.wav" WAVE
TRACK 05 AUDIO
TITLE "In A Funky Way"
PERFORMER "Charles Rouse"
INDEX 01 00:00:00
TRACK 06 AUDIO
TITLE "Freak Of The Week"
PERFORMER "Funkadelic"
INDEX 00 04:48:48
FILE "06 Funkadelic - Freak Of The Week.wav" WAVE
INDEX 01 00:00:00
TRACK 07 AUDIO
TITLE "I Got So Much Trouble In My Mind"
PERFORMER "Sir Joe Quarterman & Free Soul"
INDEX 00 05:31:22
FILE "07 Sir Joe Quarterman & Free Soul - I Got So Much Trouble In My Mind.wav" WAVE
INDEX 01 00:00:00
FILE "08 Moody Scott - (We Gotta) Bust Outta The Ghetto.wav" WAVE
TRACK 08 AUDIO
TITLE "(We Gotta) Bust Outta The Ghetto"
PERFORMER "Moody Scott"
INDEX 01 00:00:00
TRACK 09 AUDIO
TITLE "Who Gave Birth To The Funk"
PERFORMER "oe Tex"
INDEX 00 06:12:42
FILE "09 oe Tex - Who Gave Birth To The Funk.wav" WAVE
INDEX 01 00:00:00
FILE "10 The Meters - Hey Last Minute.wav" WAVE
TRACK 10 AUDIO
TITLE "Hey Last Minute"
PERFORMER "The Meters"
INDEX 01 00:00:00
TRACK 11 AUDIO
TITLE "Who’s Gonna Help Brother Get Further?"
PERFORMER "Lee Dorsey"
INDEX 00 02:52:47
FILE "11 Lee Dorsey - Who’s Gonna Help Brother Get Further.wav" WAVE
INDEX 01 00:00:00
FILE "12 The Delfonics - Men Of Action.wav" WAVE
TRACK 12 AUDIO
TITLE "Men Of Action"
PERFORMER "The Delfonics"
INDEX 01 00:00:00
TRACK 13 AUDIO
TITLE "You’re Welcome, Stop On By"
PERFORMER "Bobby Womack"
INDEX 00 05:14:13
FILE "13 Bobby Womack - You’re Welcome, Stop On By.wav" WAVE
INDEX 01 00:00:00
TRACK 14 AUDIO
TITLE "I’ve Got The World To Hold Me Up"
PERFORMER "Barry White"
INDEX 00 03:42:01
FILE "14 Barry White - I’ve Got The World To Hold Me Up.wav" WAVE
INDEX 01 00:00:00
TRACK 15 AUDIO
TITLE "Gimme Your Lovin’"
PERFORMER "Ava Cherry"
INDEX 00 02:56:73
FILE "15 Ava Cherry - Gimme Your Lovin’.wav" WAVE
INDEX 01 00:00:00
FILE "16 Ann Sexton - Colour My World Blue.wav" WAVE
TRACK 16 AUDIO
TITLE "Colour My World Blue"
PERFORMER "Ann Sexton"
INDEX 01 00:00:00
FILE "17 Joe Tex - I Gotcha.wav" WAVE
TRACK 17 AUDIO
TITLE "I Gotcha"
PERFORMER "Joe Tex"
INDEX 01 00:00:00
FILE "18 Fred Wesley - Bop To The Boogie.wav" WAVE
TRACK 18 AUDIO
TITLE "Bop To The Boogie"
PERFORMER "Fred Wesley"
INDEX 01 00:00:00
FILE "19 Goliath - Roving Minstrel.wav" WAVE
TRACK 19 AUDIO
TITLE "Roving Minstrel"
PERFORMER "Goliath"
INDEX 01 00:00:00
 
Log EAC CD 3
Exact Audio Copy V1.1 from 23. June 2015
EAC extraction logfile from 16. August 2016, 19:52
Various Artists / CD3 - Night People Steppin': Nothin' Baut A House Party
Used drive : Optiarc DVD RW AD-5200A Adapter: 1 ID: 0
Read mode : Secure
Utilize accurate stream : Yes
Defeat audio cache : Yes
Make use of C2 pointers : No
Read offset correction : 48
Overread into Lead-In and Lead-Out : No
Fill up missing offset samples with silence : Yes
Delete leading and trailing silent blocks : No
Null samples used in CRC calculations : Yes
Used interface : Native Win32 interface for Win NT & 2000
Gap handling : Appended to previous track
Used output format : User Defined Encoder
Selected bitrate : 32 kBit/s
Quality : High
Add ID3 tag : No
Command line compressor : C:\Program Files\Exact Audio Copy\FLAC\FLAC.EXE
Additional command line options : -6 -V -T "ARTIST=%artist%" -T "TITLE=%title%" -T "ALBUM=%albumtitle%" -T "DATE=%year%" -T "TRACKNUMBER=%tracknr%" -T "GENRE=%genre%" -T "COMMENT=%comment%" -T "BAND=%albuminterpret%" -T "ALBUMARTIST=%albuminterpret%" -T "COMPOSER=%composer%" %haslyrics%--tag-from-file=LYRICS="%lyricsfile%"%haslyrics% -T "DISCNUMBER=%cdnumber%" -T "TOTALDISCS=%totalcds%" -T "TOTALTRACKS=%numtracks%" %hascover%--picture="%coverfile%"%hascover% %source% -o %dest%
TOC of the extracted CD
Track | Start | Length | Start sector | End sector
---------------------------------------------------------
1 | 0:00.00 | 5:41.02 | 0 | 25576
2 | 5:41.02 | 3:24.24 | 25577 | 40900
3 | 9:05.26 | 4:21.36 | 40901 | 60511
4 | 13:26.62 | 2:44.33 | 60512 | 72844
5 | 16:11.20 | 2:40.13 | 72845 | 84857
6 | 18:51.33 | 3:09.25 | 84858 | 99057
7 | 22:00.58 | 2:47.47 | 99058 | 111629
8 | 24:48.30 | 2:27.73 | 111630 | 122727
9 | 27:16.28 | 3:12.34 | 122728 | 137161
10 | 30:28.62 | 2:11.59 | 137162 | 147045
11 | 32:40.46 | 3:00.56 | 147046 | 160601
12 | 35:41.27 | 4:45.57 | 160602 | 182033
13 | 40:27.09 | 7:46.33 | 182034 | 217016
14 | 48:13.42 | 5:24.37 | 217017 | 241353
15 | 53:38.04 | 2:55.08 | 241354 | 254486
16 | 56:33.12 | 2:13.34 | 254487 | 264495
17 | 58:46.46 | 6:20.01 | 264496 | 292996
18 | 65:06.47 | 2:08.58 | 292997 | 302654
19 | 67:15.30 | 8:21.18 | 302655 | 340247
20 | 75:36.48 | 2:22.39 | 340248 | 350936
Track 1
Filename E:\Рипы\VA - Funk (The Essential Collection) [lossless]-2009\01 Fred Wesley - House Party.wav
Pre-gap length 0:00:02.00
Peak level 88.4 %
Extraction speed 2.6 X
Track quality 100.0 %
Test CRC E42A23A9
Copy CRC E42A23A9
Cannot be verified as accurate (confidence 1) [C2D7C7CE], AccurateRip returned [F9FD31D3] (AR v2)
Copy OK
Track 2
Filename E:\Рипы\VA - Funk (The Essential Collection) [lossless]-2009\02 Joe Tex - Ain't Gonna Bump No More (With No Big Fat Woman).wav
Peak level 90.1 %
Extraction speed 2.7 X
Track quality 100.0 %
Test CRC 44F18008
Copy CRC 44F18008
Cannot be verified as accurate (confidence 1) [96E19D58], AccurateRip returned [DD07D9E7] (AR v2)
Copy OK
Track 3
Filename E:\Рипы\VA - Funk (The Essential Collection) [lossless]-2009\03 Lee Dorsey - Night People.wav
Peak level 97.8 %
Extraction speed 2.9 X
Track quality 100.0 %
Test CRC 8DD60BBB
Copy CRC 8DD60BBB
Cannot be verified as accurate (confidence 1) [683E2878], AccurateRip returned [9B38C1A0] (AR v2)
Copy OK
Track 4
Filename E:\Рипы\VA - Funk (The Essential Collection) [lossless]-2009\04 Robert Parker - Get Ta' Stepin.wav
Peak level 98.0 %
Extraction speed 2.9 X
Track quality 100.0 %
Test CRC F0E23345
Copy CRC F0E23345
Cannot be verified as accurate (confidence 1) [9C7F947B], AccurateRip returned [70A945B9] (AR v2)
Copy OK
Track 5
Filename E:\Рипы\VA - Funk (The Essential Collection) [lossless]-2009\05 Soul Suspects - Funky Drop.wav
Pre-gap length 0:00:00.72
Peak level 99.4 %
Extraction speed 3.0 X
Track quality 100.0 %
Test CRC 4B95A364
Copy CRC 4B95A364
Cannot be verified as accurate (confidence 1) [328967A9], AccurateRip returned [50924694] (AR v2)
Copy OK
Track 6
Filename E:\Рипы\VA - Funk (The Essential Collection) [lossless]-2009\06 Betty Harris - Ride Your Pony.wav
Pre-gap length 0:00:01.46
Peak level 85.8 %
Extraction speed 3.2 X
Track quality 100.0 %
Test CRC 66FFFE46
Copy CRC 66FFFE46
Cannot be verified as accurate (confidence 1) [C88C25F6], AccurateRip returned [140A436A] (AR v2)
Copy OK
Track 7
Filename E:\Рипы\VA - Funk (The Essential Collection) [lossless]-2009\07 Five Stairsteps & Cubie - Don't Change Your Love.wav
Pre-gap length 0:00:00.70
Peak level 80.9 %
Extraction speed 2.8 X
Track quality 99.9 %
Test CRC DFCDF41F
Copy CRC DFCDF41F
Cannot be verified as accurate (confidence 1) [D0D603F3], AccurateRip returned [962A1E2F] (AR v2)
Copy OK
Track 8
Filename E:\Рипы\VA - Funk (The Essential Collection) [lossless]-2009\08 Eddie Bo & Inez Cheatham - Lover And A Friend.wav
Pre-gap length 0:00:01.19
Peak level 98.2 %
Extraction speed 3.2 X
Track quality 100.0 %
Test CRC C4003760
Copy CRC C4003760
Cannot be verified as accurate (confidence 1) [579BF8C0], AccurateRip returned [EB5CCDEA] (AR v2)
Copy OK
Track 9
Filename E:\Рипы\VA - Funk (The Essential Collection) [lossless]-2009\09 The Meters - Look-Ka-Py-Py.wav
Pre-gap length 0:00:00.60
Peak level 98.5 %
Extraction speed 3.5 X
Track quality 100.0 %
Test CRC 3661A0BF
Copy CRC 3661A0BF
Cannot be verified as accurate (confidence 1) [02ADCDB2], AccurateRip returned [E8384A24] (AR v2)
Copy OK
Track 10
Filename E:\Рипы\VA - Funk (The Essential Collection) [lossless]-2009\10 Bobby Womack & JJ Johnson - Harlem Clavinette.wav
Peak level 98.7 %
Extraction speed 2.7 X
Track quality 99.9 %
Test CRC A9A87086
Copy CRC A9A87086
Cannot be verified as accurate (confidence 1) [5CDF84BB], AccurateRip returned [32A6000C] (AR v2)
Copy OK
Track 11
Filename E:\Рипы\VA - Funk (The Essential Collection) [lossless]-2009\11 Sir Joe Quarterman & Free Soul - The Way They Do My Life.wav
Pre-gap length 0:00:00.55
Peak level 99.4 %
Extraction speed 3.5 X
Track quality 100.0 %
Test CRC 77DD2070
Copy CRC 77DD2070
Cannot be verified as accurate (confidence 1) [3F6E4023], AccurateRip returned [474FEE0D] (AR v2)
Copy OK
Track 12
Filename E:\Рипы\VA - Funk (The Essential Collection) [lossless]-2009\12 The Staple Singers - Funky Love.wav
Pre-gap length 0:00:01.33
Peak level 91.7 %
Extraction speed 3.7 X
Track quality 100.0 %
Test CRC F19BE520
Copy CRC F19BE520
Cannot be verified as accurate (confidence 1) [167E76B2], AccurateRip returned [FC8E2504] (AR v2)
Copy OK
Track 13
Filename E:\Рипы\VA - Funk (The Essential Collection) [lossless]-2009\13 Maceo & All The Kings Men - Maceo.wav
Pre-gap length 0:00:01.09
Peak level 94.4 %
Extraction speed 3.6 X
Track quality 99.9 %
Test CRC 258266C3
Copy CRC 258266C3
Cannot be verified as accurate (confidence 1) [095EBC86], AccurateRip returned [302F8959] (AR v2)
Copy OK
Track 14
Filename E:\Рипы\VA - Funk (The Essential Collection) [lossless]-2009\14 Curtis Mayfield - Freddie's Dead.wav
Pre-gap length 0:00:01.22
Peak level 95.9 %
Extraction speed 3.8 X
Track quality 100.0 %
Test CRC 51865077
Copy CRC 51865077
Cannot be verified as accurate (confidence 1) [D73CCD18], AccurateRip returned [0B24A73E] (AR v2)
Copy OK
Track 15
Filename E:\Рипы\VA - Funk (The Essential Collection) [lossless]-2009\15 The Impressions - Sooner Or Later.wav
Pre-gap length 0:00:01.05
Peak level 96.3 %
Extraction speed 3.5 X
Track quality 100.0 %
Test CRC 3B2F3247
Copy CRC 3B2F3247
Cannot be verified as accurate (confidence 1) [7E4C9C09], AccurateRip returned [9BCCE325] (AR v2)
Copy OK
Track 16
Filename E:\Рипы\VA - Funk (The Essential Collection) [lossless]-2009\16 The Ohio Players - Find Someone To Love.wav
Pre-gap length 0:00:00.68
Peak level 99.4 %
Extraction speed 2.7 X
Track quality 99.9 %
Test CRC 3F0BD762
Copy CRC 3F0BD762
Cannot be verified as accurate (confidence 1) [A9B6F9C8], AccurateRip returned [DBDBC2F4] (AR v2)
Copy OK
Track 17
Filename E:\Рипы\VA - Funk (The Essential Collection) [lossless]-2009\17 Clemon Smith - Brother Man, Sister Ann.wav
Pre-gap length 0:00:01.01
Peak level 98.9 %
Extraction speed 3.8 X
Track quality 100.0 %
Test CRC D6E41D03
Copy CRC D6E41D03
Cannot be verified as accurate (confidence 1) [05FDEAD7], AccurateRip returned [45C2AEEE] (AR v2)
Copy OK
Track 18
Filename E:\Рипы\VA - Funk (The Essential Collection) [lossless]-2009\18 Jackie Beavers - Singing A Funky Song (For You Baby).wav
Pre-gap length 0:00:01.23
Peak level 99.4 %
Extraction speed 2.7 X
Track quality 99.9 %
Test CRC 7C7BE7AA
Copy CRC 7C7BE7AA
Cannot be verified as accurate (confidence 1) [10431121], AccurateRip returned [3E90EE80] (AR v2)
Copy OK
Track 19
Filename E:\Рипы\VA - Funk (The Essential Collection) [lossless]-2009\19 Kool & The Gang - Kind Of Funky.wav
Peak level 98.5 %
Extraction speed 4.0 X
Track quality 100.0 %
Test CRC 90C276E5
Copy CRC 90C276E5
Cannot be verified as accurate (confidence 1) [9267E056], AccurateRip returned [9CC4B4FD] (AR v2)
Copy OK
Track 20
Filename E:\Рипы\VA - Funk (The Essential Collection) [lossless]-2009\20 Continental Showstoppers - Goo Bah.wav
Pre-gap length 0:00:01.40
Peak level 88.9 %
Extraction speed 3.5 X
Track quality 100.0 %
Test CRC A6FDF3BE
Copy CRC A6FDF3BE
Cannot be verified as accurate (confidence 1) [0163FB88], AccurateRip returned [69728F56] (AR v2)
Copy OK
No tracks could be verified as accurate
You may have a different pressing from the one(s) in the database
No errors occurred
End of status report
---- CUETools DB Plugin V2.1.6
[CTDB TOCID: i1xPaPIH9V1G_tIVaBbZfhZAq3E-] found
Submit result: i1xPaPIH9V1G_tIVaBbZfhZAq3E- has been confirmed
Track | CTDB Status
1 | (1/1) Accurately ripped
2 | (1/1) Accurately ripped
3 | (1/1) Accurately ripped
4 | (1/1) Accurately ripped
5 | (1/1) Accurately ripped
6 | (1/1) Accurately ripped
7 | (1/1) Accurately ripped
8 | (1/1) Accurately ripped
9 | (1/1) Accurately ripped
10 | (1/1) Accurately ripped
11 | (1/1) Accurately ripped
12 | (1/1) Accurately ripped
13 | (1/1) Accurately ripped
14 | (1/1) Accurately ripped
15 | (1/1) Accurately ripped
16 | (1/1) Accurately ripped
17 | (1/1) Accurately ripped
18 | (1/1) Accurately ripped
19 | (1/1) Accurately ripped
20 | (1/1) Accurately ripped
==== Log checksum 6DA21AF357B8F7D8A9470660B284EB6B9EE4732E73F52A42161F22885DF1CFD8 ====
 
cue CD 1
REM GENRE Funk
REM DATE 2009
REM DISCID 24124714
REM COMMENT "ExactAudioCopy v1.1"
PERFORMER "Various Artists"
TITLE "CD3 - Night People Steppin': Nothin' Baut A House Party"
FILE "01 Fred Wesley - House Party.wav" WAVE
TRACK 01 AUDIO
TITLE "House Party"
PERFORMER "Fred Wesley"
INDEX 01 00:00:00
FILE "02 Joe Tex - Ain't Gonna Bump No More (With No Big Fat Woman).wav" WAVE
TRACK 02 AUDIO
TITLE "Ain't Gonna Bump No More (With No Big Fat Woman)"
PERFORMER "Joe Tex"
INDEX 01 00:00:00
FILE "03 Lee Dorsey - Night People.wav" WAVE
TRACK 03 AUDIO
TITLE "Night People"
PERFORMER "Lee Dorsey"
INDEX 01 00:00:00
FILE "04 Robert Parker - Get Ta' Stepin.wav" WAVE
TRACK 04 AUDIO
TITLE "Get Ta' Stepin"
PERFORMER "Robert Parker"
INDEX 01 00:00:00
TRACK 05 AUDIO
TITLE "Funky Drop"
PERFORMER "Soul Suspects"
INDEX 00 02:43:36
FILE "05 Soul Suspects - Funky Drop.wav" WAVE
INDEX 01 00:00:00
TRACK 06 AUDIO
TITLE "Ride Your Pony"
PERFORMER "Betty Harris"
INDEX 00 02:38:42
FILE "06 Betty Harris - Ride Your Pony.wav" WAVE
INDEX 01 00:00:00
TRACK 07 AUDIO
TITLE "Don't Change Your Love"
PERFORMER "Five Stairsteps & Cubie"
INDEX 00 03:08:30
FILE "07 Five Stairsteps & Cubie - Don't Change Your Love.wav" WAVE
INDEX 01 00:00:00
TRACK 08 AUDIO
TITLE "Lover And A Friend"
PERFORMER "Eddie Bo & Inez Cheatham"
INDEX 00 02:46:28
FILE "08 Eddie Bo & Inez Cheatham - Lover And A Friend.wav" WAVE
INDEX 01 00:00:00
TRACK 09 AUDIO
TITLE "Look-Ka-Py-Py"
PERFORMER "The Meters"
INDEX 00 02:27:13
FILE "09 The Meters - Look-Ka-Py-Py.wav" WAVE
INDEX 01 00:00:00
FILE "10 Bobby Womack & JJ Johnson - Harlem Clavinette.wav" WAVE
TRACK 10 AUDIO
TITLE "Harlem Clavinette"
PERFORMER "Bobby Womack & JJ Johnson"
INDEX 01 00:00:00
TRACK 11 AUDIO
TITLE "The Way They Do My Life"
PERFORMER "Sir Joe Quarterman & Free Soul"
INDEX 00 02:11:04
FILE "11 Sir Joe Quarterman & Free Soul - The Way They Do My Life.wav" WAVE
INDEX 01 00:00:00
TRACK 12 AUDIO
TITLE "Funky Love"
PERFORMER "The Staple Singers"
INDEX 00 02:59:23
FILE "12 The Staple Singers - Funky Love.wav" WAVE
INDEX 01 00:00:00
TRACK 13 AUDIO
TITLE "Maceo"
PERFORMER "Maceo & All The Kings Men"
INDEX 00 04:44:48
FILE "13 Maceo & All The Kings Men - Maceo.wav" WAVE
INDEX 01 00:00:00
TRACK 14 AUDIO
TITLE "Freddie's Dead"
PERFORMER "Curtis Mayfield"
INDEX 00 07:45:11
FILE "14 Curtis Mayfield - Freddie's Dead.wav" WAVE
INDEX 01 00:00:00
TRACK 15 AUDIO
TITLE "Sooner Or Later"
PERFORMER "The Impressions"
INDEX 00 05:23:32
FILE "15 The Impressions - Sooner Or Later.wav" WAVE
INDEX 01 00:00:00
TRACK 16 AUDIO
TITLE "Find Someone To Love"
PERFORMER "The Ohio Players"
INDEX 00 02:54:15
FILE "16 The Ohio Players - Find Someone To Love.wav" WAVE
INDEX 01 00:00:00
TRACK 17 AUDIO
TITLE "Brother Man, Sister Ann"
PERFORMER "Clemon Smith"
INDEX 00 02:12:33
FILE "17 Clemon Smith - Brother Man, Sister Ann.wav" WAVE
INDEX 01 00:00:00
TRACK 18 AUDIO
TITLE "Singing A Funky Song (For You Baby)"
PERFORMER "Jackie Beavers"
INDEX 00 06:18:53
FILE "18 Jackie Beavers - Singing A Funky Song (For You Baby).wav" WAVE
INDEX 01 00:00:00
FILE "19 Kool & The Gang - Kind Of Funky.wav" WAVE
TRACK 19 AUDIO
TITLE "Kind Of Funky"
PERFORMER "Kool & The Gang"
INDEX 01 00:00:00
TRACK 20 AUDIO
TITLE "Goo Bah"
PERFORMER "Continental Showstoppers"
INDEX 00 08:19:53
FILE "20 Continental Showstoppers - Goo Bah.wav" WAVE
INDEX 01 00:00:00
Приватный:
Нет (DHT включён)
Размер:
1.31 Гб (1,410,324,490 байт) » файлов: 83
Участники:
0 раздают, 0 качают (0 участников всего)
Внешние участники:
3 раздают, 1 качают (4 участников всего) [ Обновить ]
No seeders - write a personal message to user M0p94ok. Нет сидеров - пишите личное сообщение пользователю M0p94ok.
11:23
56
Нет комментариев. Ваш будет первым!