Поиск

(R'N'B, Soul) [CD] VA - Soul Ballads vol.2 - 1998, FLAC (tracks+.cue), lossless

(R'N'B, Soul) [CD] VA - Soul Ballads vol.2 - 1998, FLAC (tracks+.cue), lossless
Треклист:
Soul Ballads vol.2
Жанр: R'N'B, Soul
Носитель: CD
Страна-производитель диска (релиза): Canada
Год издания: 1998
Издатель (лейбл): Retro Music
Номер по каталогу: RNB50172
Аудиокодек: FLAC (*.flac)
Тип рипа: tracks+.cue
Битрейт аудио: lossless
Продолжительность: 0:33:18.
Источник (релизер): clustert
Наличие сканов в содержимом раздачи: да
Треклист:
01. Ben E. King / Stand By Me [0:03:18.17]
02. Platters / Smoke Gets in Your Eyes [0:02:35.53]
03. Percy Sledge / I've Been Loving You to Long [0:02:44.05]
04. Harold Melvin & the Bluenotes / If You Don't Know Me By Now [0:04:25.35]
05. Shirelles / Will You Still Love Me Tomorrow [0:02:40.10]
06. Paul Young / Tracks of My Tears [0:03:22.35]
07. Drifters / Save the Last Dance for Me [0:02:33.02]
08. Chi-Lites / Have You Seen Her [0:04:55.05]
09. Mary Wells / My Guy [0:02:47.73]
10. James Brown / It's A Man's Man's World [0:03:55.65]
 
Лог создания рипа
Exact Audio Copy V1.0 beta 3 from 29. August 2011
Отчёт EAC об извлечении, выполненном 22. сентября 2016, 20:02
VA / Soul Ballads vol.2
Дисковод: ASUS DRW-1814BLT Adapter: 4 ID: 0
Режим чтения : Достоверность
Использование точного потока : Да
Отключение кэша аудио : Да
Использование указателей C2 : Нет
Коррекция смещения при чтении : 6
Способность читать области Lead-in и Lead-out : Нет
Заполнение пропущенных сэмплов тишиной : Да
Удаление блоков с тишиной в начале и конце : Нет
При вычислениях CRC использовались нулевые сэмплы : Да
Интерфейс : Встроенный Win32-интерфейс для Win NT/2000
Обработка зазоров : Добавлено к предыдущему треку
Выходной формат : Пользовательский кодировщик
Выбранный битрейт : 128 kBit/s
Качество : Высокий
Добавление ID3-тега : Нет
Утилита сжатия : C:\Program Files\Exact Audio Copy\Flac\flac.exe
Дополнительные параметры : -V -8 -T "Genre=%genre%" -T "Artist=%artist%" -T "Title=%title%" -T "Album=%albumtitle%" -T "Date=%year%" -T "Tracknumber=%tracknr%" -T "Comment=EAC1.0b2 FLAC -8" %source%
TOC извлечённого CD
Трек | Старт | Длительность | Начальный сектор | Конечный сектор
---------------------------------------------------------------------
1 | 0:00.00 | 3:18.17 | 0 | 14866
2 | 3:18.17 | 2:35.53 | 14867 | 26544
3 | 5:53.70 | 2:44.05 | 26545 | 38849
4 | 8:38.00 | 4:25.35 | 38850 | 58759
5 | 13:03.35 | 2:40.10 | 58760 | 70769
6 | 15:43.45 | 3:22.35 | 70770 | 85954
7 | 19:06.05 | 2:33.02 | 85955 | 97431
8 | 21:39.07 | 4:55.05 | 97432 | 119561
9 | 26:34.12 | 2:47.73 | 119562 | 132159
10 | 29:22.10 | 3:55.65 | 132160 | 149849
Трек 1
Имя файла R:\Раздача 67\VA - Soul Ballads vol.2 - 1998\01 Stand By Me .wav
Длина предзазора 0:00:02.00
Пиковый уровень 90.2 %
Скорость извлечения 3.5 X
Качество трека 99.9 %
CRC теста 44E8896B
CRC копии 44E8896B
Точное извлечение (достоверность 4) [A6312E4E] (AR v1)
Копирование... OK
Трек 2
Имя файла R:\Раздача 67\VA - Soul Ballads vol.2 - 1998\02 Smoke Gets in Your Eyes .wav
Длина предзазора 0:00:01.57
Пиковый уровень 80.7 %
Скорость извлечения 3.5 X
Качество трека 99.9 %
CRC теста 2D6ACE74
CRC копии 2D6ACE74
Точное извлечение (достоверность 4) [78E20E79] (AR v1)
Копирование... OK
Трек 3
Имя файла R:\Раздача 67\VA - Soul Ballads vol.2 - 1998\03 I've Been Loving You to Long .wav
Длина предзазора 0:00:01.58
Пиковый уровень 93.6 %
Скорость извлечения 5.4 X
Качество трека 100.0 %
CRC теста 160D1F74
CRC копии 160D1F74
Точное извлечение (достоверность 4) [FE2B09FD] (AR v1)
Копирование... OK
Трек 4
Имя файла R:\Раздача 67\VA - Soul Ballads vol.2 - 1998\04 If You Don't Know Me By Now .wav
Длина предзазора 0:00:01.58
Пиковый уровень 76.2 %
Скорость извлечения 6.2 X
Качество трека 100.0 %
CRC теста AE7597A5
CRC копии AE7597A5
Точное извлечение (достоверность 4) [BD0C158C] (AR v1)
Копирование... OK
Трек 5
Имя файла R:\Раздача 67\VA - Soul Ballads vol.2 - 1998\05 Will You Still Love Me Tomorrow .wav
Длина предзазора 0:00:01.58
Пиковый уровень 76.4 %
Скорость извлечения 6.1 X
Качество трека 100.0 %
CRC теста 2C95ECE0
CRC копии 2C95ECE0
Точное извлечение (достоверность 4) [75E8C346] (AR v1)
Копирование... OK
Трек 6
Имя файла R:\Раздача 67\VA - Soul Ballads vol.2 - 1998\06 Tracks of My Tears .wav
Длина предзазора 0:00:01.58
Пиковый уровень 90.0 %
Скорость извлечения 6.6 X
Качество трека 100.0 %
CRC теста 6CAF474F
CRC копии 6CAF474F
Точное извлечение (достоверность 4) [5B86B3FF] (AR v1)
Копирование... OK
Трек 7
Имя файла R:\Раздача 67\VA - Soul Ballads vol.2 - 1998\07 Save the Last Dance for Me .wav
Длина предзазора 0:00:01.58
Пиковый уровень 97.4 %
Скорость извлечения 4.7 X
Качество трека 99.9 %
CRC теста F9B5569D
CRC копии F9B5569D
Точное извлечение (достоверность 4) [5EC4539F] (AR v1)
Копирование... OK
Трек 8
Имя файла R:\Раздача 67\VA - Soul Ballads vol.2 - 1998\08 Have You Seen Her .wav
Длина предзазора 0:00:01.57
Пиковый уровень 87.2 %
Скорость извлечения 7.6 X
Качество трека 100.0 %
CRC теста 700FF55D
CRC копии 700FF55D
Точное извлечение (достоверность 4) [657FAB8D] (AR v1)
Копирование... OK
Трек 9
Имя файла R:\Раздача 67\VA - Soul Ballads vol.2 - 1998\09 My Guy .wav
Длина предзазора 0:00:01.57
Пиковый уровень 75.8 %
Скорость извлечения 5.2 X
Качество трека 99.9 %
CRC теста 766F91E9
CRC копии 766F91E9
Точное извлечение (достоверность 4) [4C42597E] (AR v1)
Копирование... OK
Трек 10
Имя файла R:\Раздача 67\VA - Soul Ballads vol.2 - 1998\10 It's A Man's Man's World .wav
Длина предзазора 0:00:01.60
Пиковый уровень 92.5 %
Скорость извлечения 8.0 X
Качество трека 100.0 %
CRC теста 790319C7
CRC копии 790319C7
Точное извлечение (достоверность 4) [D1D160C9] (AR v1)
Копирование... OK
Все треки извлечены точно
Ошибок не произошло
Конец отчёта
==== Контрольная сумма отчёта BA560C7F407B0247BAFC8EA0619CA761DB0E4C7AFAB92D95745733CFD20EAE78 ====
 
Содержание индексной карты (.CUE)
REM GENRE "R&B, Soul"
REM DATE 1998
REM DISCID 7807CE0A
REM COMMENT "ExactAudioCopy v1.0b3"
CATALOG 0000000000000
PERFORMER "VA"
TITLE "Soul Ballads vol.2"
FILE "01 Stand By Me .wav" WAVE
TRACK 01 AUDIO
TITLE "Stand By Me"
PERFORMER "Ben E. King"
INDEX 01 00:00:00
TRACK 02 AUDIO
TITLE "Smoke Gets in Your Eyes"
PERFORMER "Platters"
INDEX 00 03:16:35
FILE "02 Smoke Gets in Your Eyes .wav" WAVE
INDEX 01 00:00:00
TRACK 03 AUDIO
TITLE "I've Been Loving You to Long"
PERFORMER "Percy Sledge"
INDEX 00 02:33:70
FILE "03 I've Been Loving You to Long .wav" WAVE
INDEX 01 00:00:00
TRACK 04 AUDIO
TITLE "If You Don't Know Me By Now"
PERFORMER "Harold Melvin & the Bluenotes"
INDEX 00 02:42:22
FILE "04 If You Don't Know Me By Now .wav" WAVE
INDEX 01 00:00:00
TRACK 05 AUDIO
TITLE "Will You Still Love Me Tomorrow"
PERFORMER "Shirelles"
INDEX 00 04:23:52
FILE "05 Will You Still Love Me Tomorrow .wav" WAVE
INDEX 01 00:00:00
TRACK 06 AUDIO
TITLE "Tracks of My Tears"
PERFORMER "Paul Young"
INDEX 00 02:38:27
FILE "06 Tracks of My Tears .wav" WAVE
INDEX 01 00:00:00
TRACK 07 AUDIO
TITLE "Save the Last Dance for Me"
PERFORMER "Drifters"
INDEX 00 03:20:52
FILE "07 Save the Last Dance for Me .wav" WAVE
INDEX 01 00:00:00
TRACK 08 AUDIO
TITLE "Have You Seen Her"
PERFORMER "Chi-Lites"
INDEX 00 02:31:20
FILE "08 Have You Seen Her .wav" WAVE
INDEX 01 00:00:00
TRACK 09 AUDIO
TITLE "My Guy"
PERFORMER "Mary Wells"
INDEX 00 04:53:23
FILE "09 My Guy .wav" WAVE
INDEX 01 00:00:00
TRACK 10 AUDIO
TITLE "It's A Man's Man's World"
PERFORMER "James Brown"
INDEX 00 02:46:13
FILE "10 It's A Man's Man's World .wav" WAVE
INDEX 01 00:00:00
Приватный:
Нет (DHT включён)
Размер:
169.75 Мб (177,996,817 байт) » файлов: 19
Участники:
0 раздают, 0 качают (0 участников всего)
Внешние участники:
3 раздают, 1 качают (4 участников всего) [ Обновить ]
No seeders - write a personal message to user M0p94ok. Нет сидеров - пишите личное сообщение пользователю M0p94ok.
12:01
69
Нет комментариев. Ваш будет первым!