Поиск

(Soul) [CD] Tyrone Davis - Give It Up (Turn It Loose): The Very Best Of The Columbia Years - 2005, FLAC (tracks+.cue), lossless

(Soul) [CD] Tyrone Davis - Give It Up (Turn It Loose): The Very Best Of The Columbia Years - 2005, FLAC (tracks+.cue), lossless
Треклист:
Tyrone Davis
Give It Up (Turn It Loose): The Very Best Of The Columbia Years Жанр: Soul
Носитель: CD
Год издания: 2005
Издатель (лейбл): Columbia/Legacy
Номер по каталогу: CK 90868
Аудиокодек: FLAC (*.flac)
Тип рипа: tracks+.cue
Битрейт аудио: lossless
Продолжительность: 72:27
Источник (релизер): What.cd (zacki)
Наличие сканов в содержимом раздачи: да
Треклист:
01. Let's Be Closer Together (5:39)
02. In The Mood (4:10)
03. Heart Failure (7:18)
04. Close To You (4:05)
05. Leave Well Enough Alone (3:45)
06. Give It Up (Turn It Loose) [Disco Version] (4:18)
07. This I Swear (5:54)
08. Ain't Nothing I Can Do (4:43)
09. How Sweet It Is (To Be Loved By You) (4:02)
10. I Got Carried Away (5:00)
11. Get On Up Disco (3:51)
12. Be With Me (6:03)
13. I'm Glad You're Here With Me Tonight (4:30)
14. Just My Luck (4:51)
15. Can't You Tell It's Me (4:17)
 
 
Лог создания рипа
Exact Audio Copy V0.99 prebeta 5 from 4. May 2009
EAC extraction logfile from 13. December 2009, 15:07
Tyrone Davis / Give It Up (Turn It Loose): The Very Best Of The Columbia Years
Used drive : TSSTcorpCDDVDW SH-S223F Adapter: 0 ID: 1
Read mode : Secure
Utilize accurate stream : Yes
Defeat audio cache : Yes
Make use of C2 pointers : No
Read offset correction : 6
Overread into Lead-In and Lead-Out : No
Fill up missing offset samples with silence : Yes
Delete leading and trailing silent blocks : No
Null samples used in CRC calculations : Yes
Used interface : Native Win32 interface for Win NT & 2000
Gap handling : Appended to previous track
Used output format : User Defined Encoder
Selected bitrate : 192 kBit/s
Quality : High
Add ID3 tag : No
Command line compressor : C:\Programme\Exact Audio Copy\Flac\flac.exe
Additional command line options : -V -5 -T "artist=%a" -T "title=%t" -T "album=%g" -T "date=%y" -T "tracknumber=%n" -T "genre=%m" %s
TOC of the extracted CD
Track | Start | Length | Start sector | End sector
---------------------------------------------------------
1 | 0:00.00 | 5:38.56 | 0 | 25405
2 | 5:38.56 | 4:09.61 | 25406 | 44141
3 | 9:48.42 | 7:18.01 | 44142 | 76992
4 | 17:06.43 | 4:04.68 | 76993 | 95360
5 | 21:11.36 | 3:45.03 | 95361 | 112238
6 | 24:56.39 | 4:18.21 | 112239 | 131609
7 | 29:14.60 | 5:53.56 | 131610 | 158140
8 | 35:08.41 | 4:43.37 | 158141 | 179402
9 | 39:52.03 | 4:02.20 | 179403 | 197572
10 | 43:54.23 | 5:00.29 | 197573 | 220101
11 | 48:54.52 | 3:51.01 | 220102 | 237427
12 | 52:45.53 | 6:03.35 | 237428 | 264687
13 | 58:49.13 | 4:29.72 | 264688 | 284934
14 | 63:19.10 | 4:50.42 | 284935 | 306726
15 | 68:09.52 | 4:17.05 | 306727 | 326006
Track 1
Filename H:\Eac Ripps\01. Let's Be Closer Together.wav
Pre-gap length 0:00:02.00
Peak level 100.0 %
Track quality 100.0 %
Test CRC 3959509C
Copy CRC 3959509C
Track not present in AccurateRip database
Copy OK
Track 2
Filename H:\Eac Ripps\02. In The Mood.wav
Peak level 100.0 %
Track quality 100.0 %
Test CRC 6545F6E7
Copy CRC 6545F6E7
Track not present in AccurateRip database
Copy OK
Track 3
Filename H:\Eac Ripps\03. Heart Failure.wav
Peak level 100.0 %
Track quality 99.9 %
Test CRC 121C3803
Copy CRC 121C3803
Track not present in AccurateRip database
Copy OK
Track 4
Filename H:\Eac Ripps\04. Close To You.wav
Peak level 100.0 %
Track quality 100.0 %
Test CRC BB26CE04
Copy CRC BB26CE04
Track not present in AccurateRip database
Copy OK
Track 5
Filename H:\Eac Ripps\05. Leave Well Enough Alone.wav
Peak level 100.0 %
Track quality 100.0 %
Test CRC 74FBE674
Copy CRC 74FBE674
Track not present in AccurateRip database
Copy OK
Track 6
Filename H:\Eac Ripps\06. Give It Up (Turn It Loose) [Disco Version].wav
Peak level 100.0 %
Track quality 100.0 %
Test CRC 480045B0
Copy CRC 480045B0
Track not present in AccurateRip database
Copy OK
Track 7
Filename H:\Eac Ripps\07. This I Swear.wav
Peak level 100.0 %
Track quality 100.0 %
Test CRC F62EFD12
Copy CRC F62EFD12
Track not present in AccurateRip database
Copy OK
Track 8
Filename H:\Eac Ripps\08. Ain't Nothing I Can Do.wav
Peak level 100.0 %
Track quality 100.0 %
Test CRC 5CC92757
Copy CRC 5CC92757
Track not present in AccurateRip database
Copy OK
Track 9
Filename H:\Eac Ripps\09. How Sweet It Is (To Be Loved By You).wav
Peak level 100.0 %
Track quality 100.0 %
Test CRC 97CA76D0
Copy CRC 97CA76D0
Track not present in AccurateRip database
Copy OK
Track 10
Filename H:\Eac Ripps\10. I Got Carried Away.wav
Peak level 100.0 %
Track quality 100.0 %
Test CRC 6455705B
Copy CRC 6455705B
Track not present in AccurateRip database
Copy OK
Track 11
Filename H:\Eac Ripps\11. Get On Up Disco.wav
Peak level 96.4 %
Track quality 100.0 %
Test CRC 5F71C38D
Copy CRC 5F71C38D
Track not present in AccurateRip database
Copy OK
Track 12
Filename H:\Eac Ripps\12. Be With Me.wav
Peak level 100.0 %
Track quality 100.0 %
Test CRC 141F7216
Copy CRC 141F7216
Track not present in AccurateRip database
Copy OK
Track 13
Filename H:\Eac Ripps\13. I'm Glad You're Here With Me Tonight.wav
Peak level 100.0 %
Track quality 99.9 %
Test CRC F4831F23
Copy CRC F4831F23
Track not present in AccurateRip database
Copy OK
Track 14
Filename H:\Eac Ripps\14. Just My Luck.wav
Peak level 100.0 %
Track quality 99.9 %
Test CRC 302C2473
Copy CRC 302C2473
Track not present in AccurateRip database
Copy OK
Track 15
Filename H:\Eac Ripps\15. Can't You Tell It's Me.wav
Peak level 100.0 %
Track quality 100.0 %
Test CRC C570F2C6
Copy CRC C570F2C6
Track not present in AccurateRip database
Copy OK
None of the tracks are present in the AccurateRip database
No errors occurred
End of status report
 
Содержание индексной карты (.CUE)
REM GENRE Soul
REM DATE 2005
REM DISCID CA10FA0F
REM COMMENT "ExactAudioCopy v0.99pb5"
PERFORMER "Tyrone Davis"
TITLE "Give It Up (Turn It Loose): The Very Best Of The Columbia Years"
FILE "01. Let's Be Closer Together.wav" WAVE
TRACK 01 AUDIO
TITLE "Let's Be Closer Together"
PERFORMER "Tyrone Davis"
INDEX 01 00:00:00
FILE "02. In The Mood.wav" WAVE
TRACK 02 AUDIO
TITLE "In The Mood"
PERFORMER "Tyrone Davis"
INDEX 01 00:00:00
FILE "03. Heart Failure.wav" WAVE
TRACK 03 AUDIO
TITLE "Heart Failure"
PERFORMER "Tyrone Davis"
INDEX 01 00:00:00
FILE "04. Close To You.wav" WAVE
TRACK 04 AUDIO
TITLE "Close To You"
PERFORMER "Tyrone Davis"
INDEX 01 00:00:00
FILE "05. Leave Well Enough Alone.wav" WAVE
TRACK 05 AUDIO
TITLE "Leave Well Enough Alone"
PERFORMER "Tyrone Davis"
INDEX 01 00:00:00
FILE "06. Give It Up (Turn It Loose) [Disco Version].wav" WAVE
TRACK 06 AUDIO
TITLE "Give It Up (Turn It Loose) [Disco Version]"
PERFORMER "Tyrone Davis"
INDEX 01 00:00:00
FILE "07. This I Swear.wav" WAVE
TRACK 07 AUDIO
TITLE "This I Swear"
PERFORMER "Tyrone Davis"
INDEX 01 00:00:00
FILE "08. Ain't Nothing I Can Do.wav" WAVE
TRACK 08 AUDIO
TITLE "Ain't Nothing I Can Do"
PERFORMER "Tyrone Davis"
INDEX 01 00:00:00
FILE "09. How Sweet It Is (To Be Loved By You).wav" WAVE
TRACK 09 AUDIO
TITLE "How Sweet It Is (To Be Loved By You)"
PERFORMER "Tyrone Davis"
INDEX 01 00:00:00
FILE "10. I Got Carried Away.wav" WAVE
TRACK 10 AUDIO
TITLE "I Got Carried Away"
PERFORMER "Tyrone Davis"
INDEX 01 00:00:00
FILE "11. Get On Up Disco.wav" WAVE
TRACK 11 AUDIO
TITLE "Get On Up Disco"
PERFORMER "Tyrone Davis"
INDEX 01 00:00:00
FILE "12. Be With Me.wav" WAVE
TRACK 12 AUDIO
TITLE "Be With Me"
PERFORMER "Tyrone Davis"
INDEX 01 00:00:00
FILE "13. I'm Glad You're Here With Me Tonight.wav" WAVE
TRACK 13 AUDIO
TITLE "I'm Glad You're Here With Me Tonight"
PERFORMER "Tyrone Davis"
INDEX 01 00:00:00
FILE "14. Just My Luck.wav" WAVE
TRACK 14 AUDIO
TITLE "Just My Luck"
PERFORMER "Tyrone Davis"
INDEX 01 00:00:00
FILE "15. Can't You Tell It's Me.wav" WAVE
TRACK 15 AUDIO
TITLE "Can't You Tell It's Me"
PERFORMER "Tyrone Davis"
INDEX 01 00:00:00
Приватный:
Нет (DHT включён)
Размер:
484.11 Мб (507,628,609 байт) » файлов: 27
Участники:
0 раздают, 0 качают (0 участников всего)
Внешние участники:
3 раздают, 1 качают (4 участников всего) [ Обновить ]
Есть вопросы - пишите личное сообщение пользователю M0p94ok.
08:46
102
Нет комментариев. Ваш будет первым!