Поиск

(Funk, Soul, R&B) [CD] Michael Henderson - Solid (1976) - 2009, FLAC (tracks+.cue), lossless

(Funk, Soul, R&B) [CD] Michael Henderson - Solid (1976) - 2009, FLAC (tracks+.cue), lossless
Треклист:
Michael Henderson - Solid (1976) Жанр: Funk, Soul, R&B
Носитель: CD
Год издания: 2009
Издатель (лейбл): Unidisk Records
Номер по каталогу: BDK 5662
Аудиокодек: FLAC (*.flac)
Тип рипа: tracks+.cue
Битрейт аудио: lossless
Продолжительность: 36:33
Rip by JET 1
Наличие сканов в содержимом раздачи: да
Треклист:
01. Make Me Feel Better (3:01)
02. Time (3:06)
03. Let Love Enter (2:55)
04. Treat Me Like A Man (3:58)
05. Solid (6:31)
06. Be My Girl (5:12)
07. You Haven't Made It To The Top (4:09)
08. Valentine Love (3:58)
09. Stay With Me This Summer (3:42)
 
 
Лог создания рипа
Exact Audio Copy V1.0 beta 3 from 29. August 2011
EAC extraction logfile from 30. October 2015, 20:28
Michael Henderson / Solid
Used drive : GENERIC CDRCB05 Adapter: 4 ID: 0
Read mode : Secure
Utilize accurate stream : Yes
Defeat audio cache : Yes
Make use of C2 pointers : No
Read offset correction : 102
Overread into Lead-In and Lead-Out : No
Fill up missing offset samples with silence : Yes
Delete leading and trailing silent blocks : No
Null samples used in CRC calculations : Yes
Used interface : Native Win32 interface for Win NT & 2000
Gap handling : Appended to previous track
Used output format : User Defined Encoder
Selected bitrate : 1024 kBit/s
Quality : High
Add ID3 tag : No
Command line compressor : C:\Program Files\FLAC\flac.exe
Additional command line options : -8 -V -T "ARTIST=%artist%" -T "TITLE=%title%" -T "ALBUM=%albumtitle%" -T "DATE=%year%" -T "TRACKNUMBER=%tracknr%" -T "GENRE=%genre%" -T "PERFORMER=%albuminterpret%" -T "COMPOSER=%composer%" %haslyrics%--tag-from-file=LYRICS="%lyricsfile%"%haslyrics% -T "ALBUMARTIST=%albumartist%" -T "DISCNUMBER=%cdnumber%" -T "TOTALDISCS=%totalcds%" -T "TOTALTRACKS=%numtracks%" -T "COMMENT=%comment%" %source% -o %dest%
TOC of the extracted CD
Track | Start | Length | Start sector | End sector
---------------------------------------------------------
1 | 0:00.00 | 3:00.47 | 0 | 13546
2 | 3:00.47 | 3:06.28 | 13547 | 27524
3 | 6:07.00 | 2:55.05 | 27525 | 40654
4 | 9:02.05 | 3:57.66 | 40655 | 58495
5 | 12:59.71 | 6:31.22 | 58496 | 87842
6 | 19:31.18 | 5:12.35 | 87843 | 111277
7 | 24:43.53 | 4:09.23 | 111278 | 129975
8 | 28:53.01 | 3:58.35 | 129976 | 147860
9 | 32:51.36 | 3:41.52 | 147861 | 164487
Track 1
Filename G:\POSTS\Michael Henderson - Solid (1976) [2009 Unidisk]\01 - Make Me Feel Better.wav
Pre-gap length 0:00:02.00
Peak level 99.2 %
Extraction speed 2.2 X
Track quality 100.0 %
Test CRC 39F9B74A
Copy CRC 39F9B74A
Track not present in AccurateRip database
Copy OK
Track 2
Filename G:\POSTS\Michael Henderson - Solid (1976) [2009 Unidisk]\02 - Time.wav
Peak level 99.2 %
Extraction speed 2.4 X
Track quality 100.0 %
Test CRC 1FF6DDB7
Copy CRC 1FF6DDB7
Track not present in AccurateRip database
Copy OK
Track 3
Filename G:\POSTS\Michael Henderson - Solid (1976) [2009 Unidisk]\03 - Let Love Enter.wav
Peak level 99.2 %
Extraction speed 2.5 X
Track quality 100.0 %
Test CRC 8F77E43E
Copy CRC 8F77E43E
Track not present in AccurateRip database
Copy OK
Track 4
Filename G:\POSTS\Michael Henderson - Solid (1976) [2009 Unidisk]\04 - Treat Me Like A Man.wav
Peak level 99.2 %
Extraction speed 2.9 X
Track quality 100.0 %
Test CRC 4C98902F
Copy CRC 4C98902F
Track not present in AccurateRip database
Copy OK
Track 5
Filename G:\POSTS\Michael Henderson - Solid (1976) [2009 Unidisk]\05 - Solid.wav
Peak level 99.2 %
Extraction speed 3.2 X
Track quality 100.0 %
Test CRC 961D828E
Copy CRC 961D828E
Track not present in AccurateRip database
Copy OK
Track 6
Filename G:\POSTS\Michael Henderson - Solid (1976) [2009 Unidisk]\06 - Be My Girl.wav
Peak level 99.2 %
Extraction speed 3.4 X
Track quality 100.0 %
Test CRC 0032D392
Copy CRC 0032D392
Track not present in AccurateRip database
Copy OK
Track 7
Filename G:\POSTS\Michael Henderson - Solid (1976) [2009 Unidisk]\07 - You Haven't Made It To The Top.wav
Peak level 99.2 %
Extraction speed 3.1 X
Track quality 99.9 %
Test CRC 6979CCD1
Copy CRC 6979CCD1
Track not present in AccurateRip database
Copy OK
Track 8
Filename G:\POSTS\Michael Henderson - Solid (1976) [2009 Unidisk]\08 - Valentine Love.wav
Peak level 99.2 %
Extraction speed 3.6 X
Track quality 100.0 %
Test CRC 94604D77
Copy CRC 94604D77
Track not present in AccurateRip database
Copy OK
Track 9
Filename G:\POSTS\Michael Henderson - Solid (1976) [2009 Unidisk]\09 - Stay With Me This Summer.wav
Peak level 99.2 %
Extraction speed 3.7 X
Track quality 100.0 %
Test CRC 6346BD99
Copy CRC 6346BD99
Track not present in AccurateRip database
Copy OK
None of the tracks are present in the AccurateRip database
No errors occurred
End of status report
==== Log checksum CBAE5FCA84333428CDA9B4E450CB9E581EF4F70798C7C9043CCE2DC00CDB1340 ====
 
Содержание индексной карты (.CUE)
REM GENRE R&B
REM DATE 1976
REM DISCID 7E089109
REM COMMENT "ExactAudioCopy v1.0b3"
PERFORMER "Michael Henderson"
TITLE "Solid"
FILE "01 - Make Me Feel Better.wav" WAVE
TRACK 01 AUDIO
TITLE "Make Me Feel Better"
PERFORMER "Michael Henderson"
FLAGS DCP
INDEX 01 00:00:00
FILE "02 - Time.wav" WAVE
TRACK 02 AUDIO
TITLE "Time"
PERFORMER "Michael Henderson"
FLAGS DCP
INDEX 01 00:00:00
FILE "03 - Let Love Enter.wav" WAVE
TRACK 03 AUDIO
TITLE "Let Love Enter"
PERFORMER "Michael Henderson"
FLAGS DCP
INDEX 01 00:00:00
FILE "04 - Treat Me Like A Man.wav" WAVE
TRACK 04 AUDIO
TITLE "Treat Me Like A Man"
PERFORMER "Michael Henderson"
FLAGS DCP
INDEX 01 00:00:00
FILE "05 - Solid.wav" WAVE
TRACK 05 AUDIO
TITLE "Solid"
PERFORMER "Michael Henderson"
FLAGS DCP
INDEX 01 00:00:00
FILE "06 - Be My Girl.wav" WAVE
TRACK 06 AUDIO
TITLE "Be My Girl"
PERFORMER "Michael Henderson"
FLAGS DCP
INDEX 01 00:00:00
FILE "07 - You Haven't Made It To The Top.wav" WAVE
TRACK 07 AUDIO
TITLE "You Haven't Made It To The Top"
PERFORMER "Michael Henderson"
FLAGS DCP
INDEX 01 00:00:00
FILE "08 - Valentine Love.wav" WAVE
TRACK 08 AUDIO
TITLE "Valentine Love"
PERFORMER "Michael Henderson"
FLAGS DCP
INDEX 01 00:00:00
FILE "09 - Stay With Me This Summer.wav" WAVE
TRACK 09 AUDIO
TITLE "Stay With Me This Summer"
PERFORMER "Michael Henderson"
FLAGS DCP
INDEX 01 00:00:00
 
Состав
Michael Henderson - Lead and Backing Vocals, Guitar, Drums on "Solid", Bass
Bruce Nazarian - Guitar, Synthesizer
Jerry Jones, Leslie Daniels - Drums
Lester Williams, Nimrod Lumpkin, Rudy Robinson - Keyboards
Ralph Armstrong - Guitar
Mark Johnson - Synthesizer
Muruga Sharma aka Muruga Booker - Percussion
Eli Fontaine, Marcus Belgrave, Norma Jean Bell - Horns
Rudy Robinson, Travis Biggs - Strings
Brandye, Rose Henderson Williams - Backing Vocals
Приватный:
Нет (DHT включён)
Размер:
281.33 Мб (294,994,456 байт) » файлов: 19
Участники:
0 раздают, 0 качают (0 участников всего)
Внешние участники:
2 раздают, 1 качают (3 участников всего) [ Обновить ]
Есть вопросы - пишите личное сообщение пользователю M0p94ok.
08:45
48
Нет комментариев. Ваш будет первым!