Поиск

(Funk, Soul) [CD] Isaac Hayes Movement - Disco Connection (1975) - 2015, FLAC (tracks+.cue), lossless

(Funk, Soul) [CD] Isaac Hayes Movement - Disco Connection (1975) - 2015, FLAC (tracks+.cue), lossless
Треклист:
Isaac Hayes Movement - Disco Connection (1975) Жанр: Funk, Soul
Носитель: CD
Год издания: 2015
Издатель (лейбл): Stax Records
Номер по каталогу: CDSXD 144
Аудиокодек: FLAC (*.flac)
Тип рипа: tracks+.cue
Битрейт аудио: lossless
Продолжительность: 45:01
Rip by JET 1
Наличие сканов в содержимом раздачи: да
Треклист:
01. The First Day Of Forever (4:38)
02. St. Thomas Square (5:52)
03. Vykkii (4:55)
04. Disco Connection (6:17)
05. Disco Shuffle (8:11)
06. Choppers (4:34)
07. After Five (5:02)
08. Aruba (5:34)
 
 
Лог создания рипа
Exact Audio Copy V1.0 beta 3 from 29. August 2011
EAC extraction logfile from 11. November 2015, 20:39
Isaac Hayes Movement / Disco Connection
Used drive : GENERIC CDRCB05 Adapter: 4 ID: 0
Read mode : Secure
Utilize accurate stream : Yes
Defeat audio cache : Yes
Make use of C2 pointers : No
Read offset correction : 102
Overread into Lead-In and Lead-Out : No
Fill up missing offset samples with silence : Yes
Delete leading and trailing silent blocks : No
Null samples used in CRC calculations : Yes
Used interface : Native Win32 interface for Win NT & 2000
Gap handling : Appended to previous track
Used output format : User Defined Encoder
Selected bitrate : 1024 kBit/s
Quality : High
Add ID3 tag : No
Command line compressor : C:\Program Files\FLAC\flac.exe
Additional command line options : -8 -V -T "ARTIST=%artist%" -T "TITLE=%title%" -T "ALBUM=%albumtitle%" -T "DATE=%year%" -T "TRACKNUMBER=%tracknr%" -T "GENRE=%genre%" -T "PERFORMER=%albuminterpret%" -T "COMPOSER=%composer%" %haslyrics%--tag-from-file=LYRICS="%lyricsfile%"%haslyrics% -T "ALBUMARTIST=%albumartist%" -T "DISCNUMBER=%cdnumber%" -T "TOTALDISCS=%totalcds%" -T "TOTALTRACKS=%numtracks%" -T "COMMENT=%comment%" %source% -o %dest%
TOC of the extracted CD
Track | Start | Length | Start sector | End sector
---------------------------------------------------------
1 | 0:00.00 | 4:37.42 | 0 | 20816
2 | 4:37.42 | 5:51.71 | 20817 | 47212
3 | 10:29.38 | 4:55.08 | 47213 | 69345
4 | 15:24.46 | 6:16.61 | 69346 | 97606
5 | 21:41.32 | 8:11.01 | 97607 | 134432
6 | 29:52.33 | 4:33.51 | 134433 | 154958
7 | 34:26.09 | 5:01.45 | 154959 | 177578
8 | 39:27.54 | 5:33.50 | 177579 | 202603
Track 1
Filename G:\POSTS\Isaac Hayes Movement - Disco Connection (1975) [2015]\01 - The First Day Of Forever.wav
Pre-gap length 0:00:02.00
Peak level 96.2 %
Extraction speed 2.2 X
Track quality 99.9 %
Test CRC 27C6429A
Copy CRC 27C6429A
Track not present in AccurateRip database
Copy OK
Track 2
Filename G:\POSTS\Isaac Hayes Movement - Disco Connection (1975) [2015]\02 - St. Thomas Square.wav
Pre-gap length 0:00:01.65
Peak level 96.2 %
Extraction speed 2.9 X
Track quality 100.0 %
Test CRC 1E4BEF78
Copy CRC 1E4BEF78
Track not present in AccurateRip database
Copy OK
Track 3
Filename G:\POSTS\Isaac Hayes Movement - Disco Connection (1975) [2015]\03 - VYKKII.wav
Pre-gap length 0:00:02.11
Peak level 82.3 %
Extraction speed 2.8 X
Track quality 99.9 %
Test CRC 5A0B7425
Copy CRC 5A0B7425
Track not present in AccurateRip database
Copy OK
Track 4
Filename G:\POSTS\Isaac Hayes Movement - Disco Connection (1975) [2015]\04 - Disco Connection.wav
Pre-gap length 0:00:00.74
Peak level 96.2 %
Extraction speed 3.2 X
Track quality 99.9 %
Test CRC 6FA12775
Copy CRC 6FA12775
Track not present in AccurateRip database
Copy OK
Track 5
Filename G:\POSTS\Isaac Hayes Movement - Disco Connection (1975) [2015]\05 - Disco Shuffle.wav
Pre-gap length 0:00:01.47
Peak level 96.2 %
Extraction speed 3.6 X
Track quality 99.9 %
Test CRC C67734C1
Copy CRC C67734C1
Track not present in AccurateRip database
Copy OK
Track 6
Filename G:\POSTS\Isaac Hayes Movement - Disco Connection (1975) [2015]\06 - Choppers.wav
Pre-gap length 0:00:02.19
Peak level 96.2 %
Extraction speed 3.9 X
Track quality 100.0 %
Test CRC F4107E47
Copy CRC F4107E47
Track not present in AccurateRip database
Copy OK
Track 7
Filename G:\POSTS\Isaac Hayes Movement - Disco Connection (1975) [2015]\07 - After Five.wav
Pre-gap length 0:00:01.58
Peak level 95.7 %
Extraction speed 4.1 X
Track quality 100.0 %
Test CRC 671B3ACB
Copy CRC 671B3ACB
Track not present in AccurateRip database
Copy OK
Track 8
Filename G:\POSTS\Isaac Hayes Movement - Disco Connection (1975) [2015]\08 - Aruba.wav
Pre-gap length 0:00:01.66
Peak level 96.1 %
Extraction speed 4.0 X
Track quality 99.9 %
Test CRC A386A810
Copy CRC A386A810
Track not present in AccurateRip database
Copy OK
None of the tracks are present in the AccurateRip database
No errors occurred
End of status report
==== Log checksum 9A1722649D8887A56BA1BEC55D37A4F925779124B9F53D67EFBFD5FDA1BF2670 ====
 
Содержание индексной карты (.CUE)
REM GENRE Disco
REM DATE 1975
REM DISCID 6F0A8D08
REM COMMENT "ExactAudioCopy v1.0b3"
PERFORMER "Isaac Hayes Movement"
TITLE "Disco Connection"
FILE "01 - The First Day Of Forever.wav" WAVE
TRACK 01 AUDIO
TITLE "The First Day Of Forever"
PERFORMER "Isaac Hayes Movement"
INDEX 01 00:00:00
TRACK 02 AUDIO
TITLE "St. Thomas Square"
PERFORMER "Isaac Hayes Movement"
INDEX 00 04:35:52
FILE "02 - St. Thomas Square.wav" WAVE
INDEX 01 00:00:00
TRACK 03 AUDIO
TITLE "Vykkii"
PERFORMER "Isaac Hayes Movement"
INDEX 00 05:49:60
FILE "03 - Vykkii.wav" WAVE
INDEX 01 00:00:00
TRACK 04 AUDIO
TITLE "Disco Connection"
PERFORMER "Isaac Hayes Movement"
INDEX 00 04:54:09
FILE "04 - Disco Connection.wav" WAVE
INDEX 01 00:00:00
TRACK 05 AUDIO
TITLE "Disco Shuffle"
PERFORMER "Isaac Hayes Movement"
INDEX 00 06:15:14
FILE "05 - Disco Shuffle.wav" WAVE
INDEX 01 00:00:00
TRACK 06 AUDIO
TITLE "Choppers"
PERFORMER "Isaac Hayes Movement"
INDEX 00 08:08:57
FILE "06 - Choppers.wav" WAVE
INDEX 01 00:00:00
TRACK 07 AUDIO
TITLE "After Five"
PERFORMER "Isaac Hayes Movement"
INDEX 00 04:31:68
FILE "07 - After Five.wav" WAVE
INDEX 01 00:00:00
TRACK 08 AUDIO
TITLE "Aruba"
PERFORMER "Isaac Hayes Movement"
INDEX 00 04:59:54
FILE "08 - Aruba.wav" WAVE
INDEX 01 00:00:00
 
Об альбоме (сборнике)
First ever CD release for this 1975 instrumental set from Isaac Hayes’ renowned backing band
Isaac Hayes has been a staple of the Ace catalogue for three decades, with all his classic albums for Stax’s Enterprise label featuring at one time or another and many still available. In recent times we have also dipped into Hayes’ later work for his Hot Buttered Soul label, starting with his “Chocolate Chip” set. We followed that last year with the debut LP by the Masqueraders. This year it’s the turn of the label’s third album to receive the digital treatment.
Issued in the name of his band, the Movement, “Disco Connection” was Hayes’ only all-instrumental LP. Its arrival in 1975 coincided with disco’s quantum leap towards becoming the pre-eminent strand of black American music – although its contents were by no means all suited to the dancefloor.
Most of the musicians who play on the record had been with Hayes since he recorded his “Hot Buttered Soul” album in 1969. Guitarists Skip Pitts and Michael Toles, keyboard man Lester Snell and drummer Willie Hall were among those who helped fashion a new kind of sound that went around the world via their contributions to the award-winning “Shaft” soundtrack.
The title track was a much bigger hit in the UK hit than the USA, where the album and single were issued simultaneously with Hayes’ vocal LP “Groove-A-Thon” and its attendant single ‘Come Live With Me’. It will be fondly remembered by a whole generation of UK club-goers who danced their socks off to it and bought enough copies to hoist the single to #10 here.
The album was deleted in 1978 when the Hot Buttered Soul label shut up shop. It was never reissued on vinyl and this is its first appearance on CD. [Tony Rounce]
Приватный:
Нет (DHT включён)
Размер:
399.90 Мб (419,329,681 байт) » файлов: 20
Участники:
0 раздают, 0 качают (0 участников всего)
Внешние участники:
7 раздают, 2 качают (9 участников всего) [ Обновить ]
Есть вопросы - пишите личное сообщение пользователю M0p94ok.
08:44
52
Нет комментариев. Ваш будет первым!