Поиск

(Soul) [CD] Tyrone Davis - Love And Touch - 2015, FLAC (tracks+.cue), lossless

(Soul) [CD] Tyrone Davis - Love And Touch - 2015, FLAC (tracks+.cue), lossless
Треклист:
Tyrone Davis - Love And Touch Жанр: Soul
Носитель: CD
Год издания: 2015
Издатель (лейбл): FTG Records
Номер по каталогу: FTG-419
Аудиокодек: FLAC (*.flac)
Тип рипа: tracks+.cue
Битрейт аудио: lossless
Продолжительность: 47:13
Rip by JET 1
Наличие сканов в содержимом раздачи: да
Треклист:
01. Give It Up (Turn It Loose) (4:22)
02. Close To You (4:10)
03. Why Is It So Hard (To Say You're Sorry) (5:35)
04. You're Too Much (3:50)
05. Put Your Trust In Me (5:03)
06. Givin' Myself To You (4:03)
07. Wrong Doers (4:57)
08. Beware, Beware (4:27)
09. Give It Up (Turn It Loose) (7" Version) (3:30)
10. Close To You (7" Version) (3:18)
11. Wrong Doers (7" Version) (3:58)
 
 
Об альбоме
Tyrone Davis’ 1976 album Love And Touch has been Expanded and on CD for the First Time Ever. Expanded with 3 Bonus Tracks.
Re-Mastered from the Original Master Tapes by Sean Brennan, at Battery Studio’s, New York. Love And Touch is the eighth solo album released by American Soul Blues artist Tyrone Davis in 1976. The album was also his debut release on Columbia Records.
Tyrone had a great seven year run at Dakar, but in 1976, he moved to Columbia Records—and the Chicago-based Leo Graham (who wrote and produced “Turning Point”) produced Love And Touch, his first Columbia album. Although Davis grew up in Mississippi, he became closely identified with Chicago soul at Dakar—and with Leo Graham’s help, he continued in that vein at Columbia. Graham did a lot to shape the sound of this album: in addition to producing Love And Touch, he wrote or co-wrote all of the material. Graham wrote “Give It Up (Turn It Loose),” “Put Your Trust In Me,” “Wrong Doers” and the ballad “Givin’ Myself To You” by himself, and he co-wrote “Why Is It So Hard (To Say You’re Sorry),” “Beware, Beware” and the energetic “You’re Too Much.” Graham also co-wrote the single “Close To You.” The 1970’s were a highly productive time for the Chicago-based soul icon, and in 1976, his Columbia period got off to an exciting start with Love And Touch.
 
 
Лог создания рипа
Exact Audio Copy V1.0 beta 3 from 29. August 2011
EAC extraction logfile from 11. November 2015, 1:07
Tyrone Davis / Love And Touch
Used drive : GENERIC CDRCB05 Adapter: 4 ID: 0
Read mode : Secure
Utilize accurate stream : Yes
Defeat audio cache : Yes
Make use of C2 pointers : No
Read offset correction : 102
Overread into Lead-In and Lead-Out : No
Fill up missing offset samples with silence : Yes
Delete leading and trailing silent blocks : No
Null samples used in CRC calculations : Yes
Used interface : Native Win32 interface for Win NT & 2000
Gap handling : Appended to previous track
Used output format : User Defined Encoder
Selected bitrate : 1024 kBit/s
Quality : High
Add ID3 tag : No
Command line compressor : C:\Program Files\FLAC\flac.exe
Additional command line options : -8 -V -T "ARTIST=%artist%" -T "TITLE=%title%" -T "ALBUM=%albumtitle%" -T "DATE=%year%" -T "TRACKNUMBER=%tracknr%" -T "GENRE=%genre%" -T "PERFORMER=%albuminterpret%" -T "COMPOSER=%composer%" %haslyrics%--tag-from-file=LYRICS="%lyricsfile%"%haslyrics% -T "ALBUMARTIST=%albumartist%" -T "DISCNUMBER=%cdnumber%" -T "TOTALDISCS=%totalcds%" -T "TOTALTRACKS=%numtracks%" -T "COMMENT=%comment%" %source% -o %dest%
TOC of the extracted CD
Track | Start | Length | Start sector | End sector
---------------------------------------------------------
1 | 0:00.00 | 4:22.04 | 0 | 19653
2 | 4:22.04 | 4:09.52 | 19654 | 38380
3 | 8:31.56 | 5:34.46 | 38381 | 63476
4 | 14:06.27 | 3:49.71 | 63477 | 80722
5 | 17:56.23 | 5:03.28 | 80723 | 103475
6 | 22:59.51 | 4:02.48 | 103476 | 121673
7 | 27:02.24 | 4:57.15 | 121674 | 143963
8 | 31:59.39 | 4:27.33 | 143964 | 164021
9 | 36:26.72 | 3:29.57 | 164022 | 179753
10 | 39:56.54 | 3:18.20 | 179754 | 194623
11 | 43:14.74 | 3:58.33 | 194624 | 212506
Track 1
Filename G:\POSTS\Tyrone Davis - Love And Touch (1976) [2015 FTG]\01 - Give It Up (Turn It Loose).wav
Pre-gap length 0:00:02.00
Peak level 98.3 %
Extraction speed 1.4 X
Track quality 100.0 %
Test CRC 85AB6A0B
Copy CRC 85AB6A0B
Accurately ripped (confidence 1) [F34BD744] (AR v2)
Copy OK
Track 2
Filename G:\POSTS\Tyrone Davis - Love And Touch (1976) [2015 FTG]\02 - Close To You.wav
Pre-gap length 0:00:01.32
Peak level 98.2 %
Extraction speed 1.5 X
Track quality 100.0 %
Test CRC 9B8CFFDC
Copy CRC 9B8CFFDC
Accurately ripped (confidence 1) [FE294D73] (AR v2)
Copy OK
Track 3
Filename G:\POSTS\Tyrone Davis - Love And Touch (1976) [2015 FTG]\03 - Why Is It So Hard (To Say You're Sorry).wav
Pre-gap length 0:00:01.32
Peak level 99.1 %
Extraction speed 1.7 X
Track quality 99.9 %
Test CRC FB427E44
Copy CRC FB427E44
Accurately ripped (confidence 1) [F4376B95] (AR v2)
Copy OK
Track 4
Filename G:\POSTS\Tyrone Davis - Love And Touch (1976) [2015 FTG]\04 - You're Too Much.wav
Pre-gap length 0:00:01.32
Peak level 99.1 %
Extraction speed 1.9 X
Track quality 100.0 %
Test CRC 92B403D9
Copy CRC 92B403D9
Accurately ripped (confidence 1) [65287AAB] (AR v2)
Copy OK
Track 5
Filename G:\POSTS\Tyrone Davis - Love And Touch (1976) [2015 FTG]\05 - Put Your Trust In Me.wav
Pre-gap length 0:00:01.32
Peak level 99.0 %
Extraction speed 2.1 X
Track quality 100.0 %
Test CRC C59F1888
Copy CRC C59F1888
Accurately ripped (confidence 1) [F9F79CA5] (AR v2)
Copy OK
Track 6
Filename G:\POSTS\Tyrone Davis - Love And Touch (1976) [2015 FTG]\06 - Givin' Myself To You.wav
Pre-gap length 0:00:01.32
Peak level 98.2 %
Extraction speed 2.1 X
Track quality 100.0 %
Test CRC E5D61324
Copy CRC E5D61324
Accurately ripped (confidence 1) [48918B7D] (AR v2)
Copy OK
Track 7
Filename G:\POSTS\Tyrone Davis - Love And Touch (1976) [2015 FTG]\07 - Wrong Doers.wav
Pre-gap length 0:00:01.32
Peak level 99.6 %
Extraction speed 2.3 X
Track quality 100.0 %
Test CRC 41F711B6
Copy CRC 41F711B6
Accurately ripped (confidence 1) [113879CC] (AR v2)
Copy OK
Track 8
Filename G:\POSTS\Tyrone Davis - Love And Touch (1976) [2015 FTG]\08 - Beware, Beware.wav
Pre-gap length 0:00:01.32
Peak level 98.2 %
Extraction speed 2.3 X
Track quality 100.0 %
Test CRC 3E8C04C4
Copy CRC 3E8C04C4
Accurately ripped (confidence 1) [A3CCEC9E] (AR v2)
Copy OK
Track 9
Filename G:\POSTS\Tyrone Davis - Love And Touch (1976) [2015 FTG]\09 - Give It Up (Turn It Loose) (7'' Version).wav
Pre-gap length 0:00:01.32
Peak level 99.2 %
Extraction speed 2.4 X
Track quality 100.0 %
Test CRC EF424D2F
Copy CRC EF424D2F
Accurately ripped (confidence 1) [DBB3C81A] (AR v2)
Copy OK
Track 10
Filename G:\POSTS\Tyrone Davis - Love And Touch (1976) [2015 FTG]\10 - Close To You (7'' Version).wav
Pre-gap length 0:00:01.32
Peak level 100.0 %
Extraction speed 2.4 X
Track quality 100.0 %
Test CRC 4E50EE94
Copy CRC 4E50EE94
Accurately ripped (confidence 1) [2CD9842B] (AR v2)
Copy OK
Track 11
Filename G:\POSTS\Tyrone Davis - Love And Touch (1976) [2015 FTG]\11 - Wrong Doers (7'' Version).wav
Pre-gap length 0:00:01.32
Peak level 100.0 %
Extraction speed 2.6 X
Track quality 100.0 %
Test CRC B5344FF2
Copy CRC B5344FF2
Accurately ripped (confidence 1) [8A8D5B0F] (AR v2)
Copy OK
All tracks accurately ripped
No errors occurred
End of status report
==== Log checksum 375D300DD8E063D17391D96FF0512DD4D541AC1A356E9C9377B6BFD4FE840C14 ====
 
Содержание индексной карты (.CUE)
REM GENRE R&B
REM DATE 1976
REM DISCID A10B110B
REM COMMENT "ExactAudioCopy v1.0b3"
PERFORMER "Tyrone Davis"
TITLE "Love And Touch"
FILE "01 - Give It Up (Turn It Loose).wav" WAVE
TRACK 01 AUDIO
TITLE "Give It Up (Turn It Loose)"
PERFORMER "Tyrone Davis"
INDEX 01 00:00:00
TRACK 02 AUDIO
TITLE "Close To You"
PERFORMER "Tyrone Davis"
INDEX 00 04:20:47
FILE "02 - Close To You.wav" WAVE
INDEX 01 00:00:00
TRACK 03 AUDIO
TITLE "Why Is It So Hard (To Say You're Sorry)"
PERFORMER "Tyrone Davis"
INDEX 00 04:08:20
FILE "03 - Why Is It So Hard (To Say You're Sorry).wav" WAVE
INDEX 01 00:00:00
TRACK 04 AUDIO
TITLE "You're Too Much"
PERFORMER "Tyrone Davis"
INDEX 00 05:33:14
FILE "04 - You're Too Much.wav" WAVE
INDEX 01 00:00:00
TRACK 05 AUDIO
TITLE "Put Your Trust In Me"
PERFORMER "Tyrone Davis"
INDEX 00 03:48:39
FILE "05 - Put Your Trust In Me.wav" WAVE
INDEX 01 00:00:00
TRACK 06 AUDIO
TITLE "Givin' Myself To You"
PERFORMER "Tyrone Davis"
INDEX 00 05:01:71
FILE "06 - Givin' Myself To You.wav" WAVE
INDEX 01 00:00:00
TRACK 07 AUDIO
TITLE "Wrong Doers"
PERFORMER "Tyrone Davis"
INDEX 00 04:01:16
FILE "07 - Wrong Doers.wav" WAVE
INDEX 01 00:00:00
TRACK 08 AUDIO
TITLE "Beware, Beware"
PERFORMER "Tyrone Davis"
INDEX 00 04:55:58
FILE "08 - Beware, Beware.wav" WAVE
INDEX 01 00:00:00
TRACK 09 AUDIO
TITLE "Give It Up (Turn It Loose) (7' Version)"
PERFORMER "Tyrone Davis"
INDEX 00 04:26:01
FILE "09 - Give It Up (Turn It Loose) (7'' Version).wav" WAVE
INDEX 01 00:00:00
TRACK 10 AUDIO
TITLE "Close To You (7' Version)"
PERFORMER "Tyrone Davis"
INDEX 00 03:28:25
FILE "10 - Close To You (7'' Version).wav" WAVE
INDEX 01 00:00:00
TRACK 11 AUDIO
TITLE "Wrong Doers (7' Version)"
PERFORMER "Tyrone Davis"
INDEX 00 03:16:63
FILE "11 - Wrong Doers (7'' Version).wav" WAVE
INDEX 01 00:00:00
Приватный:
Нет (DHT включён)
Размер:
462.56 Мб (485,028,816 байт) » файлов: 23
Участники:
0 раздают, 0 качают (0 участников всего)
Внешние участники:
2 раздают, 1 качают (3 участников всего) [ Обновить ]
No seeders - write a personal message to user M0p94ok. Нет сидеров - пишите личное сообщение пользователю M0p94ok.
08:44
81
Нет комментариев. Ваш будет первым!