Поиск

(Soul) [CD] Ronnie Dyson - Love In All Flavors / The More You Do It - 2012, FLAC (tracks+.cue), lossless

(Soul) [CD] Ronnie Dyson - Love In All Flavors / The More You Do It - 2012, FLAC (tracks+.cue), lossless
Треклист:
Ronnie Dyson - Love In All Flavors / The More You Do It Жанр: Soul
Носитель: CD
Год издания: 2012
Издатель (лейбл): Expansion Records
Номер по каталогу: EXP2CD21
Аудиокодек: FLAC (*.flac)
Тип рипа: tracks+.cue
Битрейт аудио: lossless
Продолжительность: 69:44
Rip by JET 1
Наличие сканов в содержимом раздачи: да
Треклист:
01. I Want To Be Where You Are (3:31)
02. Ain't Nothing Wrong (4:13)
03. Don't Be Afraid (3:39)
04. I Just Want To Be There (3:24)
05. No Way (4:25)
06. Sara Smile (5:05)
07. Just As You Are (3:28)
08. I Can't Believe That (3:24)
09. You're Number One (3:42)
10. A Song For You (4:54)
11. Close To You (3:02)
12. The More You Do It (The More I Like It Done To Me) (3:13)
13. You Set My Spirits Free (6:49)
14. You And Me (3:15)
15. Love Won't Let Me Wait (3:43)
16. Lovin' Feelin' (3:26)
17. Won't You Come Stay With Me (3:30)
18. Jive Talkin' (3:02)
 
 
Лог создания рипа
Exact Audio Copy V1.0 beta 3 from 29. August 2011
EAC extraction logfile from 1. November 2015, 10:41
Ronnie Dyson / Love In All Flavors + The More You Do It
Used drive : GENERIC CDRCB05 Adapter: 4 ID: 0
Read mode : Secure
Utilize accurate stream : Yes
Defeat audio cache : Yes
Make use of C2 pointers : No
Read offset correction : 102
Overread into Lead-In and Lead-Out : No
Fill up missing offset samples with silence : Yes
Delete leading and trailing silent blocks : No
Null samples used in CRC calculations : Yes
Used interface : Native Win32 interface for Win NT & 2000
Gap handling : Appended to previous track
Used output format : User Defined Encoder
Selected bitrate : 1024 kBit/s
Quality : High
Add ID3 tag : No
Command line compressor : C:\Program Files\FLAC\flac.exe
Additional command line options : -8 -V -T "ARTIST=%artist%" -T "TITLE=%title%" -T "ALBUM=%albumtitle%" -T "DATE=%year%" -T "TRACKNUMBER=%tracknr%" -T "GENRE=%genre%" -T "PERFORMER=%albuminterpret%" -T "COMPOSER=%composer%" %haslyrics%--tag-from-file=LYRICS="%lyricsfile%"%haslyrics% -T "ALBUMARTIST=%albumartist%" -T "DISCNUMBER=%cdnumber%" -T "TOTALDISCS=%totalcds%" -T "TOTALTRACKS=%numtracks%" -T "COMMENT=%comment%" %source% -o %dest%
TOC of the extracted CD
Track | Start | Length | Start sector | End sector
---------------------------------------------------------
1 | 0:00.00 | 3:31.00 | 0 | 15824
2 | 3:31.00 | 4:12.71 | 15825 | 34795
3 | 7:43.71 | 3:39.00 | 34796 | 51220
4 | 11:22.71 | 3:24.37 | 51221 | 66557
5 | 14:47.33 | 4:25.32 | 66558 | 86464
6 | 19:12.65 | 5:05.10 | 86465 | 109349
7 | 24:18.00 | 3:27.58 | 109350 | 124932
8 | 27:45.58 | 3:24.22 | 124933 | 140254
9 | 31:10.05 | 3:41.58 | 140255 | 156887
10 | 34:51.63 | 4:54.24 | 156888 | 178961
11 | 39:46.12 | 3:01.44 | 178962 | 192580
12 | 42:47.56 | 3:12.42 | 192581 | 207022
13 | 46:00.23 | 6:49.26 | 207023 | 237723
14 | 52:49.49 | 3:14.59 | 237724 | 252332
15 | 56:04.33 | 3:42.47 | 252333 | 269029
16 | 59:47.05 | 3:25.43 | 269030 | 284447
17 | 63:12.48 | 3:30.14 | 284448 | 300211
18 | 66:42.62 | 3:01.48 | 300212 | 313834
Track 1
Filename G:\POSTS\Ronnie Dyson - Love In All Flavors '77 The More You Do It '76 [2012 Expansion]\01 - I Want To Be Where You Are.wav
Pre-gap length 0:00:02.00
Peak level 100.0 %
Extraction speed 2.4 X
Track quality 100.0 %
Test CRC DEBE1E60
Copy CRC DEBE1E60
Accurately ripped (confidence 2) [F18844C8] (AR v2)
Copy OK
Track 2
Filename G:\POSTS\Ronnie Dyson - Love In All Flavors '77 The More You Do It '76 [2012 Expansion]\02 - Ain't Nothing Wrong.wav
Pre-gap length 0:00:00.04
Peak level 98.8 %
Extraction speed 2.4 X
Track quality 99.9 %
Test CRC DB311765
Copy CRC DB311765
Accurately ripped (confidence 2) [333C6474] (AR v2)
Copy OK
Track 3
Filename G:\POSTS\Ronnie Dyson - Love In All Flavors '77 The More You Do It '76 [2012 Expansion]\03 - Don't Be Afraid.wav
Pre-gap length 0:00:00.06
Peak level 98.8 %
Extraction speed 2.9 X
Track quality 100.0 %
Test CRC 87B72433
Copy CRC 87B72433
Accurately ripped (confidence 2) [A336720D] (AR v2)
Copy OK
Track 4
Filename G:\POSTS\Ronnie Dyson - Love In All Flavors '77 The More You Do It '76 [2012 Expansion]\04 - I Just Want To Be There.wav
Pre-gap length 0:00:01.44
Peak level 98.8 %
Extraction speed 2.5 X
Track quality 99.9 %
Test CRC 86F6941E
Copy CRC 86F6941E
Accurately ripped (confidence 2) [BD7C85B8] (AR v2)
Copy OK
Track 5
Filename G:\POSTS\Ronnie Dyson - Love In All Flavors '77 The More You Do It '76 [2012 Expansion]\05 - No Way.wav
Pre-gap length 0:00:00.74
Peak level 98.8 %
Extraction speed 3.3 X
Track quality 100.0 %
Test CRC D7736B4B
Copy CRC D7736B4B
Accurately ripped (confidence 2) [161A06B9] (AR v2)
Copy OK
Track 6
Filename G:\POSTS\Ronnie Dyson - Love In All Flavors '77 The More You Do It '76 [2012 Expansion]\06 - Sara Smile.wav
Pre-gap length 0:00:01.65
Peak level 98.8 %
Extraction speed 3.2 X
Track quality 99.9 %
Test CRC F0A1DFA8
Copy CRC F0A1DFA8
Accurately ripped (confidence 2) [F39BA7A8] (AR v2)
Copy OK
Track 7
Filename G:\POSTS\Ronnie Dyson - Love In All Flavors '77 The More You Do It '76 [2012 Expansion]\07 - Just As You Are.wav
Pre-gap length 0:00:00.63
Peak level 98.8 %
Extraction speed 3.5 X
Track quality 100.0 %
Test CRC 57A1DEDC
Copy CRC 57A1DEDC
Accurately ripped (confidence 2) [DFE8A7D5] (AR v2)
Copy OK
Track 8
Filename G:\POSTS\Ronnie Dyson - Love In All Flavors '77 The More You Do It '76 [2012 Expansion]\08 - I Can't Believe That.wav
Pre-gap length 0:00:01.34
Peak level 98.8 %
Extraction speed 3.7 X
Track quality 100.0 %
Test CRC DCDEBFCC
Copy CRC DCDEBFCC
Accurately ripped (confidence 2) [E8C85A0B] (AR v2)
Copy OK
Track 9
Filename G:\POSTS\Ronnie Dyson - Love In All Flavors '77 The More You Do It '76 [2012 Expansion]\09 - You're Number One.wav
Pre-gap length 0:00:00.69
Peak level 98.8 %
Extraction speed 3.3 X
Track quality 99.9 %
Test CRC CFE1C15B
Copy CRC CFE1C15B
Accurately ripped (confidence 2) [52379C2E] (AR v2)
Copy OK
Track 10
Filename G:\POSTS\Ronnie Dyson - Love In All Flavors '77 The More You Do It '76 [2012 Expansion]\10 - A Song For You.wav
Pre-gap length 0:00:01.65
Peak level 98.8 %
Extraction speed 4.1 X
Track quality 100.0 %
Test CRC 2B8038EB
Copy CRC 2B8038EB
Accurately ripped (confidence 2) [307D0C7A] (AR v2)
Copy OK
Track 11
Filename G:\POSTS\Ronnie Dyson - Love In All Flavors '77 The More You Do It '76 [2012 Expansion]\11 - Close To You.wav
Pre-gap length 0:00:01.34
Peak level 98.8 %
Extraction speed 3.3 X
Track quality 99.9 %
Test CRC 4B357730
Copy CRC 4B357730
Accurately ripped (confidence 2) [ACB3B257] (AR v2)
Copy OK
Track 12
Filename G:\POSTS\Ronnie Dyson - Love In All Flavors '77 The More You Do It '76 [2012 Expansion]\12 - The More You Do It (The More I Like It Done To Me).wav
Pre-gap length 0:00:01.46
Peak level 98.8 %
Extraction speed 3.5 X
Track quality 99.9 %
Test CRC 67A8138A
Copy CRC 67A8138A
Accurately ripped (confidence 2) [0CBE1459] (AR v2)
Copy OK
Track 13
Filename G:\POSTS\Ronnie Dyson - Love In All Flavors '77 The More You Do It '76 [2012 Expansion]\13 - You Set My Spirits Free.wav
Pre-gap length 0:00:01.46
Peak level 98.8 %
Extraction speed 4.4 X
Track quality 99.9 %
Test CRC 1FA99AF4
Copy CRC 1FA99AF4
Accurately ripped (confidence 2) [C3D4384E] (AR v2)
Copy OK
Track 14
Filename G:\POSTS\Ronnie Dyson - Love In All Flavors '77 The More You Do It '76 [2012 Expansion]\14 - You And Me.wav
Pre-gap length 0:00:00.73
Peak level 98.8 %
Extraction speed 4.5 X
Track quality 100.0 %
Test CRC AD351821
Copy CRC AD351821
Accurately ripped (confidence 2) [F8338FD8] (AR v2)
Copy OK
Track 15
Filename G:\POSTS\Ronnie Dyson - Love In All Flavors '77 The More You Do It '76 [2012 Expansion]\15 - Love Won't Let Me Wait.wav
Pre-gap length 0:00:01.52
Peak level 98.8 %
Extraction speed 4.8 X
Track quality 100.0 %
Test CRC C8EBF7D6
Copy CRC C8EBF7D6
Accurately ripped (confidence 2) [875B8ACF] (AR v2)
Copy OK
Track 16
Filename G:\POSTS\Ronnie Dyson - Love In All Flavors '77 The More You Do It '76 [2012 Expansion]\16 - Lovin' Feelin'.wav
Pre-gap length 0:00:01.33
Peak level 98.8 %
Extraction speed 4.8 X
Track quality 100.0 %
Test CRC 70BFA6F9
Copy CRC 70BFA6F9
Accurately ripped (confidence 2) [E132D61A] (AR v2)
Copy OK
Track 17
Filename G:\POSTS\Ronnie Dyson - Love In All Flavors '77 The More You Do It '76 [2012 Expansion]\17 - Won't You Come Stay With Me.wav
Pre-gap length 0:00:01.74
Peak level 98.8 %
Extraction speed 4.8 X
Track quality 100.0 %
Test CRC 9E1883B2
Copy CRC 9E1883B2
Accurately ripped (confidence 2) [6423F092] (AR v2)
Copy OK
Track 18
Filename G:\POSTS\Ronnie Dyson - Love In All Flavors '77 The More You Do It '76 [2012 Expansion]\18 - Jive Talkin'.wav
Pre-gap length 0:00:01.48
Peak level 98.8 %
Extraction speed 4.8 X
Track quality 100.0 %
Test CRC 0C99023D
Copy CRC 0C99023D
Accurately ripped (confidence 2) [34448DB1] (AR v2)
Copy OK
All tracks accurately ripped
No errors occurred
End of status report
==== Log checksum 196833A9660E8D91311B908FEDADCA2FC7E3E3E9C38C660D94BFEAD2D988CDCD ====
 
Содержание индексной карты (.CUE)
REM GENRE Funk
REM DATE 1977
REM DISCID 1F105812
REM COMMENT "ExactAudioCopy v1.0b3"
PERFORMER "Ronnie Dyson"
TITLE "Love In All Flavors + The More You Do It"
FILE "01 - I Want To Be Where You Are.wav" WAVE
TRACK 01 AUDIO
TITLE "I Want To Be Where You Are"
PERFORMER "Ronnie Dyson"
INDEX 01 00:00:00
TRACK 02 AUDIO
TITLE "Ain't Nothing Wrong"
PERFORMER "Ronnie Dyson"
INDEX 00 03:30:71
FILE "02 - Ain't Nothing Wrong.wav" WAVE
INDEX 01 00:00:00
TRACK 03 AUDIO
TITLE "Don't Be Afraid"
PERFORMER "Ronnie Dyson"
INDEX 00 04:12:65
FILE "03 - Don't Be Afraid.wav" WAVE
INDEX 01 00:00:00
TRACK 04 AUDIO
TITLE "I Just Want To Be There"
PERFORMER "Ronnie Dyson"
INDEX 00 03:37:31
FILE "04 - I Just Want To Be There.wav" WAVE
INDEX 01 00:00:00
TRACK 05 AUDIO
TITLE "No Way"
PERFORMER "Ronnie Dyson"
INDEX 00 03:23:38
FILE "05 - No Way.wav" WAVE
INDEX 01 00:00:00
TRACK 06 AUDIO
TITLE "Sara Smile"
PERFORMER "Ronnie Dyson"
INDEX 00 04:23:42
FILE "06 - Sara Smile.wav" WAVE
INDEX 01 00:00:00
TRACK 07 AUDIO
TITLE "Just As You Are"
PERFORMER "Ronnie Dyson"
INDEX 00 05:04:22
FILE "07 - Just As You Are.wav" WAVE
INDEX 01 00:00:00
TRACK 08 AUDIO
TITLE "I Can't Believe That"
PERFORMER "Ronnie Dyson"
INDEX 00 03:26:24
FILE "08 - I Can't Believe That.wav" WAVE
INDEX 01 00:00:00
TRACK 09 AUDIO
TITLE "You're Number One"
PERFORMER "Ronnie Dyson"
INDEX 00 03:23:28
FILE "09 - You're Number One.wav" WAVE
INDEX 01 00:00:00
TRACK 10 AUDIO
TITLE "A Song For You"
PERFORMER "Ronnie Dyson"
INDEX 00 03:39:68
FILE "10 - A Song For You.wav" WAVE
INDEX 01 00:00:00
TRACK 11 AUDIO
TITLE "Close To You"
PERFORMER "Ronnie Dyson"
INDEX 00 04:52:65
FILE "11 - Close To You.wav" WAVE
INDEX 01 00:00:00
TRACK 12 AUDIO
TITLE "The More You Do It (The More I Like It Done To Me)"
PERFORMER "Ronnie Dyson"
INDEX 00 02:59:73
FILE "12 - The More You Do It (The More I Like It Done To Me).wav" WAVE
INDEX 01 00:00:00
TRACK 13 AUDIO
TITLE "You Set My Spirits Free"
PERFORMER "Ronnie Dyson"
INDEX 00 03:10:71
FILE "13 - You Set My Spirits Free.wav" WAVE
INDEX 01 00:00:00
TRACK 14 AUDIO
TITLE "You And Me"
PERFORMER "Ronnie Dyson"
INDEX 00 06:48:28
FILE "14 - You And Me.wav" WAVE
INDEX 01 00:00:00
TRACK 15 AUDIO
TITLE "Love Won't Let Me Wait"
PERFORMER "Ronnie Dyson"
INDEX 00 03:13:07
FILE "15 - Love Won't Let Me Wait.wav" WAVE
INDEX 01 00:00:00
TRACK 16 AUDIO
TITLE "Lovin' Feelin'"
PERFORMER "Ronnie Dyson"
INDEX 00 03:41:14
FILE "16 - Lovin' Feelin'.wav" WAVE
INDEX 01 00:00:00
TRACK 17 AUDIO
TITLE "Won't You Come Stay With Me"
PERFORMER "Ronnie Dyson"
INDEX 00 03:23:44
FILE "17 - Won't You Come Stay With Me.wav" WAVE
INDEX 01 00:00:00
TRACK 18 AUDIO
TITLE "Jive Talkin'"
PERFORMER "Ronnie Dyson"
INDEX 00 03:28:41
FILE "18 - Jive Talkin'.wav" WAVE
INDEX 01 00:00:00
Приватный:
Нет (DHT включён)
Размер:
582.48 Мб (610,772,951 байт) » файлов: 30
Участники:
0 раздают, 0 качают (0 участников всего)
Внешние участники:
5 раздают, 1 качают (6 участников всего) [ Обновить ]
Есть вопросы - пишите личное сообщение пользователю M0p94ok.
08:47
93
Нет комментариев. Ваш будет первым!