Поиск

(Soul) [CD] The Temptations - For Lovers Only (1995) - 2002, FLAC (tracks+.cue), lossless

(Soul) [CD] The Temptations - For Lovers Only (1995) - 2002, FLAC (tracks+.cue), lossless
Треклист:
The Temptations - For Lovers Only (1995) Жанр: Soul
Носитель: CD
Год издания: 2002
Издатель (лейбл): Motown Records
Номер по каталогу: 440 016 406-2
Аудиокодек: FLAC (*.flac)
Тип рипа: tracks+.cue
Битрейт аудио: lossless
Продолжительность: 57:45
Rip by albundy
Наличие сканов в содержимом раздачи: да
Треклист:
01. Some Enchanted Evening (5:26)
02. I've Grown Accustomed To Her Face (5:49)
03. At Last (4:33)
04. Night And Day (3:54)
05. Time After Time (4:59)
06. Melvin's Interlude (1:22)
07. Life Is But A Dream (4:25)
08. What A Difference A Day Makes (6:27)
09. I'm Glad There Is You (5:16)
10. South Shell Interlude (0:59)
11. That's Why (I Love You So) (4:40)
12. For Your Love, You Send Me (Medley) (6:00)
13. Night And Day (Remix) (3:55)
 
 
Лог создания рипа
Exact Audio Copy V1.0 beta 1 from 15. November 2010
EAC extraction logfile from 10. May 2011, 20:23
The Temptations / For Lovers Only
Used drive : ATAPI iHAS424 Y Adapter: 0 ID: 3
Read mode : Secure
Utilize accurate stream : Yes
Defeat audio cache : Yes
Make use of C2 pointers : No
Read offset correction : 48
Overread into Lead-In and Lead-Out : No
Fill up missing offset samples with silence : Yes
Delete leading and trailing silent blocks : No
Null samples used in CRC calculations : Yes
Used interface : Native Win32 interface for Win NT & 2000
Gap handling : Appended to previous track
Used output format : User Defined Encoder
Selected bitrate : 768 kBit/s
Quality : High
Add ID3 tag : No
Command line compressor : C:\Program Files\Exact Audio Copy\Flac\flac.exe
Additional command line options : -8 -V -T "ARTIST=%a" -T "TITLE=%t" -T "ALBUM=%g" -T "DATE=%y" -T "TRACKNUMBER=%n" -T "TOTALTRACKS=%x" -T "GENRE=%m" -T "ALBUMARTIST=%v" -T "ALBUM ARTIST=%v" -T "COMMENT=EAC Secure Mode, Test & Copy, AccurateRip, FLAC -8" %s
TOC of the extracted CD
Track | Start | Length | Start sector | End sector
---------------------------------------------------------
1 | 0:00.00 | 5:26.10 | 0 | 24459
2 | 5:26.10 | 5:49.09 | 24460 | 50643
3 | 11:15.19 | 4:32.61 | 50644 | 71104
4 | 15:48.05 | 3:54.12 | 71105 | 88666
5 | 19:42.17 | 4:59.12 | 88667 | 111103
6 | 24:41.29 | 1:22.09 | 111104 | 117262
7 | 26:03.38 | 4:25.28 | 117263 | 137165
8 | 30:28.66 | 6:26.47 | 137166 | 166162
9 | 36:55.38 | 5:15.64 | 166163 | 189851
10 | 42:11.27 | 0:58.41 | 189852 | 194242
11 | 43:09.68 | 4:40.07 | 194243 | 215249
12 | 47:50.00 | 5:59.51 | 215250 | 242225
13 | 53:49.51 | 3:55.13 | 242226 | 259863
Track 1
Filename G:\Uploads\The Temptations - For Lovers Only (2002) [FLAC]\01 - Some Enchanted Evening.wav
Pre-gap length 0:00:02.00
Peak level 100.0 %
Extraction speed 2.7 X
Track quality 100.0 %
Test CRC D5D50BC6
Copy CRC D5D50BC6
Track not present in AccurateRip database
Copy OK
Track 2
Filename G:\Uploads\The Temptations - For Lovers Only (2002) [FLAC]\02 - I've Grown Accustomed To Her Face.wav
Peak level 100.0 %
Extraction speed 3.0 X
Track quality 100.0 %
Test CRC 46CD9923
Copy CRC 46CD9923
Track not present in AccurateRip database
Copy OK
Track 3
Filename G:\Uploads\The Temptations - For Lovers Only (2002) [FLAC]\03 - At Last.wav
Peak level 100.0 %
Extraction speed 3.2 X
Track quality 100.0 %
Test CRC 3339783C
Copy CRC 3339783C
Track not present in AccurateRip database
Copy OK
Track 4
Filename G:\Uploads\The Temptations - For Lovers Only (2002) [FLAC]\04 - Night And Day.wav
Peak level 99.4 %
Extraction speed 3.3 X
Track quality 100.0 %
Test CRC ACB5988E
Copy CRC ACB5988E
Track not present in AccurateRip database
Copy OK
Track 5
Filename G:\Uploads\The Temptations - For Lovers Only (2002) [FLAC]\05 - Time After Time.wav
Peak level 100.0 %
Extraction speed 3.6 X
Track quality 100.0 %
Test CRC 71C1060D
Copy CRC 71C1060D
Track not present in AccurateRip database
Copy OK
Track 6
Filename G:\Uploads\The Temptations - For Lovers Only (2002) [FLAC]\06 - Melvin's Interlude.wav
Peak level 53.2 %
Extraction speed 2.9 X
Track quality 100.0 %
Test CRC 4923EEF0
Copy CRC 4923EEF0
Track not present in AccurateRip database
Copy OK
Track 7
Filename G:\Uploads\The Temptations - For Lovers Only (2002) [FLAC]\07 - Life Is But A Dream.wav
Peak level 100.0 %
Extraction speed 3.8 X
Track quality 100.0 %
Test CRC AA478F2F
Copy CRC AA478F2F
Track not present in AccurateRip database
Copy OK
Track 8
Filename G:\Uploads\The Temptations - For Lovers Only (2002) [FLAC]\08 - What A Difference A Day Makes.wav
Peak level 100.0 %
Extraction speed 4.2 X
Track quality 100.0 %
Test CRC EECB9CE0
Copy CRC EECB9CE0
Track not present in AccurateRip database
Copy OK
Track 9
Filename G:\Uploads\The Temptations - For Lovers Only (2002) [FLAC]\09 - I'm Glad There Is You.wav
Peak level 100.0 %
Extraction speed 4.3 X
Track quality 100.0 %
Test CRC 7DF3FEF0
Copy CRC 7DF3FEF0
Track not present in AccurateRip database
Copy OK
Track 10
Filename G:\Uploads\The Temptations - For Lovers Only (2002) [FLAC]\10 - South Shell Interlude.wav
Peak level 92.7 %
Extraction speed 3.0 X
Track quality 100.0 %
Test CRC E0FFAF9E
Copy CRC E0FFAF9E
Track not present in AccurateRip database
Copy OK
Track 11
Filename G:\Uploads\The Temptations - For Lovers Only (2002) [FLAC]\11 - That's Why (I Love You So).wav
Peak level 100.0 %
Extraction speed 4.5 X
Track quality 100.0 %
Test CRC 3F81DE7D
Copy CRC 3F81DE7D
Track not present in AccurateRip database
Copy OK
Track 12
Filename G:\Uploads\The Temptations - For Lovers Only (2002) [FLAC]\12 - For Your Love, You Send Me (Medley).wav
Peak level 100.0 %
Extraction speed 4.8 X
Track quality 100.0 %
Test CRC D30645FF
Copy CRC D30645FF
Track not present in AccurateRip database
Copy OK
Track 13
Filename G:\Uploads\The Temptations - For Lovers Only (2002) [FLAC]\13 - Night And Day (Remix).wav
Pre-gap length 0:00:03.46
Peak level 98.8 %
Extraction speed 4.6 X
Track quality 100.0 %
Test CRC CD367718
Copy CRC CD367718
Track not present in AccurateRip database
Copy OK
None of the tracks are present in the AccurateRip database
No errors occurred
End of status report
==== Log checksum EAE7607BA423C79C710C3C2410B901889460A5EDC7036FA23CF7C68AC6C423B7 ====
 
Содержание индексной карты (.CUE)
REM GENRE Soul
REM DATE 2002
REM DISCID B20D880D
REM COMMENT "ExactAudioCopy v1.0b1"
PERFORMER "The Temptations"
TITLE "For Lovers Only"
FILE "01 - Some Enchanted Evening.wav" WAVE
TRACK 01 AUDIO
TITLE "Some Enchanted Evening"
PERFORMER "The Temptations"
INDEX 01 00:00:00
FILE "02 - I've Grown Accustomed To Her Face.wav" WAVE
TRACK 02 AUDIO
TITLE "I've Grown Accustomed To Her Face"
PERFORMER "The Temptations"
INDEX 01 00:00:00
FILE "03 - At Last.wav" WAVE
TRACK 03 AUDIO
TITLE "At Last"
PERFORMER "The Temptations"
INDEX 01 00:00:00
FILE "04 - Night And Day.wav" WAVE
TRACK 04 AUDIO
TITLE "Night And Day"
PERFORMER "The Temptations"
INDEX 01 00:00:00
FILE "05 - Time After Time.wav" WAVE
TRACK 05 AUDIO
TITLE "Time After Time"
PERFORMER "The Temptations"
INDEX 01 00:00:00
FILE "06 - Melvin's Interlude.wav" WAVE
TRACK 06 AUDIO
TITLE "Melvin's Interlude"
PERFORMER "The Temptations"
INDEX 01 00:00:00
FILE "07 - Life Is But A Dream.wav" WAVE
TRACK 07 AUDIO
TITLE "Life Is But A Dream"
PERFORMER "The Temptations"
INDEX 01 00:00:00
FILE "08 - What A Difference A Day Makes.wav" WAVE
TRACK 08 AUDIO
TITLE "What A Difference A Day Makes"
PERFORMER "The Temptations"
INDEX 01 00:00:00
FILE "09 - I'm Glad There Is You.wav" WAVE
TRACK 09 AUDIO
TITLE "I'm Glad There Is You"
PERFORMER "The Temptations"
INDEX 01 00:00:00
FILE "10 - South Shell Interlude.wav" WAVE
TRACK 10 AUDIO
TITLE "South Shell Interlude"
PERFORMER "The Temptations"
INDEX 01 00:00:00
FILE "11 - That's Why (I Love You So).wav" WAVE
TRACK 11 AUDIO
TITLE "That's Why (I Love You So)"
PERFORMER "The Temptations"
INDEX 01 00:00:00
FILE "12 - For Your Love, You Send Me (Medley).wav" WAVE
TRACK 12 AUDIO
TITLE "For Your Love, You Send Me (Medley)"
PERFORMER "The Temptations"
INDEX 01 00:00:00
TRACK 13 AUDIO
TITLE "Night And Day (Remix)"
PERFORMER "The Temptations"
INDEX 00 05:56:05
FILE "13 - Night And Day (Remix).wav" WAVE
INDEX 01 00:00:00
 
Об альбоме (сборнике)
Arguably the Temptations' best album since Truly For You dropped in 1984, For Lovers Only is not the Temptations' first album of standards. This set of classics is different than Temptations in a Mellow Mood, where they acquiesced to the material, giving relatively straight readings, and never deviated far from the songs' popular arrangements. The only things the standards on For Lovers Only have in common with the originals are the titles and the lyrics, the arrangements are completely different, and the tempos are changed. The Temptations' sing with this much enthusiasm in years.
 
Состав
Ali-Ollie Woodson - lead and background vocals
Theo Peoples - lead and background vocals
Ron Tyson - lead and background vocals
Otis Williams - lead and background vocals
Melvin Franklin - leaad and background vocals on some tracks
Ray Davis - vocals on some tracks
additional musicians
Paul Jackson,Jr. - guitar
Stevie Wonder - harmonica
Abraham Laboriel - bass
Paulinho Da Costa - percussion
Jerry Friedman - guitar
Milt Jackson - vibraphone
Johnny Britt - flugelhorn
Isias Gamboa - drum programming,keyboards,synthesizers
Приватный:
Нет (DHT включён)
Размер:
418.15 Мб (438,464,374 байт) » файлов: 27
Участники:
0 раздают, 0 качают (0 участников всего)
Внешние участники:
5 раздают, 1 качают (6 участников всего) [ Обновить ]
Есть вопросы - пишите личное сообщение пользователю M0p94ok.
10:29
107
Нет комментариев. Ваш будет первым!