Поиск

(Jazzy Blues/Funk/Soul) [CD] Merl Saunders & Jerry Garcia - Keystone Companions: The Complete 1973 Fantasy Recordings (Box Set 4 CD) - 2012, FLAC (tracks+.cue), lossless

(Jazzy Blues/Funk/Soul) [CD] Merl Saunders & Jerry Garcia - Keystone Companions: The Complete 1973 Fantasy Recordings (Box Set 4 CD) - 2012, FLAC (tracks+.cue), lossless
Треклист:
Merl Saunders & Jerry Garcia
Keystone Companions: The Complete 1973 Fantasy Recordings (Box Set 4 CD)

Жанр: Jazzy Blues/Funk/Soul
Носитель: CD
Год издания: 2012
Издатель (лейбл): Concord/Fantasy
Номер по каталогу: FAN-33796
Аудиокодек: FLAC (*.flac)
Тип рипа: tracks+.cue
Битрейт аудио: lossless
Продолжительность: 03:52:04
Источник (релизер): ruskaval
Наличие сканов в содержимом раздачи: да 
 
 
Треклисты
Disc 1 (66:33)

01. Hi-Heel Sneakers (8:14)
02. Keepers (7:54)
03. The Harder They Come (6:24)
04. It Takes A Lot To Laugh, It Takes A Train To Cry (6:22)
05. It's Too Late (She's Gone) (7:47)
06. My Funny Valentine (18:15)
07. Mystery Train (11:37)
Disc 2 (60:22)

01. I Second That Emotion (10:59)
02. Someday Baby (10:16)
03. Merl's Tune (13:35)
04. It Ain't No Use (9:36)
05. Positively 4th Street (7:46)
06. How Sweet It Is (To Be Loved By You) (8:10)
Disc 3 (61:10)

01. It Takes A Lot To Laugh, It Takes A Train To Cry (7:07)
02. Keepers (6:35)
03. One Kind Favor (6:40)
04. That's Allright Mama (4:12)
05. The Harder They Come (10:09)
06. My Funny Valentine (18:06)
07. Money Honey (8:22)
Disc 4 (43:59)

01. Someday Baby (10:15)
02. Merl's Tune (12:22)
03. Like A Road Leading Home (11:02)
04. How Sweet It Is (To Be Loved By You) (10:20)
 
Disc 1
 
Лог создания рипа
Exact Audio Copy V1.0 beta 3 from 29. August 2011
EAC extraction logfile from 5. March 2013, 11:35
Merl Saunders & Jerry Garcia / Keystone Companions The Complete 1973 Fantasy Recordings
Used drive : TSSTcorpCDDVDW SE-208DB Adapter: 0 ID: 0
Read mode : Secure
Utilize accurate stream : Yes
Defeat audio cache : Yes
Make use of C2 pointers : No
Read offset correction : 6
Overread into Lead-In and Lead-Out : No
Fill up missing offset samples with silence : Yes
Delete leading and trailing silent blocks : No
Null samples used in CRC calculations : Yes
Used interface : Native Win32 interface for Win NT & 2000
Gap handling : Appended to previous track
Used output format : User Defined Encoder
Selected bitrate : 768 kBit/s
Quality : High
Add ID3 tag : No
Command line compressor : C:\Program Files (x86)\Exact Audio Copy\FLAC\FLAC.EXE
Additional command line options : -8 -V -T "ARTIST=%artist%" -T "TITLE=%title%" -T "ALBUM=%albumtitle%" -T "DATE=%year%" -T "TRACKNUMBER=%tracknr%" -T "TOTALTRACKS=%numtracks%" -T "GENRE=%genre%" -T "ALBUMARTIST=%albumartist%" -T "ALBUM ARTIST=%albumartist%" -T "COMMENT=EAC Secure Mode, Test & Copy, AccurateRip, FLAC -8" %source%
TOC of the extracted CD
Track | Start | Length | Start sector | End sector
---------------------------------------------------------
1 | 0:00.00 | 8:14.15 | 0 | 37064
2 | 8:14.15 | 7:54.25 | 37065 | 72639
3 | 16:08.40 | 6:23.57 | 72640 | 101421
4 | 22:32.22 | 6:21.68 | 101422 | 130064
5 | 28:54.15 | 7:47.01 | 130065 | 165090
6 | 36:41.16 | 18:14.57 | 165091 | 247197
7 | 54:55.73 | 11:37.06 | 247198 | 299478
Track 1
Filename U:\RIPS\Merl Saunders & Jerry Garcia - Keystone Companions- The Complete 1973 Fantasy Recordings (2012) [FLAC] (4CD)\Disc 1of4\01 - Hi-Heel Sneakers.wav
Pre-gap length 0:00:02.00
Peak level 99.9 %
Extraction speed 1.4 X
Track quality 100.0 %
Test CRC 495A7531
Copy CRC 495A7531
Track not present in AccurateRip database
Copy OK
Track 2
Filename U:\RIPS\Merl Saunders & Jerry Garcia - Keystone Companions- The Complete 1973 Fantasy Recordings (2012) [FLAC] (4CD)\Disc 1of4\02 - Keepers.wav
Peak level 99.7 %
Extraction speed 2.2 X
Track quality 99.9 %
Test CRC 4D3A0C78
Copy CRC 4D3A0C78
Track not present in AccurateRip database
Copy OK
Track 3
Filename U:\RIPS\Merl Saunders & Jerry Garcia - Keystone Companions- The Complete 1973 Fantasy Recordings (2012) [FLAC] (4CD)\Disc 1of4\03 - The Harder They Come.wav
Peak level 100.0 %
Extraction speed 1.7 X
Track quality 99.9 %
Test CRC E34FD5CC
Copy CRC E34FD5CC
Track not present in AccurateRip database
Copy OK
Track 4
Filename U:\RIPS\Merl Saunders & Jerry Garcia - Keystone Companions- The Complete 1973 Fantasy Recordings (2012) [FLAC] (4CD)\Disc 1of4\04 - It Takes A Lot To Laugh, It Takes A Train To Cry.wav
Peak level 99.7 %
Extraction speed 2.0 X
Track quality 100.0 %
Test CRC 849D15B8
Copy CRC 849D15B8
Track not present in AccurateRip database
Copy OK
Track 5
Filename U:\RIPS\Merl Saunders & Jerry Garcia - Keystone Companions- The Complete 1973 Fantasy Recordings (2012) [FLAC] (4CD)\Disc 1of4\05 - It's Too Late (She's Gone).wav
Peak level 99.7 %
Extraction speed 2.1 X
Track quality 100.0 %
Test CRC 0014941F
Copy CRC 0014941F
Track not present in AccurateRip database
Copy OK
Track 6
Filename U:\RIPS\Merl Saunders & Jerry Garcia - Keystone Companions- The Complete 1973 Fantasy Recordings (2012) [FLAC] (4CD)\Disc 1of4\06 - My Funny Valentine.wav
Peak level 99.7 %
Extraction speed 2.5 X
Track quality 100.0 %
Test CRC 728DD494
Copy CRC 728DD494
Track not present in AccurateRip database
Copy OK
Track 7
Filename U:\RIPS\Merl Saunders & Jerry Garcia - Keystone Companions- The Complete 1973 Fantasy Recordings (2012) [FLAC] (4CD)\Disc 1of4\07 - Mystery Train.wav
Peak level 99.7 %
Extraction speed 2.7 X
Track quality 100.0 %
Test CRC AD0850EC
Copy CRC AD0850EC
Track not present in AccurateRip database
Copy OK
None of the tracks are present in the AccurateRip database
No errors occurred
End of status report
==== Log checksum 6715BE31D0E0B77FA0E6DAB9F003483A37FEE1E39B3FEBC769289EB8C0801053 ====
 
Содержание индексной карты (.CUE)
REM GENRE Rock
REM DATE 2012
REM DISCID 5F0F9907
REM COMMENT "ExactAudioCopy v1.0b3"
PERFORMER "Merl Saunders & Jerry Garcia"
TITLE "Keystone Companions: The Complete 1973 Fantasy Recordings (disc 1)"
FILE "01 - Hi-Heel Sneakers.flac" WAVE
TRACK 01 AUDIO
TITLE "Hi-Heel Sneakers"
PERFORMER "Merl Saunders & Jerry Garcia"
FLAGS DCP
INDEX 01 00:00:00
FILE "02 - Keepers.flac" WAVE
TRACK 02 AUDIO
TITLE "Keepers"
PERFORMER "Merl Saunders & Jerry Garcia"
FLAGS DCP
INDEX 01 00:00:00
FILE "03 - The Harder They Come.flac" WAVE
TRACK 03 AUDIO
TITLE "The Harder They Come"
PERFORMER "Merl Saunders & Jerry Garcia"
FLAGS DCP
INDEX 01 00:00:00
FILE "04 - It Takes A Lot To Laugh, It Takes A Train To Cry.flac" WAVE
TRACK 04 AUDIO
TITLE "It Takes A Lot To Laugh, It Takes A Train To Cry"
PERFORMER "Merl Saunders & Jerry Garcia"
FLAGS DCP
INDEX 01 00:00:00
FILE "05 - It's Too Late (She's Gone).flac" WAVE
TRACK 05 AUDIO
TITLE "It's Too Late (She's Gone)"
PERFORMER "Merl Saunders & Jerry Garcia"
FLAGS DCP
INDEX 01 00:00:00
FILE "06 - My Funny Valentine.flac" WAVE
TRACK 06 AUDIO
TITLE "My Funny Valentine"
PERFORMER "Merl Saunders & Jerry Garcia"
FLAGS DCP
INDEX 01 00:00:00
FILE "07 - Mystery Train.flac" WAVE
TRACK 07 AUDIO
TITLE "Mystery Train"
PERFORMER "Merl Saunders & Jerry Garcia"
FLAGS DCP
INDEX 01 00:00:00
 
Disc 2
 
Лог создания рипа
Exact Audio Copy V1.0 beta 3 from 29. August 2011
EAC extraction logfile from 5. March 2013, 12:43
Merl Saunders & Jerry Garcia / Keystone Companions- The Complete 1973 Fantasy Recordings Disc 2
Used drive : TSSTcorpCDDVDW SE-208DB Adapter: 0 ID: 0
Read mode : Secure
Utilize accurate stream : Yes
Defeat audio cache : Yes
Make use of C2 pointers : No
Read offset correction : 6
Overread into Lead-In and Lead-Out : No
Fill up missing offset samples with silence : Yes
Delete leading and trailing silent blocks : No
Null samples used in CRC calculations : Yes
Used interface : Native Win32 interface for Win NT & 2000
Gap handling : Appended to previous track
Used output format : User Defined Encoder
Selected bitrate : 768 kBit/s
Quality : High
Add ID3 tag : No
Command line compressor : C:\Program Files (x86)\Exact Audio Copy\FLAC\FLAC.EXE
Additional command line options : -8 -V -T "ARTIST=%artist%" -T "TITLE=%title%" -T "ALBUM=%albumtitle%" -T "DATE=%year%" -T "TRACKNUMBER=%tracknr%" -T "TOTALTRACKS=%numtracks%" -T "GENRE=%genre%" -T "ALBUMARTIST=%albumartist%" -T "ALBUM ARTIST=%albumartist%" -T "COMMENT=EAC Secure Mode, Test & Copy, AccurateRip, FLAC -8" %source%
TOC of the extracted CD
Track | Start | Length | Start sector | End sector
---------------------------------------------------------
1 | 0:00.00 | 10:59.22 | 0 | 49446
2 | 10:59.22 | 10:15.57 | 49447 | 95628
3 | 21:15.04 | 13:34.66 | 95629 | 156744
4 | 34:49.70 | 9:36.14 | 156745 | 199958
5 | 44:26.09 | 7:45.61 | 199959 | 234894
6 | 52:11.70 | 8:09.68 | 234895 | 271637
Track 1
Filename U:\RIPS\Merl Saunders & Jerry Garcia - Keystone Companions- The Complete 1973 Fantasy Recordings (2012) [FLAC] (4CD)\Disc 2of4\01 - I Second That Emotion.wav
Pre-gap length 0:00:02.00
Peak level 99.7 %
Extraction speed 1.5 X
Track quality 100.0 %
Test CRC 5EEF92B1
Copy CRC 5EEF92B1
Track not present in AccurateRip database
Copy OK
Track 2
Filename U:\RIPS\Merl Saunders & Jerry Garcia - Keystone Companions- The Complete 1973 Fantasy Recordings (2012) [FLAC] (4CD)\Disc 2of4\02 - Someday Baby.wav
Peak level 99.7 %
Extraction speed 1.8 X
Track quality 100.0 %
Test CRC 84F98E5F
Copy CRC 84F98E5F
Track not present in AccurateRip database
Copy OK
Track 3
Filename U:\RIPS\Merl Saunders & Jerry Garcia - Keystone Companions- The Complete 1973 Fantasy Recordings (2012) [FLAC] (4CD)\Disc 2of4\03 - Merl's Tune.wav
Peak level 84.1 %
Extraction speed 2.1 X
Track quality 100.0 %
Test CRC C9024598
Copy CRC C9024598
Track not present in AccurateRip database
Copy OK
Track 4
Filename U:\RIPS\Merl Saunders & Jerry Garcia - Keystone Companions- The Complete 1973 Fantasy Recordings (2012) [FLAC] (4CD)\Disc 2of4\04 - It Ain't No Use.wav
Peak level 79.3 %
Extraction speed 2.3 X
Track quality 100.0 %
Test CRC 560DE482
Copy CRC 560DE482
Track not present in AccurateRip database
Copy OK
Track 5
Filename U:\RIPS\Merl Saunders & Jerry Garcia - Keystone Companions- The Complete 1973 Fantasy Recordings (2012) [FLAC] (4CD)\Disc 2of4\05 - Positively 4th Street.wav
Peak level 99.3 %
Extraction speed 2.4 X
Track quality 100.0 %
Test CRC 74B35B22
Copy CRC 74B35B22
Track not present in AccurateRip database
Copy OK
Track 6
Filename U:\RIPS\Merl Saunders & Jerry Garcia - Keystone Companions- The Complete 1973 Fantasy Recordings (2012) [FLAC] (4CD)\Disc 2of4\06 - How Sweet It Is (To Be Loved By You).wav
Peak level 99.7 %
Extraction speed 2.6 X
Track quality 100.0 %
Test CRC 88DCA329
Copy CRC 88DCA329
Track not present in AccurateRip database
Copy OK
None of the tracks are present in the AccurateRip database
No errors occurred
End of status report
==== Log checksum 2FD6D2EC9D47C0F7F7E8FBF63F78FF2494178E81213B269ADD696455494EDC76 ====
 
Содержание индексной карты (.CUE)
REM GENRE Rock
REM DATE 2012
REM DISCID 4C0E2506
REM COMMENT "ExactAudioCopy v1.0b3"
PERFORMER "Merl Saunders & Jerry Garcia"
TITLE "Keystone Companions: The Complete 1973 Fantasy Recordings (disc 2)"
FILE "01 - I Second That Emotion.flac" WAVE
TRACK 01 AUDIO
TITLE "I Second That Emotion"
PERFORMER "Merl Saunders & Jerry Garcia"
FLAGS DCP
INDEX 01 00:00:00
FILE "02 - Someday Baby.flac" WAVE
TRACK 02 AUDIO
TITLE "Someday Baby"
PERFORMER "Merl Saunders & Jerry Garcia"
FLAGS DCP
INDEX 01 00:00:00
FILE "03 - Merl's Tune.flac" WAVE
TRACK 03 AUDIO
TITLE "Merl's Tune"
PERFORMER "Merl Saunders & Jerry Garcia"
FLAGS DCP
INDEX 01 00:00:00
FILE "04 - It Ain't No Use.flac" WAVE
TRACK 04 AUDIO
TITLE "It Ain't No Use"
PERFORMER "Merl Saunders & Jerry Garcia"
FLAGS DCP
INDEX 01 00:00:00
FILE "05 - Positively 4th Street.flac" WAVE
TRACK 05 AUDIO
TITLE "Positively 4th Street"
PERFORMER "Merl Saunders & Jerry Garcia"
FLAGS DCP
INDEX 01 00:00:00
FILE "06 - How Sweet It Is (To Be Loved By You).flac" WAVE
TRACK 06 AUDIO
TITLE "How Sweet It Is (To Be Loved By You)"
PERFORMER "Merl Saunders & Jerry Garcia"
FLAGS DCP
INDEX 01 00:00:00
 
Disc 3
 
Лог создания рипа
Exact Audio Copy V1.0 beta 3 from 29. August 2011
EAC extraction logfile from 5. March 2013, 13:59
Keystone Companions- The Complete 1973 Fantasy Recordings Disc 3 / Merl Saunders & Jerry Garcia
Used drive : TSSTcorpCDDVDW SE-208DB Adapter: 0 ID: 0
Read mode : Secure
Utilize accurate stream : Yes
Defeat audio cache : Yes
Make use of C2 pointers : No
Read offset correction : 6
Overread into Lead-In and Lead-Out : No
Fill up missing offset samples with silence : Yes
Delete leading and trailing silent blocks : No
Null samples used in CRC calculations : Yes
Used interface : Native Win32 interface for Win NT & 2000
Gap handling : Appended to previous track
Used output format : User Defined Encoder
Selected bitrate : 768 kBit/s
Quality : High
Add ID3 tag : No
Command line compressor : C:\Program Files (x86)\Exact Audio Copy\FLAC\FLAC.EXE
Additional command line options : -8 -V -T "ARTIST=%artist%" -T "TITLE=%title%" -T "ALBUM=%albumtitle%" -T "DATE=%year%" -T "TRACKNUMBER=%tracknr%" -T "TOTALTRACKS=%numtracks%" -T "GENRE=%genre%" -T "ALBUMARTIST=%albumartist%" -T "ALBUM ARTIST=%albumartist%" -T "COMMENT=EAC Secure Mode, Test & Copy, AccurateRip, FLAC -8" %source%
TOC of the extracted CD
Track | Start | Length | Start sector | End sector
---------------------------------------------------------
1 | 0:00.00 | 7:06.68 | 0 | 32017
2 | 7:06.68 | 6:34.53 | 32018 | 61620
3 | 13:41.46 | 6:39.49 | 61621 | 91594
4 | 20:21.20 | 4:11.54 | 91595 | 110473
5 | 24:32.74 | 10:09.23 | 110474 | 156171
6 | 34:42.22 | 18:05.65 | 156172 | 237611
7 | 52:48.12 | 8:21.46 | 237612 | 275232
Track 1
Filename U:\RIPS\Merl Saunders & Jerry Garcia - Keystone Companions- The Complete 1973 Fantasy Recordings (2012) [FLAC] (4CD)\Disc 3of4\01 - It Takes A Lot To Laugh, It Takes A train To Cry.wav
Pre-gap length 0:00:02.00
Peak level 99.7 %
Extraction speed 1.3 X
Track quality 99.9 %
Test CRC A14FBF42
Copy CRC A14FBF42
Track not present in AccurateRip database
Copy OK
Track 2
Filename U:\RIPS\Merl Saunders & Jerry Garcia - Keystone Companions- The Complete 1973 Fantasy Recordings (2012) [FLAC] (4CD)\Disc 3of4\02 - Keepers.wav
Peak level 99.7 %
Extraction speed 1.5 X
Track quality 99.9 %
Test CRC 03A9BABD
Copy CRC 03A9BABD
Track not present in AccurateRip database
Copy OK
Track 3
Filename U:\RIPS\Merl Saunders & Jerry Garcia - Keystone Companions- The Complete 1973 Fantasy Recordings (2012) [FLAC] (4CD)\Disc 3of4\03 - One Kind Favor.wav
Peak level 99.7 %
Extraction speed 1.8 X
Track quality 100.0 %
Test CRC 9AF9D2F7
Copy CRC 9AF9D2F7
Track not present in AccurateRip database
Copy OK
Track 4
Filename U:\RIPS\Merl Saunders & Jerry Garcia - Keystone Companions- The Complete 1973 Fantasy Recordings (2012) [FLAC] (4CD)\Disc 3of4\04 - That's Allright Mama.wav
Peak level 99.7 %
Extraction speed 1.8 X
Track quality 100.0 %
Test CRC FEBD47FF
Copy CRC FEBD47FF
Track not present in AccurateRip database
Copy OK
Track 5
Filename U:\RIPS\Merl Saunders & Jerry Garcia - Keystone Companions- The Complete 1973 Fantasy Recordings (2012) [FLAC] (4CD)\Disc 3of4\05 - The Harder They Come.wav
Peak level 99.7 %
Extraction speed 2.1 X
Track quality 100.0 %
Test CRC AEE0E797
Copy CRC AEE0E797
Track not present in AccurateRip database
Copy OK
Track 6
Filename U:\RIPS\Merl Saunders & Jerry Garcia - Keystone Companions- The Complete 1973 Fantasy Recordings (2012) [FLAC] (4CD)\Disc 3of4\06 - My Funny Valentine.wav
Peak level 99.7 %
Extraction speed 2.5 X
Track quality 100.0 %
Test CRC E71A5D6B
Copy CRC E71A5D6B
Track not present in AccurateRip database
Copy OK
Track 7
Filename U:\RIPS\Merl Saunders & Jerry Garcia - Keystone Companions- The Complete 1973 Fantasy Recordings (2012) [FLAC] (4CD)\Disc 3of4\07 - Money Honey.wav
Peak level 99.7 %
Extraction speed 2.6 X
Track quality 100.0 %
Test CRC 6CA86F74
Copy CRC 6CA86F74
Track not present in AccurateRip database
Copy OK
None of the tracks are present in the AccurateRip database
No errors occurred
End of status report
==== Log checksum 853B16A66574A4C0A3AAFFDF418CB30B72E32EDC139AC9A290D7BD0FB793BCB0 ====
 
Содержание индексной карты (.CUE)
REM GENRE Rock
REM DATE 2012
REM DISCID 4E0E5507
REM COMMENT "ExactAudioCopy v1.0b3"
PERFORMER "Merl Saunders & Jerry Garcia"
TITLE "Keystone Companions: The Complete 1973 Fantasy Recordings (disc 3)"
FILE "01 - It Takes A Lot To Laugh, It Takes A Train To Cry.flac" WAVE
TRACK 01 AUDIO
TITLE "It Takes A Lot To Laugh, It Takes A Train To Cry"
PERFORMER "Merl Saunders & Jerry Garcia"
FLAGS DCP
INDEX 01 00:00:00
FILE "02 - Keepers.flac" WAVE
TRACK 02 AUDIO
TITLE "Keepers"
PERFORMER "Merl Saunders & Jerry Garcia"
FLAGS DCP
INDEX 01 00:00:00
FILE "03 - One Kind Favor.flac" WAVE
TRACK 03 AUDIO
TITLE "One Kind Favor"
PERFORMER "Merl Saunders & Jerry Garcia"
FLAGS DCP
INDEX 01 00:00:00
FILE "04 - That's Allright Mama.flac" WAVE
TRACK 04 AUDIO
TITLE "That's Allright Mama"
PERFORMER "Merl Saunders & Jerry Garcia"
FLAGS DCP
INDEX 01 00:00:00
FILE "05 - The Harder They Come.flac" WAVE
TRACK 05 AUDIO
TITLE "The Harder They Come"
PERFORMER "Merl Saunders & Jerry Garcia"
FLAGS DCP
INDEX 01 00:00:00
FILE "06 - My Funny Valentine.flac" WAVE
TRACK 06 AUDIO
TITLE "My Funny Valentine"
PERFORMER "Merl Saunders & Jerry Garcia"
FLAGS DCP
INDEX 01 00:00:00
FILE "07 - Money Honey.flac" WAVE
TRACK 07 AUDIO
TITLE "Money Honey"
PERFORMER "Merl Saunders & Jerry Garcia"
FLAGS DCP
INDEX 01 00:00:00
 
Disc 4
 
Лог создания рипа
Exact Audio Copy V1.0 beta 3 from 29. August 2011
EAC extraction logfile from 5. March 2013, 14:56
Keystone Companions- The Complete 1973 Fantasy Recordings Disc 4 / Merl Saunders & Jerry Garcia
Used drive : TSSTcorpCDDVDW SE-208DB Adapter: 0 ID: 0
Read mode : Secure
Utilize accurate stream : Yes
Defeat audio cache : Yes
Make use of C2 pointers : No
Read offset correction : 6
Overread into Lead-In and Lead-Out : No
Fill up missing offset samples with silence : Yes
Delete leading and trailing silent blocks : No
Null samples used in CRC calculations : Yes
Used interface : Native Win32 interface for Win NT & 2000
Gap handling : Appended to previous track
Used output format : User Defined Encoder
Selected bitrate : 768 kBit/s
Quality : High
Add ID3 tag : No
Command line compressor : C:\Program Files (x86)\Exact Audio Copy\FLAC\FLAC.EXE
Additional command line options : -8 -V -T "ARTIST=%artist%" -T "TITLE=%title%" -T "ALBUM=%albumtitle%" -T "DATE=%year%" -T "TRACKNUMBER=%tracknr%" -T "TOTALTRACKS=%numtracks%" -T "GENRE=%genre%" -T "ALBUMARTIST=%albumartist%" -T "ALBUM ARTIST=%albumartist%" -T "COMMENT=EAC Secure Mode, Test & Copy, AccurateRip, FLAC -8" %source%
TOC of the extracted CD
Track | Start | Length | Start sector | End sector
---------------------------------------------------------
1 | 0:00.00 | 10:15.10 | 0 | 46134
2 | 10:15.10 | 12:21.64 | 46135 | 101773
3 | 22:36.74 | 11:02.15 | 101774 | 151438
4 | 33:39.14 | 10:20.08 | 151439 | 197946
Track 1
Filename U:\RIPS\Merl Saunders & Jerry Garcia - Keystone Companions- The Complete 1973 Fantasy Recordings (2012) [FLAC] (4CD)\Disc 4of4\01 - Someday Baby.wav
Pre-gap length 0:00:02.00
Peak level 99.7 %
Extraction speed 1.5 X
Track quality 100.0 %
Test CRC 93B3C5B9
Copy CRC 93B3C5B9
Track not present in AccurateRip database
Copy OK
Track 2
Filename U:\RIPS\Merl Saunders & Jerry Garcia - Keystone Companions- The Complete 1973 Fantasy Recordings (2012) [FLAC] (4CD)\Disc 4of4\02 - Merl's Tune.wav
Peak level 98.6 %
Extraction speed 1.8 X
Track quality 100.0 %
Test CRC DEE53EDA
Copy CRC DEE53EDA
Track not present in AccurateRip database
Copy OK
Track 3
Filename U:\RIPS\Merl Saunders & Jerry Garcia - Keystone Companions- The Complete 1973 Fantasy Recordings (2012) [FLAC] (4CD)\Disc 4of4\03 - Like A Road Leading Home.wav
Peak level 99.7 %
Extraction speed 2.1 X
Track quality 100.0 %
Test CRC 1D89942E
Copy CRC 1D89942E
Track not present in AccurateRip database
Copy OK
Track 4
Filename U:\RIPS\Merl Saunders & Jerry Garcia - Keystone Companions- The Complete 1973 Fantasy Recordings (2012) [FLAC] (4CD)\Disc 4of4\04 - How Sweet It Is (To Be Loved By You).wav
Peak level 99.7 %
Extraction speed 2.3 X
Track quality 100.0 %
Test CRC C7D7812D
Copy CRC C7D7812D
Track not present in AccurateRip database
Copy OK
None of the tracks are present in the AccurateRip database
No errors occurred
End of status report
==== Log checksum FFD2E5747676DD48A1187B9881EC532E6595626DA3E422BF05CCB4FD9FC3A466 ====
 
Содержание индексной карты (.CUE)
REM GENRE Rock
REM DATE 2012
REM DISCID 260A4F04
REM COMMENT "ExactAudioCopy v1.0b3"
PERFORMER "Merl Saunders & Jerry Garcia"
TITLE "Keystone Companions: The Complete 1973 Fantasy Recordings (disc 4)"
FILE "01 - Someday Baby.flac" WAVE
TRACK 01 AUDIO
TITLE "Someday Baby"
PERFORMER "Merl Saunders & Jerry Garcia"
FLAGS DCP
INDEX 01 00:00:00
FILE "02 - Merl's Tune.flac" WAVE
TRACK 02 AUDIO
TITLE "Merl's Tune"
PERFORMER "Merl Saunders & Jerry Garcia"
FLAGS DCP
INDEX 01 00:00:00
FILE "03 - Like A Road Leading Home.flac" WAVE
TRACK 03 AUDIO
TITLE "Like A Road Leading Home"
PERFORMER "Merl Saunders & Jerry Garcia"
FLAGS DCP
INDEX 01 00:00:00
FILE "04 - How Sweet It Is (To Be Loved By You).flac" WAVE
TRACK 04 AUDIO
TITLE "How Sweet It Is (To Be Loved By You)"
PERFORMER "Merl Saunders & Jerry Garcia"
FLAGS DCP
INDEX 01 00:00:00
Приватный:
Нет (DHT включён)
Размер:
1.78 Гб (1,906,717,189 байт) » файлов: 102
Участники:
0 раздают, 0 качают (0 участников всего)
Внешние участники:
5 раздают, 2 качают (7 участников всего) [ Обновить ]
Есть вопросы - пишите личное сообщение пользователю M0p94ok.
10:28
52
Нет комментариев. Ваш будет первым!