Поиск

(funk, soul) [CD] Dumpstaphunk (Ivan Neville) - Listen Hear - 2011, FLAC (tracks+.cue), lossless

(funk, soul) [CD] Dumpstaphunk (Ivan Neville) - Listen Hear - 2011, FLAC (tracks+.cue), lossless
Треклист:
Dumpstaphunk / Listen Hear
Жанр: Funk, R&B
Носитель: CD
Страна-производитель диска (релиза): USA
Год издания: 2011
Издатель (лейбл): Controlled Substance
Номер по каталогу: 837101338929
Страна исполнителя (группы): USA
Аудиокодек: FLAC (*.flac)
Тип рипа: tracks+.cue
Битрейт аудио: lossless
Продолжительность: 26:55
Источник (релизер): CD
Наличие сканов в содержимом раздачи: да
Треклист:
01 Livin Ina Worl Gone Mad (05:50)
02 Turn This Thing Around (04:48)
03 Stinky (06:19)
04 Meanwhile (03:59)
05 Shake It Off (05:57)
 
Лог создания рипа
Exact Audio Copy V1.0 beta 2 from 29. April 2011
Отчёт EAC об извлечении, выполненном 31. марта 2016, 18:13
Dumpstaphunk / Listen Hear
Дисковод: PLEXTOR BDDVDRPX-B330SA Adapter: 0 ID: 1
Режим чтения : Достоверность
Использование точного потока : Да
Отключение кэша аудио : Да
Использование указателей C2 : Нет
Коррекция смещения при чтении : 702
Способность читать области Lead-in и Lead-out : Нет
Заполнение пропущенных сэмплов тишиной : Да
Удаление блоков с тишиной в начале и конце : Нет
При вычислениях CRC использовались нулевые сэмплы : Да
Интерфейс : Встроенный Win32-интерфейс для Win NT/2000
Обработка зазоров : Добавлено к предыдущему треку
Выходной формат : Пользовательский кодировщик
Выбранный битрейт : 128 kBit/s
Качество : Высокий
Добавление ID3-тега : Нет
Утилита сжатия : C:\Program Files\Exact Audio Copy\FLAC\FLAC.EXE
Дополнительные параметры : -6 -V -T "ARTIST=%artist%" -T "TITLE=%title%" -T "ALBUM=%albumtitle%" -T "DATE=%year%" -T "TRACKNUMBER=%tracknr%" -T "GENRE=%genre%" -T "COMMENT=%comment%" -T "BAND=%albuminterpret%" -T "COMPOSER=%composer%" %haslyrics%--tag-from-
TOC извлечённого CD
Трек | Старт | Длительность | Начальный сектор | Конечный сектор
---------------------------------------------------------------------
1 | 0:00.00 | 5:50.41 | 0 | 26290
2 | 5:50.41 | 4:48.05 | 26291 | 47895
3 | 10:38.46 | 6:19.66 | 47896 | 76386
4 | 16:58.37 | 3:59.50 | 76387 | 94361
5 | 20:58.12 | 5:57.17 | 94362 | 121153
Трек 1
Имя файла D:\FLAC\01 Livin Ina Worl Gone Mad.wav
Длина предзазора 0:00:02.00
Пиковый уровень 100.0 %
Скорость извлечения 5.9 X
Качество трека 100.0 %
CRC теста 688CA19D
CRC копии 688CA19D
Точность не определена (достоверность 6) [3A63D944], AccurateRip вернул [74602C5E] (AR v2)
Копирование... OK
Трек 2
Имя файла D:\FLAC\02 Turn This Thing Around.wav
Пиковый уровень 100.0 %
Скорость извлечения 6.5 X
Качество трека 100.0 %
CRC теста 045C62F8
CRC копии 045C62F8
Точность не определена (достоверность 6) [CBF6C540], AccurateRip вернул [9BE9A1BD] (AR v2)
Копирование... OK
Трек 3
Имя файла D:\FLAC\03 Stinky.wav
Пиковый уровень 100.0 %
Скорость извлечения 7.3 X
Качество трека 100.0 %
CRC теста 8396B0B6
CRC копии 8396B0B6
Точность не определена (достоверность 6) [0C594658], AccurateRip вернул [E81C8E4D] (AR v2)
Копирование... OK
Трек 4
Имя файла D:\FLAC\04 Meanwhile.wav
Пиковый уровень 100.0 %
Скорость извлечения 6.6 X
Качество трека 99.9 %
CRC теста DDA0BE44
CRC копии DDA0BE44
Точность не определена (достоверность 6) [6C49679D], AccurateRip вернул [BE1ABDA3] (AR v2)
Копирование... OK
Трек 5
Имя файла D:\FLAC\05 Shake It Off.wav
Пиковый уровень 100.0 %
Скорость извлечения 7.4 X
Качество трека 99.9 %
CRC теста 99D1D998
CRC копии 99D1D998
Точность не определена (достоверность 6) [0D414579], AccurateRip вернул [3AC1B5D3] (AR v2)
Копирование... OK
Ни один трек не прошёл проверки на точность
В вашей базе может быть иной вариант штамповки диска
Ошибок не произошло
Конец отчёта
---- CUETools DB Plugin V2.1.4
[CTDB TOCID: tJW.VnEHvTFv2YiQwmyEnV.k554-] found
Submit result: tJW.VnEHvTFv2YiQwmyEnV.k554- has been confirmed
Track | CTDB Status
1 | (8/8) Accurately ripped
2 | (8/8) Accurately ripped
3 | (8/8) Accurately ripped
4 | (8/8) Accurately ripped
5 | (8/8) Accurately ripped
==== Контрольная сумма отчёта FC95B902ED3626F6B30962A98B43CEBB13E793651FC51E8045CFAD5A2D8A909B ====
 
Содержание индексной карты (.CUE)
REM GENRE Funk
REM DATE 2007
REM DISCID 22064F05
REM COMMENT "ExactAudioCopy v1.0b2"
PERFORMER "Dumpstaphunk"
TITLE "Listen Hear"
FILE "01 Livin Ina Worl Gone Mad.wav" WAVE
TRACK 01 AUDIO
TITLE "Livin Ina Worl Gone Mad"
PERFORMER "Dumpstaphunk"
ISRC 000000000000
INDEX 01 00:00:00
FILE "02 Turn This Thing Around.wav" WAVE
TRACK 02 AUDIO
TITLE "Turn This Thing Around"
PERFORMER "Dumpstaphunk"
ISRC 000000000000
INDEX 01 00:00:00
FILE "03 Stinky.wav" WAVE
TRACK 03 AUDIO
TITLE "Stinky"
PERFORMER "Dumpstaphunk"
ISRC 000000000000
INDEX 01 00:00:00
FILE "04 Meanwhile.wav" WAVE
TRACK 04 AUDIO
TITLE "Meanwhile"
PERFORMER "Dumpstaphunk"
ISRC 000000000000
INDEX 01 00:00:00
FILE "05 Shake It Off.wav" WAVE
TRACK 05 AUDIO
TITLE "Shake It Off"
PERFORMER "Dumpstaphunk"
ISRC 000000000000
INDEX 01 00:00:00
https://www.discogs.com/Dumpstaphunk-Listen-Hear/release/8667339
Состав
Ivan Neville's Dumpstaphunk
Приватный:
Нет (DHT включён)
Размер:
194.64 Мб (204,098,365 байт) » файлов: 16
Участники:
0 раздают, 0 качают (0 участников всего)
Внешние участники:
3 раздают, 1 качают (4 участников всего) [ Обновить ]
Есть вопросы - пишите личное сообщение пользователю M0p94ok.
10:27
50
Нет комментариев. Ваш будет первым!