Поиск

(Neo Soul, Funk) [WEB] Mayer Hawthorne - Man About Town - 2016, FLAC (tracks), lossless

(Neo Soul, Funk) [WEB] Mayer Hawthorne - Man About Town - 2016, FLAC (tracks), lossless
Треклист:
Mayer Hawthorne / Man About Town
Жанр: Neo Soul, Funk
Носитель: WEB
Год издания: 2016
Издатель (лейбл): BMG Rights Management
Страна исполнителя (группы): US
Аудиокодек: FLAC (*.flac)
Тип рипа: tracks
Битрейт аудио: lossless
Продолжительность: 00:33:58
Источник (релизер): сетевой торрент
Наличие сканов в содержимом раздачи: нет
Треклист:
01. Man About Town (0:42)
02. Cosmic Love (3:14)
03. Book Of Broken Hearts (3:34)
04. Breakfast In Bed (4:07)
05. Lingerie & Candlewax (3:38)
06. Fancy Clothes (4:11)
07. The Valley (3:37)
08. Love Like That (4:06)
09. Get You Back (3:36)
10. Out Of Pocket (3:23)
 
Лог проверки качества
-----------------------
DON'T MODIFY THIS FILE
-----------------------
PERFORMER: auCDtect Task Manager, ver. 1.5.1RC6 build 1.5.1.7
Copyright (c) 2008-2010 y-soft. All rights reserved
http://y-soft.org
ANALYZER: auCDtect: CD records authenticity detector, version 0.8.2
Copyright (c) 2004 Oleg Berngardt. All rights reserved.
Copyright (c) 2004 Alexander Djourik. All rights reserved.
FILE: 01 - Man About Town.flac
Size: 4296831 Hash: 373079A23739BB8BF2FFCE9D194A99BF Accuracy: -m8
Conclusion: CDDA 100%
Signature: 9D9C2573312D0AB1D07789555DA318CDBC03B739
FILE: 02 - Cosmic Love.flac
Size: 20963308 Hash: 5333DB9583FFC9EEF60F1657AEEACBCE Accuracy: -m8
Conclusion: CDDA 99%
Signature: 93887CE656412473F747F2FD31CD50D3A406714B
FILE: 03 - Book Of Broken Hearts.flac
Size: 24714530 Hash: 09F6AB2ED8E6C1D768066071F7814E98 Accuracy: -m8
Conclusion: CDDA 100%
Signature: EC11AFA31C5C1A10A4469C5CC7E8DA3F9EAB2A0C
FILE: 04 - Breakfast In Bed.flac
Size: 27669153 Hash: 47D12DE332BCFCBC05B8E48EAB48D7CF Accuracy: -m8
Conclusion: CDDA 100%
Signature: 0760655885FCF1880A0BC19CDAD3BDE19DF1EA35
FILE: 05 - Lingerie & Candlewax.flac
Size: 25705909 Hash: 67E952327DBE670C78D8A27A52FED656 Accuracy: -m8
Conclusion: CDDA 99%
Signature: 6D63321BD5A26FD1C345D55ED40792B07663C1F5
FILE: 06 - Fancy Clothes.flac
Size: 28904580 Hash: 2C67E3D29DD55CA617AC76384CADC9BA Accuracy: -m8
Conclusion: CDDA 100%
Signature: 75EA8BD4571389A1CEBBA504186C07BD79D3DBDE
FILE: 07 - The Valley.flac
Size: 25705342 Hash: 63FF13495FBC049A969B1BEC2F02681B Accuracy: -m8
Conclusion: CDDA 100%
Signature: D2FF485991E2833B7F68945DF0E9AAE27E68CC1E
FILE: 08 - Love Like That.flac
Size: 29325590 Hash: BBBDF05F59AE085982DCAB2AC8A2B8E8 Accuracy: -m8
Conclusion: CDDA 100%
Signature: 3CC41472D0118D4D97A68024C91196AA26E2C84B
FILE: 09 - Get You Back.flac
Size: 24752113 Hash: 06D90D6855CC169BCEFB336DC246916B Accuracy: -m8
Conclusion: CDDA 100%
Signature: 166C2485670FB34871B8D97B32D6AAC7CBFB3A7F
FILE: 10 - Out Of Pocket.flac
Size: 18894351 Hash: 7B75637F5DBFE86092A825CB8F70FE0F Accuracy: -m8
Conclusion: CDDA 100%
Signature: 30792C2B65444EE6D01FE82DFCD96998AE58A679
 
Динамический диапазон
foobar2000 1.3.8 / Dynamic Range Meter 1.1.1
log date: 2016-04-08 02:58:49
--------------------------------------------------------------------------------
Analyzed: Mayer Hawthorne / Man About Town
--------------------------------------------------------------------------------
DR Peak RMS Duration Track
--------------------------------------------------------------------------------
DR10 -0.29 dB -14.65 dB 0:42 01-Man About Town
DR9 0.00 dB -11.00 dB 3:14 02-Cosmic Love
DR7 0.00 dB -8.43 dB 3:34 03-Book Of Broken Hearts
DR7 0.00 dB -8.50 dB 4:07 04-Breakfast In Bed
DR6 0.00 dB -7.02 dB 3:38 05-Lingerie & Candlewax
DR6 0.00 dB -7.26 dB 4:11 06-Fancy Clothes
DR7 0.00 dB -7.88 dB 3:37 07-The Valley
DR6 0.00 dB -6.72 dB 4:06 08-Love Like That
DR5 0.00 dB -7.92 dB 3:36 09-Get You Back
DR7 0.00 dB -8.32 dB 3:23 10-Out Of Pocket
--------------------------------------------------------------------------------
Number of tracks: 10
Official DR value: DR7
Samplerate: 44100 Hz
Channels: 2
Bits per sample: 16
Bitrate: 743 kbps
Codec: FLAC
================================================================================
http://www.mayerhawthorne.com/
https://en.wikipedia.org/wiki/Mayer_Hawthorne
https://www.youtube.com/user/mayerhawthorneVEVO
Приватный:
Нет (DHT включён)
Размер:
220.47 Мб (231,182,646 байт) » файлов: 15
Участники:
0 раздают, 0 качают (0 участников всего)
Внешние участники:
1 раздают, 0 качают (1 участников всего) [ Обновить ]
Есть вопросы - пишите личное сообщение пользователю M0p94ok.
10:30
126
Нет комментариев. Ваш будет первым!