Поиск

(Funk, Soul, R&B) [CD] Tami Hert - Hert So Good - 1998, FLAC (tracks+.cue), lossless

(Funk, Soul, R&B) [CD] Tami Hert - Hert So Good - 1998, FLAC (tracks+.cue), lossless
Треклист:
Tami Hert - Hert So Good Жанр: Funk, Soul, R&B
Носитель: CD
Год издания: 1998
Издатель (лейбл): Epic
Номер по каталогу: ESCA 7280
Аудиокодек: FLAC (*.flac)
Тип рипа: tracks+.cue
Битрейт аудио: lossless
Продолжительность: 51:13
Источник (релизер): What.cd (Stosh50 )
Наличие сканов в содержимом раздачи: нет
Треклист:
01. Don't Disturb (3:52)
02. If You Were Mine (4:11)
03. Not Like Me (4:35)
04. Time Will (4:24)
05. Never Stop (3:58)
06. I Won't Tell (4:47)
07. Keep This Love Strong (4:41)
08. Love's Callin' (3:45)
09. Hurt So Good (3:40)
10. I'm Not Afraid (3:44)
11. Constant Change (4:08)
12. Believe In Yourself (1:36)
13. If You Were Mine (Detroit Demolition Mix) (3:51)
 
 
Лог создания рипа
Exact Audio Copy V1.1 from 23. June 2015
EAC extraction logfile from 7. April 2016, 19:22
Tami Hert / Hert So Good
Used drive : HL-DT-STBD-RE WH10LS30 Adapter: 1 ID: 0
Read mode : Secure
Utilize accurate stream : Yes
Defeat audio cache : Yes
Make use of C2 pointers : No
Read offset correction : 667
Overread into Lead-In and Lead-Out : No
Fill up missing offset samples with silence : Yes
Delete leading and trailing silent blocks : No
Null samples used in CRC calculations : Yes
Used interface : Native Win32 interface for Win NT & 2000
Gap handling : Appended to previous track
Used output format : User Defined Encoder
Selected bitrate : 896 kBit/s
Quality : High
Add ID3 tag : No
Command line compressor : C:\Program Files (x86)\Exact Audio Copy\FLAC\FLAC.EXE
Additional command line options : -8 -e -V -T "ARTIST=%artist%" -T "TITLE=%title%" -T "ALBUM=%albumtitle%" -T "DATE=%year%" -T "TRACKNUMBER=%tracknr%" -T "GENRE=%genre%" -T "PERFORMER=%albuminterpret%" -T "COMPOSER=%composer%" %haslyrics%--tag-from-file=LYRICS="%lyricsfile%"%haslyrics% -T "ALBUMARTIST=%albumartist%" -T "DISCNUMBER=%cdnumber%" -T "TOTALDISCS=%totalcds%" -T "TOTALTRACKS=%numtracks%" -T "COMMENT=%comment%" %source% -o %dest%
TOC of the extracted CD
Track | Start | Length | Start sector | End sector
---------------------------------------------------------
1 | 0:00.00 | 3:52.02 | 0 | 17401
2 | 3:52.02 | 4:11.13 | 17402 | 36239
3 | 8:03.15 | 4:35.10 | 36240 | 56874
4 | 12:38.25 | 4:23.65 | 56875 | 76664
5 | 17:02.15 | 3:58.12 | 76665 | 94526
6 | 21:00.27 | 4:46.70 | 94527 | 116046
7 | 25:47.22 | 4:41.28 | 116047 | 137149
8 | 30:28.50 | 3:45.27 | 137150 | 154051
9 | 34:14.02 | 3:40.32 | 154052 | 170583
10 | 37:54.34 | 3:43.38 | 170584 | 187346
11 | 41:37.72 | 4:07.55 | 187347 | 205926
12 | 45:45.52 | 1:36.15 | 205927 | 213141
13 | 47:21.67 | 3:51.15 | 213142 | 230481
Track 1
Filename E:\EAC Rips\Tami Hert - Hert So Good (1998) [FLAC]\01 - Don't Disturb.wav
Pre-gap length 0:00:02.00
Peak level 97.7 %
Extraction speed 1.1 X
Track quality 100.0 %
Test CRC 70C9EC63
Copy CRC 70C9EC63
Accurately ripped (confidence 1) [C84829C0] (AR v1)
Copy OK
Track 2
Filename E:\EAC Rips\Tami Hert - Hert So Good (1998) [FLAC]\02 - If You Were Mine.wav
Peak level 98.8 %
Extraction speed 1.2 X
Track quality 100.0 %
Test CRC 507E6932
Copy CRC 507E6932
Accurately ripped (confidence 1) [25CBF22E] (AR v1)
Copy OK
Track 3
Filename E:\EAC Rips\Tami Hert - Hert So Good (1998) [FLAC]\03 - Not Like Me.wav
Peak level 97.7 %
Extraction speed 1.3 X
Track quality 100.0 %
Test CRC 32293003
Copy CRC 32293003
Accurately ripped (confidence 1) [E7F64CC6] (AR v1)
Copy OK
Track 4
Filename E:\EAC Rips\Tami Hert - Hert So Good (1998) [FLAC]\04 - Time Will.wav
Peak level 98.8 %
Extraction speed 1.4 X
Track quality 100.0 %
Test CRC C8A57F58
Copy CRC C8A57F58
Accurately ripped (confidence 1) [15D27D1D] (AR v1)
Copy OK
Track 5
Filename E:\EAC Rips\Tami Hert - Hert So Good (1998) [FLAC]\05 - Never Stop.wav
Peak level 98.8 %
Extraction speed 1.5 X
Track quality 100.0 %
Test CRC 6A4E3766
Copy CRC 6A4E3766
Accurately ripped (confidence 1) [157B627F] (AR v1)
Copy OK
Track 6
Filename E:\EAC Rips\Tami Hert - Hert So Good (1998) [FLAC]\06 - I Won't Tell.wav
Peak level 97.7 %
Extraction speed 1.7 X
Track quality 100.0 %
Test CRC 5C3C8DEF
Copy CRC 5C3C8DEF
Accurately ripped (confidence 1) [48311C23] (AR v1)
Copy OK
Track 7
Filename E:\EAC Rips\Tami Hert - Hert So Good (1998) [FLAC]\07 - Keep This Love Strong.wav
Peak level 98.8 %
Extraction speed 1.7 X
Track quality 100.0 %
Test CRC 8E2EB40D
Copy CRC 8E2EB40D
Accurately ripped (confidence 1) [77BB8A33] (AR v1)
Copy OK
Track 8
Filename E:\EAC Rips\Tami Hert - Hert So Good (1998) [FLAC]\08 - Love's Callin'.wav
Peak level 97.7 %
Extraction speed 1.8 X
Track quality 100.0 %
Test CRC 1209318F
Copy CRC 1209318F
Accurately ripped (confidence 1) [E23811CD] (AR v1)
Copy OK
Track 9
Filename E:\EAC Rips\Tami Hert - Hert So Good (1998) [FLAC]\09 - Hurt So Good.wav
Peak level 97.7 %
Extraction speed 1.6 X
Track quality 99.9 %
Test CRC 95849B06
Copy CRC 95849B06
Accurately ripped (confidence 1) [12425CA1] (AR v1)
Copy OK
Track 10
Filename E:\EAC Rips\Tami Hert - Hert So Good (1998) [FLAC]\10 - I'm Not Afraid.wav
Peak level 98.8 %
Extraction speed 1.9 X
Track quality 100.0 %
Test CRC 3B4A08B4
Copy CRC 3B4A08B4
Accurately ripped (confidence 1) [FB08C4BF] (AR v1)
Copy OK
Track 11
Filename E:\EAC Rips\Tami Hert - Hert So Good (1998) [FLAC]\11 - Constant Change.wav
Peak level 98.8 %
Extraction speed 2.0 X
Track quality 100.0 %
Test CRC 7F298EB4
Copy CRC 7F298EB4
Accurately ripped (confidence 1) [9A7B91E1] (AR v1)
Copy OK
Track 12
Filename E:\EAC Rips\Tami Hert - Hert So Good (1998) [FLAC]\12 - Believe In Yourself.wav
Peak level 98.8 %
Extraction speed 1.7 X
Track quality 100.0 %
Test CRC E799D367
Copy CRC E799D367
Accurately ripped (confidence 1) [BB82A54B] (AR v1)
Copy OK
Track 13
Filename E:\EAC Rips\Tami Hert - Hert So Good (1998) [FLAC]\13 - If You Were Mine (Detroit Demolition Mix).wav
Peak level 98.8 %
Extraction speed 2.1 X
Track quality 100.0 %
Test CRC 86A810AE
Copy CRC 86A810AE
Accurately ripped (confidence 1) [6D2C4D3B] (AR v1)
Copy OK
All tracks accurately ripped
No errors occurred
End of status report
---- CUETools DB Plugin V2.1.6
[CTDB TOCID: j4coByj_b0Gn3e1sMcbh1gsvLGs-] disk not present in database
Submit result: j4coByj_b0Gn3e1sMcbh1gsvLGs- has been uploaded
==== Log checksum 37EBF827B0C5B57DB7837DC38E5DEAB99BEAA047F373A910B4B2553121AE232D ====
 
Содержание индексной карты (.CUE)
REM GENRE Soul
REM DATE 1998
REM DISCID B50C010D
REM COMMENT "ExactAudioCopy v1.1"
PERFORMER "Tami Hert"
TITLE "Hert So Good"
FILE "01 - Don't Disturb.wav" WAVE
TRACK 01 AUDIO
TITLE "Don't Disturb"
PERFORMER "Tami Hert"
INDEX 01 00:00:00
FILE "02 - If You Were Mine.wav" WAVE
TRACK 02 AUDIO
TITLE "If You Were Mine"
PERFORMER "Tami Hert"
INDEX 01 00:00:00
FILE "03 - Not Like Me.wav" WAVE
TRACK 03 AUDIO
TITLE "Not Like Me"
PERFORMER "Tami Hert"
INDEX 01 00:00:00
FILE "04 - Time Will.wav" WAVE
TRACK 04 AUDIO
TITLE "Time Will"
PERFORMER "Tami Hert"
INDEX 01 00:00:00
FILE "05 - Never Stop.wav" WAVE
TRACK 05 AUDIO
TITLE "Never Stop"
PERFORMER "Tami Hert"
INDEX 01 00:00:00
FILE "06 - I Won't Tell.wav" WAVE
TRACK 06 AUDIO
TITLE "I Won't Tell"
PERFORMER "Tami Hert"
INDEX 01 00:00:00
FILE "07 - Keep This Love Strong.wav" WAVE
TRACK 07 AUDIO
TITLE "Keep This Love Strong"
PERFORMER "Tami Hert"
INDEX 01 00:00:00
FILE "08 - Love's Callin'.wav" WAVE
TRACK 08 AUDIO
TITLE "Love's Callin'"
PERFORMER "Tami Hert"
INDEX 01 00:00:00
FILE "09 - Hurt So Good.wav" WAVE
TRACK 09 AUDIO
TITLE "Hurt So Good"
PERFORMER "Tami Hert"
INDEX 01 00:00:00
FILE "10 - I'm Not Afraid.wav" WAVE
TRACK 10 AUDIO
TITLE "I'm Not Afraid"
PERFORMER "Tami Hert"
INDEX 01 00:00:00
FILE "11 - Constant Change.wav" WAVE
TRACK 11 AUDIO
TITLE "Constant Change"
PERFORMER "Tami Hert"
INDEX 01 00:00:00
FILE "12 - Believe In Yourself.wav" WAVE
TRACK 12 AUDIO
TITLE "Believe In Yourself"
PERFORMER "Tami Hert"
INDEX 01 00:00:00
FILE "13 - If You Were Mine (Detroit Demolition Mix).wav" WAVE
TRACK 13 AUDIO
TITLE "If You Were Mine (Detroit Demolition Mix)"
PERFORMER "Tami Hert"
INDEX 01 00:00:00
Приватный:
Нет (DHT включён)
Размер:
355.63 Мб (372,904,762 байт) » файлов: 18
Участники:
0 раздают, 0 качают (0 участников всего)
Внешние участники:
1 раздают, 0 качают (1 участников всего) [ Обновить ]
Есть вопросы - пишите личное сообщение пользователю M0p94ok.
10:31
67
Нет комментариев. Ваш будет первым!