Поиск

(P-Funk, Soul) [CD] Parliament - Live (P.Funk Earth Tour) (1977) - 2007, FLAC (tracks+.cue), lossless

(P-Funk, Soul) [CD] Parliament - Live (P.Funk Earth Tour) (1977) - 2007, FLAC (tracks+.cue), lossless
Треклист:
Parliament - Live (P.Funk Earth Tour) (1977) Жанр: P-Funk, Soul
Носитель: CD
Страна-производитель диска (релиза): Japan
Год издания: 2007
Издатель (лейбл): Universal Music Japan
Номер по каталогу: UICY-76606
Аудиокодек: FLAC (*.flac)
Тип рипа: tracks+.cue
Битрейт аудио: lossless
Продолжительность: 76:07
Rip by JET 1
Наличие сканов в содержимом раздачи: да
Треклист:
01. P-Funk (Wants To Get Funked Up) (6:14)
02. Dr. Funkenstein's Supergroovalisticprosifunkstication Medley (4:59)
03. Do That Stuff (5:16)
04. The Landing (Of The Holy Mothership) (3:07)
05. The Undisco Kidd (The Girl Is Bad!) (7:03)
06. Children Of Productions (2:50)
07. Mothership Connection (Star Child) (5:53)
08. Swing Down, Sweet Chariot (5:07)
09. This Is The Way We Funk With You (5:04)
10. Dr. Funkenstein (15:10)
11. Gamin' On Ya (4:10)
12. Tear The Roof Off The Sucker Medley (4:57)
13. Night Of The Thumpasorus People (6:16)
 
 
Лог создания рипа
Exact Audio Copy V1.0 beta 3 from 29. August 2011
EAC extraction logfile from 1. April 2016, 7:03
Parliament / Parliament Live - P. Funk Earth Tour
Used drive : GENERIC CDRCB05 Adapter: 4 ID: 0
Read mode : Secure
Utilize accurate stream : Yes
Defeat audio cache : Yes
Make use of C2 pointers : No
Read offset correction : 102
Overread into Lead-In and Lead-Out : No
Fill up missing offset samples with silence : Yes
Delete leading and trailing silent blocks : No
Null samples used in CRC calculations : Yes
Used interface : Native Win32 interface for Win NT & 2000
Gap handling : Appended to previous track
Used output format : User Defined Encoder
Selected bitrate : 1024 kBit/s
Quality : High
Add ID3 tag : No
Command line compressor : C:\Program Files\FLAC\flac.exe
Additional command line options : -8 -V -T "ARTIST=%artist%" -T "TITLE=%title%" -T "ALBUM=%albumtitle%" -T "DATE=%year%" -T "TRACKNUMBER=%tracknr%" -T "GENRE=%genre%" -T "PERFORMER=%albuminterpret%" -T "COMPOSER=%composer%" %haslyrics%--tag-from-file=LYRICS="%lyricsfile%"%haslyrics% -T "ALBUMARTIST=%albumartist%" -T "DISCNUMBER=%cdnumber%" -T "TOTALDISCS=%totalcds%" -T "TOTALTRACKS=%numtracks%" -T "COMMENT=%comment%" %source% -o %dest%
TOC of the extracted CD
Track | Start | Length | Start sector | End sector
---------------------------------------------------------
1 | 0:00.37 | 6:14.30 | 37 | 28116
2 | 6:14.67 | 4:59.00 | 28117 | 50541
3 | 11:13.67 | 5:15.67 | 50542 | 74233
4 | 16:29.59 | 3:07.03 | 74234 | 88261
5 | 19:36.62 | 7:02.62 | 88262 | 119973
6 | 26:39.49 | 2:50.20 | 119974 | 132743
7 | 29:29.69 | 5:53.23 | 132744 | 159241
8 | 35:23.17 | 5:07.10 | 159242 | 182276
9 | 40:30.27 | 5:03.70 | 182277 | 205071
10 | 45:34.22 | 15:09.67 | 205072 | 273313
11 | 60:44.14 | 4:10.00 | 273314 | 292063
12 | 64:54.14 | 4:57.25 | 292064 | 314363
13 | 69:51.39 | 6:15.53 | 314364 | 342541
Track 1
Filename F:\POSTSSSSS\Parliament - Live (P.Funk Earth Tour) (1977) [2014 Japan]\01 - P-Funk (Wants To Get Funked Up).wav
Pre-gap length 0:00:02.37
Peak level 84.3 %
Extraction speed 2.6 X
Track quality 100.0 %
Test CRC C93E485C
Copy CRC C93E485C
Cannot be verified as accurate (confidence 2) [DAC6FEBB], AccurateRip returned [A212DF92] (AR v2)
Copy OK
Track 2
Filename F:\POSTSSSSS\Parliament - Live (P.Funk Earth Tour) (1977) [2014 Japan]\02 - Dr. Funkenstein's Supergroovalisticprosifunkstication Medley.wav
Peak level 90.6 %
Extraction speed 2.8 X
Track quality 100.0 %
Test CRC 03A29462
Copy CRC 03A29462
Cannot be verified as accurate (confidence 2) [DC63B203], AccurateRip returned [B5457CD6] (AR v2)
Copy OK
Track 3
Filename F:\POSTSSSSS\Parliament - Live (P.Funk Earth Tour) (1977) [2014 Japan]\03 - Do That Stuff.wav
Peak level 75.8 %
Extraction speed 3.1 X
Track quality 100.0 %
Test CRC 643AEF42
Copy CRC 643AEF42
Cannot be verified as accurate (confidence 2) [FC8FCBDE], AccurateRip returned [72B4C149] (AR v2)
Copy OK
Track 4
Filename F:\POSTSSSSS\Parliament - Live (P.Funk Earth Tour) (1977) [2014 Japan]\04 - The Landing (Of The Holy Mothership).wav
Pre-gap length 0:00:01.06
Peak level 85.1 %
Extraction speed 3.0 X
Track quality 100.0 %
Test CRC C272A2C2
Copy CRC C272A2C2
Cannot be verified as accurate (confidence 2) [4F2EC918], AccurateRip returned [1AF31A99] (AR v2)
Copy OK
Track 5
Filename F:\POSTSSSSS\Parliament - Live (P.Funk Earth Tour) (1977) [2014 Japan]\05 - The Undisco Kidd (The Girl Is Bad!).wav
Pre-gap length 0:00:01.54
Peak level 66.0 %
Extraction speed 3.6 X
Track quality 100.0 %
Test CRC 2709FA15
Copy CRC 2709FA15
Cannot be verified as accurate (confidence 2) [5415EA5E], AccurateRip returned [2E2329C6] (AR v2)
Copy OK
Track 6
Filename F:\POSTSSSSS\Parliament - Live (P.Funk Earth Tour) (1977) [2014 Japan]\06 - Children Of Productions.wav
Peak level 58.7 %
Extraction speed 3.4 X
Track quality 100.0 %
Test CRC 204C1BC9
Copy CRC 204C1BC9
Cannot be verified as accurate (confidence 2) [6A8EC344], AccurateRip returned [D9C1350D] (AR v2)
Copy OK
Track 7
Filename F:\POSTSSSSS\Parliament - Live (P.Funk Earth Tour) (1977) [2014 Japan]\07 - Mothership Connection (Star Child).wav
Peak level 78.2 %
Extraction speed 3.9 X
Track quality 100.0 %
Test CRC BD9C1A08
Copy CRC BD9C1A08
Cannot be verified as accurate (confidence 2) [CF1781D9], AccurateRip returned [8ACC5D68] (AR v2)
Copy OK
Track 8
Filename F:\POSTSSSSS\Parliament - Live (P.Funk Earth Tour) (1977) [2014 Japan]\08 - Swing Down, Sweet Chariot.wav
Pre-gap length 0:00:01.32
Peak level 77.2 %
Extraction speed 4.0 X
Track quality 100.0 %
Test CRC 42872FBD
Copy CRC 42872FBD
Cannot be verified as accurate (confidence 2) [34573BAF], AccurateRip returned [627FBD13] (AR v2)
Copy OK
Track 9
Filename F:\POSTSSSSS\Parliament - Live (P.Funk Earth Tour) (1977) [2014 Japan]\09 - This Is The Way We Funk With You.wav
Pre-gap length 0:00:00.34
Peak level 78.3 %
Extraction speed 4.2 X
Track quality 100.0 %
Test CRC 30AE3873
Copy CRC 30AE3873
Cannot be verified as accurate (confidence 2) [9086CCFE], AccurateRip returned [E347DC73] (AR v2)
Copy OK
Track 10
Filename F:\POSTSSSSS\Parliament - Live (P.Funk Earth Tour) (1977) [2014 Japan]\10 - Dr. Funkenstein.wav
Pre-gap length 0:00:00.07
Peak level 76.6 %
Extraction speed 4.9 X
Track quality 100.0 %
Test CRC 493FB74E
Copy CRC 493FB74E
Cannot be verified as accurate (confidence 2) [70155A18], AccurateRip returned [3DC74A4E] (AR v2)
Copy OK
Track 11
Filename F:\POSTSSSSS\Parliament - Live (P.Funk Earth Tour) (1977) [2014 Japan]\11 - Gamin' On Ya.wav
Pre-gap length 0:00:02.01
Peak level 95.7 %
Extraction speed 4.2 X
Track quality 99.9 %
Test CRC 74FC327B
Copy CRC 74FC327B
Cannot be verified as accurate (confidence 2) [EAFEE319], AccurateRip returned [DF300C15] (AR v2)
Copy OK
Track 12
Filename F:\POSTSSSSS\Parliament - Live (P.Funk Earth Tour) (1977) [2014 Japan]\12 - Tear The Roof Off The Sucker Medley.wav
Peak level 84.7 %
Extraction speed 4.7 X
Track quality 100.0 %
Test CRC 0283ABE1
Copy CRC 0283ABE1
Cannot be verified as accurate (confidence 2) [7377B1C8], AccurateRip returned [A21209DE] (AR v2)
Copy OK
Track 13
Filename F:\POSTSSSSS\Parliament - Live (P.Funk Earth Tour) (1977) [2014 Japan]\13 - Night Of The Thumpasorus People.wav
Pre-gap length 0:00:00.11
Peak level 100.0 %
Extraction speed 5.1 X
Track quality 100.0 %
Test CRC 02D15691
Copy CRC 02D15691
Cannot be verified as accurate (confidence 2) [F89CBC23], AccurateRip returned [F805998F] (AR v2)
Copy OK
No tracks could be verified as accurate
You may have a different pressing from the one(s) in the database
No errors occurred
End of status report
==== Log checksum F7678952C645034FA0F9736C163E378DFEADA4347DC469BB63B18FC1843EA7D0 ====
 
Содержание индексной карты (.CUE)
REM GENRE Funk
REM DATE 1977
REM DISCID C511D70D
REM COMMENT "ExactAudioCopy v1.0b3"
PERFORMER "Parliament"
TITLE "Parliament Live - P. Funk Earth Tour"
FILE "01 - P-Funk (Wants To Get Funked Up).wav" WAVE
TRACK 01 AUDIO
TITLE "P-Funk (Wants To Get Funked Up)"
PERFORMER "Parliament"
PREGAP 00:00:37
INDEX 01 00:00:00
FILE "02 - Dr. Funkenstein's Supergroovalisticprosifunkstication Medley.wav" WAVE
TRACK 02 AUDIO
TITLE "Dr. Funkenstein's Supergroovalisticprosifunkstication Medley"
PERFORMER "Parliament"
INDEX 01 00:00:00
FILE "03 - Do That Stuff.wav" WAVE
TRACK 03 AUDIO
TITLE "Do That Stuff"
PERFORMER "Parliament"
INDEX 01 00:00:00
TRACK 04 AUDIO
TITLE "The Landing (Of The Holy Mothership)"
PERFORMER "Parliament"
INDEX 00 05:14:61
FILE "04 - The Landing (Of The Holy Mothership).wav" WAVE
INDEX 01 00:00:00
TRACK 05 AUDIO
TITLE "The Undisco Kidd (The Girl Is Bad!)"
PERFORMER "Parliament"
INDEX 00 03:05:24
FILE "05 - The Undisco Kidd (The Girl Is Bad!).wav" WAVE
INDEX 01 00:00:00
FILE "06 - Children Of Productions.wav" WAVE
TRACK 06 AUDIO
TITLE "Children Of Productions"
PERFORMER "Parliament"
INDEX 01 00:00:00
FILE "07 - Mothership Connection (Star Child).wav" WAVE
TRACK 07 AUDIO
TITLE "Mothership Connection (Star Child)"
PERFORMER "Parliament"
INDEX 01 00:00:00
TRACK 08 AUDIO
TITLE "Swing Down, Sweet Chariot"
PERFORMER "Parliament"
INDEX 00 05:51:66
FILE "08 - Swing Down, Sweet Chariot.wav" WAVE
INDEX 01 00:00:00
TRACK 09 AUDIO
TITLE "This Is The Way We Funk With You"
PERFORMER "Parliament"
INDEX 00 05:06:51
FILE "09 - This Is The Way We Funk With You.wav" WAVE
INDEX 01 00:00:00
TRACK 10 AUDIO
TITLE "Dr. Funkenstein"
PERFORMER "Parliament"
INDEX 00 05:03:63
FILE "10 - Dr. Funkenstein.wav" WAVE
INDEX 01 00:00:00
TRACK 11 AUDIO
TITLE "Gamin' On Ya"
PERFORMER "Parliament"
INDEX 00 15:07:66
FILE "11 - Gamin' On Ya.wav" WAVE
INDEX 01 00:00:00
FILE "12 - Tear The Roof Off The Sucker Medley.wav" WAVE
TRACK 12 AUDIO
TITLE "Tear The Roof Off The Sucker Medley"
PERFORMER "Parliament"
INDEX 01 00:00:00
TRACK 13 AUDIO
TITLE "Night Of The Thumpasorus People"
PERFORMER "Parliament"
INDEX 00 04:57:14
FILE "13 - Night Of The Thumpasorus People.wav" WAVE
INDEX 01 00:00:00
 
CUETools log
[CUETools log; Date: 09.04.2016 9:28:15; Version: 2.0.9]
Pregap length 00:00:37.
[AccurateRip ID: 00228701-015e3f9e-c511d70d] found.
Track [ CRC ] Status
01 [4e00e59c] (0/2) No match
02 [1d4b85d9] (0/2) No match
03 [720ff8e1] (0/2) No match
04 [3d54b946] (0/2) No match
05 [ab96f581] (0/2) No match
06 [df01c8b0] (0/2) No match
07 [e3be1478] (0/2) No match
08 [ac6877d5] (0/2) No match
09 [d85cbc39] (0/2) No match
10 [5f0986cd] (0/2) No match
11 [a02eb380] (0/2) No match
12 [839a8dbb] (0/2) No match
13 [7656f487] (0/2) No match
Offsetted by -800:
01 [8743af3e] (2/2) No match but offset
02 [75442cba] (2/2) No match but offset
03 [721564a2] (2/2) No match but offset
04 [56103d06] (2/2) No match but offset
05 [0298f0e8] (2/2) No match but offset
06 [5552f151] (2/2) No match but offset
07 [3bf97460] (2/2) No match but offset
08 [f90ec9d5] (2/2) No match but offset
09 [37fdec59] (2/2) No match but offset
10 [f113fc8d] (2/2) No match but offset
11 [a0844d7d] (2/2) No match but offset
12 [4ec9d086] (2/2) No match but offset
13 [30e71da7] (2/2) No match but offset
Offsetted by 18:
01 [1d9de277] (0/2) No match
02 [f944b6fa] (0/2) No match
03 [efa07629] (0/2) No match
04 [0d6a1aca] (0/2) No match
05 [8e1c1d03] (0/2) No match
06 [4d460be3] (0/2) No match
07 [a7b321ed] (0/2) No match
08 [e1b934b5] (0/2) No match
09 [325ede57] (0/2) No match
10 [4226bb31] (0/2) No match
11 [9a25ad54] (0/2) No match
12 [b48e01ef] (0/2) No match
13 [7ea10815] (0/2) No match
Track Peak [ CRC32 ] [W/O NULL] [ LOG ]
-- 100,0 [A5663BDC] [8C7EB17E]
01 84,3 [C93E485C] [D0A144EC] CRC32
02 90,6 [03A29462] [30393031] CRC32
03 75,8 [643AEF42] [A26C53AC] CRC32
04 85,1 [C272A2C2] [C5078BE8] CRC32
05 66,0 [2709FA15] [08EA4667] CRC32
06 58,7 [204C1BC9] [FD49C586] CRC32
07 78,2 [BD9C1A08] [49BD9445] CRC32
08 77,2 [42872FBD] [B452951E] CRC32
09 78,3 [30AE3873] [3AA7D59C] CRC32
10 76,6 [493FB74E] [D5986CEB] CRC32
11 95,7 [74FC327B] [AFC1E4CC] CRC32
12 84,7 [0283ABE1] [FAD7BB1D] CRC32
13 100,0 [02D15691] [B06652E2] CRC32
Приватный:
Нет (DHT включён)
Размер:
567.97 Мб (595,559,102 байт) » файлов: 31
Участники:
0 раздают, 0 качают (0 участников всего)
Внешние участники:
3 раздают, 1 качают (4 участников всего) [ Обновить ]
Есть вопросы - пишите личное сообщение пользователю M0p94ok.
10:31
63
Нет комментариев. Ваш будет первым!