Поиск

(Soul) [CD] Gladys Knight & The Pips - Imagination - 1973, FLAC (tracks+.cue), lossless

(Soul) [CD] Gladys Knight & The Pips - Imagination - 1973, FLAC (tracks+.cue), lossless
Треклист:
Gladys Knight & The Pips / Imagination
Жанр: Soul
Носитель: CD
Страна-производитель диска (релиза): USA
Год издания: 1973
Издатель (лейбл): Buddah Records
Номер по каталогу: 75517-49504-2
Страна исполнителя (группы): USA
Аудиокодек: FLAC (*.flac)
Тип рипа: tracks+.cue
Битрейт аудио: lossless
Продолжительность: 50:08
Источник (релизер): israbox
Наличие сканов в содержимом раздачи: да
Треклист:
01. Midnight Train To Georgia (04:38)
02. I've Got To Use My Imagination (03:35)
03. Storms Of Troubled Times (04:03)
04. Best Thing That Ever Happened To Me (03:47)
05. Once In A Lifetime Thing (03:43)
06. Where Peaceful Waters Flow (04:27)
07. I Can See Clearly Now (04:15)
08. Perfect Love (02:39)
09. Window Raisin' Granny (06:10)
10. We Don't Look For Trouble (04:17)
11. Alone Again (05:10)
12. Rainbow Ride (03:19)
Allmusic.com:
 
Лог создания рипа
Exact Audio Copy V0.99 prebeta 5 from 4. May 2009
EAC extraction logfile from 30. January 2010, 17:50
Gladys Knight & The Pips / Imagination (Collector's Classics)
Used drive : HL-DT-STBD-RE GGW-H20L Adapter: 0 ID: 0
Read mode : Secure
Utilize accurate stream : Yes
Defeat audio cache : Yes
Make use of C2 pointers : No
Read offset correction : 667
Overread into Lead-In and Lead-Out : No
Fill up missing offset samples with silence : Yes
Delete leading and trailing silent blocks : No
Null samples used in CRC calculations : Yes
Used interface : Native Win32 interface for Win NT & 2000
Gap handling : Appended to previous track
Used output format : User Defined Encoder
Selected bitrate : 512 kBit/s
Quality : High
Add ID3 tag : No
Command line compressor : C:\Program Files (x86)\Exact Audio Copy\Flac\flac.exe
Additional command line options : -V -8 -T "artist=%a" -T "title=%t" -T "album=%g" -T "date=%y" -T "tracknumber=%n" -T "genre=%m" %s
TOC of the extracted CD
Track | Start | Length | Start sector | End sector
---------------------------------------------------------
1 | 0:00.00 | 4:38.22 | 0 | 20871
2 | 4:38.22 | 3:35.28 | 20872 | 37024
3 | 8:13.50 | 4:03.20 | 37025 | 55269
4 | 12:16.70 | 3:47.72 | 55270 | 72366
5 | 16:04.67 | 3:43.30 | 72367 | 89121
6 | 19:48.22 | 4:27.18 | 89122 | 109164
7 | 24:15.40 | 4:15.70 | 109165 | 128359
8 | 28:31.35 | 2:39.32 | 128360 | 140316
9 | 31:10.67 | 6:10.23 | 140317 | 168089
10 | 37:21.15 | 4:17.60 | 168090 | 187424
11 | 41:39.00 | 5:10.00 | 187425 | 210674
12 | 46:49.00 | 3:19.25 | 210675 | 225624
Track 1
Filename F:\EAC Rips\Gladys Knight & The Pips - 1996 - Imagination (Collector's Classics)\01 - Midnight Train To Georgia.wav
Pre-gap length 0:00:02.00
Peak level 90.2 %
Track quality 99.9 %
Test CRC 6818CBBE
Copy CRC 6818CBBE
Track not present in AccurateRip database
Copy OK
Track 2
Filename F:\EAC Rips\Gladys Knight & The Pips - 1996 - Imagination (Collector's Classics)\02 - I've Got To Use My Imagination.wav
Pre-gap length 0:00:01.54
Peak level 94.5 %
Track quality 100.0 %
Test CRC 52CA939C
Copy CRC 52CA939C
Accurately ripped (confidence 1) [DA849811]
Copy OK
Track 3
Filename F:\EAC Rips\Gladys Knight & The Pips - 1996 - Imagination (Collector's Classics)\03 - Storms Of Troubled Times.wav
Pre-gap length 0:00:01.86
Peak level 98.9 %
Track quality 100.0 %
Test CRC 9F2A6980
Copy CRC 9F2A6980
Accurately ripped (confidence 1) [40C70353]
Copy OK
Track 4
Filename F:\EAC Rips\Gladys Knight & The Pips - 1996 - Imagination (Collector's Classics)\04 - Best Thing That Ever Happened To Me.wav
Pre-gap length 0:00:02.44
Peak level 99.0 %
Track quality 100.0 %
Test CRC 31ED5EE6
Copy CRC 31ED5EE6
Accurately ripped (confidence 1) [E0C9C5BA]
Copy OK
Track 5
Filename F:\EAC Rips\Gladys Knight & The Pips - 1996 - Imagination (Collector's Classics)\05 - Once In A Lifetime Thing.wav
Pre-gap length 0:00:02.20
Peak level 92.6 %
Track quality 100.0 %
Test CRC 4E1904AD
Copy CRC 4E1904AD
Accurately ripped (confidence 1) [47AF611E]
Copy OK
Track 6
Filename F:\EAC Rips\Gladys Knight & The Pips - 1996 - Imagination (Collector's Classics)\06 - Where Peaceful Waters Flow.wav
Pre-gap length 0:00:01.60
Peak level 91.2 %
Track quality 100.0 %
Test CRC EC41868E
Copy CRC EC41868E
Accurately ripped (confidence 1) [0382D6BA]
Copy OK
Track 7
Filename F:\EAC Rips\Gladys Knight & The Pips - 1996 - Imagination (Collector's Classics)\07 - I Can See Clearly Now.wav
Pre-gap length 0:00:01.64
Peak level 95.9 %
Track quality 100.0 %
Test CRC 0183B57D
Copy CRC 0183B57D
Accurately ripped (confidence 1) [80A620F0]
Copy OK
Track 8
Filename F:\EAC Rips\Gladys Knight & The Pips - 1996 - Imagination (Collector's Classics)\08 - Perfect Love.wav
Peak level 89.5 %
Track quality 100.0 %
Test CRC D06728C8
Copy CRC D06728C8
Accurately ripped (confidence 1) [98663D2A]
Copy OK
Track 9
Filename F:\EAC Rips\Gladys Knight & The Pips - 1996 - Imagination (Collector's Classics)\09 - Window Raisin' Granny.wav
Pre-gap length 0:00:01.82
Peak level 94.5 %
Track quality 100.0 %
Test CRC A1D5C2AF
Copy CRC A1D5C2AF
Accurately ripped (confidence 1) [D8E6A384]
Copy OK
Track 10
Filename F:\EAC Rips\Gladys Knight & The Pips - 1996 - Imagination (Collector's Classics)\10 - We Don't Look For Trouble.wav
Pre-gap length 0:00:01.64
Peak level 82.4 %
Track quality 100.0 %
Test CRC 440E3C09
Copy CRC 440E3C09
Accurately ripped (confidence 1) [1FE8478F]
Copy OK
Track 11
Filename F:\EAC Rips\Gladys Knight & The Pips - 1996 - Imagination (Collector's Classics)\11 - Alone Again.wav
Pre-gap length 0:00:00.50
Peak level 99.9 %
Track quality 100.0 %
Test CRC A2BB6274
Copy CRC A2BB6274
Accurately ripped (confidence 1) [F5F353A4]
Copy OK
Track 12
Filename F:\EAC Rips\Gladys Knight & The Pips - 1996 - Imagination (Collector's Classics)\12 - Rainbow Ride.wav
Pre-gap length 0:00:01.84
Peak level 77.3 %
Track quality 100.0 %
Test CRC 0E10F8E2
Copy CRC 0E10F8E2
Accurately ripped (confidence 1) [F788F7DB]
Copy OK
11 track(s) accurately ripped
1 track(s) not present in the AccurateRip database
Some tracks could not be verified as accurate
No errors occurred
End of status report
 
Содержание индексной карты (.CUE)
REM GENRE R&B
REM DATE 1996
REM DISCID 9E0BC00C
REM COMMENT "ExactAudioCopy v0.99pb5"
PERFORMER "Gladys Knight & The Pips"
TITLE "Imagination (Collector's Classics)"
FILE "Gladys Knight & The Pips - 1996 - Imagination (Collector's Classics)\01 - Midnight Train To Georgia.wav" WAVE
TRACK 01 AUDIO
TITLE "Midnight Train To Georgia"
PERFORMER "Gladys Knight & The Pips"
INDEX 01 00:00:00
TRACK 02 AUDIO
TITLE "I've Got To Use My Imagination"
PERFORMER "Gladys Knight & The Pips"
INDEX 00 04:36:56
FILE "Gladys Knight & The Pips - 1996 - Imagination (Collector's Classics)\02 - I've Got To Use My Imagination.wav" WAVE
INDEX 01 00:00:00
TRACK 03 AUDIO
TITLE "Storms Of Troubled Times"
PERFORMER "Gladys Knight & The Pips"
INDEX 00 03:33:38
FILE "Gladys Knight & The Pips - 1996 - Imagination (Collector's Classics)\03 - Storms Of Troubled Times.wav" WAVE
INDEX 01 00:00:00
TRACK 04 AUDIO
TITLE "Best Thing That Ever Happened To Me"
PERFORMER "Gladys Knight & The Pips"
INDEX 00 04:00:62
FILE "Gladys Knight & The Pips - 1996 - Imagination (Collector's Classics)\04 - Best Thing That Ever Happened To Me.wav" WAVE
INDEX 01 00:00:00
TRACK 05 AUDIO
TITLE "Once In A Lifetime Thing"
PERFORMER "Gladys Knight & The Pips"
INDEX 00 03:45:57
FILE "Gladys Knight & The Pips - 1996 - Imagination (Collector's Classics)\05 - Once In A Lifetime Thing.wav" WAVE
INDEX 01 00:00:00
TRACK 06 AUDIO
TITLE "Where Peaceful Waters Flow"
PERFORMER "Gladys Knight & The Pips"
INDEX 00 03:41:60
FILE "Gladys Knight & The Pips - 1996 - Imagination (Collector's Classics)\06 - Where Peaceful Waters Flow.wav" WAVE
INDEX 01 00:00:00
TRACK 07 AUDIO
TITLE "I Can See Clearly Now"
PERFORMER "Gladys Knight & The Pips"
INDEX 00 04:25:45
FILE "Gladys Knight & The Pips - 1996 - Imagination (Collector's Classics)\07 - I Can See Clearly Now.wav" WAVE
INDEX 01 00:00:00
FILE "Gladys Knight & The Pips - 1996 - Imagination (Collector's Classics)\08 - Perfect Love.wav" WAVE
TRACK 08 AUDIO
TITLE "Perfect Love"
PERFORMER "Gladys Knight & The Pips"
INDEX 01 00:00:00
TRACK 09 AUDIO
TITLE "Window Raisin' Granny"
PERFORMER "Gladys Knight & The Pips"
INDEX 00 02:37:45
FILE "Gladys Knight & The Pips - 1996 - Imagination (Collector's Classics)\09 - Window Raisin' Granny.wav" WAVE
INDEX 01 00:00:00
TRACK 10 AUDIO
TITLE "We Don't Look For Trouble"
PERFORMER "Gladys Knight & The Pips"
INDEX 00 06:08:50
FILE "Gladys Knight & The Pips - 1996 - Imagination (Collector's Classics)\10 - We Don't Look For Trouble.wav" WAVE
INDEX 01 00:00:00
TRACK 11 AUDIO
TITLE "Alone Again"
PERFORMER "Gladys Knight & The Pips"
INDEX 00 04:17:22
FILE "Gladys Knight & The Pips - 1996 - Imagination (Collector's Classics)\11 - Alone Again.wav" WAVE
INDEX 01 00:00:00
TRACK 12 AUDIO
TITLE "Rainbow Ride"
PERFORMER "Gladys Knight & The Pips"
INDEX 00 05:08:12
FILE "Gladys Knight & The Pips - 1996 - Imagination (Collector's Classics)\12 - Rainbow Ride.wav" WAVE
INDEX 01 00:00:00
 
Лог проверки качества
AUDIOCHECKER v2.0 beta (build 457) - by Dester - opdester@freemail.hu
~~~~~~~~~~~~~~~~~~~~~~~~~~~~~~~~~~
Started at: вторник, 07. 04. 2015. - 12:47.28
12 files found
01 -===- L:\Knight, Gladys\(1973) Imagination\01 - Midnight Train To Georgia.flac
Extracted successfully
Conclusion: this track is CDDA with probability 100%
Tempfile successfully deleted.
02 -===- L:\Knight, Gladys\(1973) Imagination\02 - I've Got To Use My Imagination.flac
Extracted successfully
Conclusion: this track is CDDA with probability 100%
Tempfile successfully deleted.
03 -===- L:\Knight, Gladys\(1973) Imagination\03 - Storms Of Troubled Times.flac
Extracted successfully
Conclusion: this track is CDDA with probability 100%
Tempfile successfully deleted.
04 -===- L:\Knight, Gladys\(1973) Imagination\04 - Best Thing That Ever Happened To Me.flac
Extracted successfully
Conclusion: this track is CDDA with probability 100%
Tempfile successfully deleted.
05 -===- L:\Knight, Gladys\(1973) Imagination\05 - Once In A Lifetime Thing.flac
Extracted successfully
Conclusion: this track is CDDA with probability 100%
Tempfile successfully deleted.
06 -===- L:\Knight, Gladys\(1973) Imagination\06 - Where Peaceful Waters Flow.flac
Extracted successfully
Conclusion: this track is CDDA with probability 100%
Tempfile successfully deleted.
07 -===- L:\Knight, Gladys\(1973) Imagination\07 - I Can See Clearly Now.flac
Extracted successfully
Conclusion: this track is CDDA with probability 100%
Tempfile successfully deleted.
08 -===- L:\Knight, Gladys\(1973) Imagination\08 - Perfect Love.flac
Extracted successfully
Conclusion: this track is CDDA with probability 100%
Tempfile successfully deleted.
09 -===- L:\Knight, Gladys\(1973) Imagination\09 - Window Raisin' Granny.flac
Extracted successfully
Conclusion: this track is CDDA with probability 100%
Tempfile successfully deleted.
10 -===- L:\Knight, Gladys\(1973) Imagination\10 - We Don't Look For Trouble.flac
Extracted successfully
Conclusion: this track is CDDA with probability 100%
Tempfile successfully deleted.
11 -===- L:\Knight, Gladys\(1973) Imagination\11 - Alone Again.flac
Extracted successfully
Conclusion: this track is CDDA with probability 100%
Tempfile successfully deleted.
12 -===- L:\Knight, Gladys\(1973) Imagination\12 - Rainbow Ride.flac
Extracted successfully
Conclusion: this track is CDDA with probability 100%
Tempfile successfully deleted.
Finished at: вторник, 07. 04. 2015. - 12:50.56 (operation time: 0:03.27)
Приватный:
Нет (DHT включён)
Размер:
310.48 Мб (325,565,375 байт) » файлов: 25
Участники:
0 раздают, 0 качают (0 участников всего)
Внешние участники:
3 раздают, 1 качают (4 участников всего) [ Обновить ]
No seeders - write a personal message to user M0p94ok. Нет сидеров - пишите личное сообщение пользователю M0p94ok.
05:10
76
Нет комментариев. Ваш будет первым!